<?xml version="1.0" standalone="no"?>
<!DOCTYPE svg PUBLIC "-//W3C//DTD SVG 1.1//EN" "http://www.w3.org/Graphics/SVG/1.1/DTD/svg11.dtd" >
<svg xmlns="http://www.w3.org/2000/svg">
<metadata>
This is a custom SVG webfont generated by Font Squirrel.
Copyright   : Copyright c 2009 by Designtown All rights reserved
Designer    : Jasper de Waard
Foundry     : Designtown
</metadata>
<defs>
<font id="webfontg5O80P8B" horiz-adv-x="1079" >
<font-face units-per-em="2048" ascent="1638" descent="-410" />
<missing-glyph horiz-adv-x="526" />
<glyph unicode=" "  horiz-adv-x="526" />
<glyph unicode="&#x09;" horiz-adv-x="526" />
<glyph unicode="&#xa0;" horiz-adv-x="526" />
<glyph unicode="!" horiz-adv-x="718" d="M336 1489l-29 -1110h-139l-25 1110h193zM115 90q0 53 33.5 89t87.5 36q53 0 88.5 -36t35.5 -89t-35.5 -87t-88.5 -34t-87 34t-34 87z" />
<glyph unicode="&#x22;" horiz-adv-x="759" d="M111 1489h178v-160q0 -41 -7.5 -89t-28 -86t-54 -58.5t-88.5 -8.5v402zM467 1489h178v-160q0 -41 -7 -89t-27.5 -86t-54.5 -58.5t-89 -8.5v402z" />
<glyph unicode="#" horiz-adv-x="1830" d="M1026 338h-399q20 59 60 96t112 37h252l94 500h-471l-185 -971h-155l63 338h-229v133h254l94 500h-227v133h254l63 334h156l-64 -334h473l64 334h156l-64 -334h223v-133h-247l-97 -500h224v-133h-248l-64 -338h-155z" />
<glyph unicode="$" horiz-adv-x="1052" d="M532 1307q-104 0 -162.5 -57.5t-58.5 -135.5t49.5 -133t122 -101t158.5 -91.5t158.5 -102.5t122 -135t49.5 -191q0 -61 -23.5 -121.5t-68.5 -110.5t-113 -88t-154 -52v-207h-147v196q-86 4 -181.5 27t-191.5 70l53 133q96 -43 179.5 -61.5t156.5 -18.5q66 0 119 19.5 t91 52t58.5 75.5t20.5 91q0 84 -48 142t-121 104t-158 88t-157.5 97.5t-120.5 131.5t-48 186q0 66 25.5 125t71.5 104.5t109.5 75t141.5 37.5v203h147v-207q59 -6 119 -20.5t137 -36.5l-57 -133q-90 27 -155 36t-124 9z" />
<glyph unicode="%" horiz-adv-x="1667" d="M1221 1438h143l-897 -1438h-143zM717 1051q0 -98 -24.5 -176t-67.5 -132.5t-103.5 -82t-132.5 -27.5q-147 0 -238.5 108.5t-91.5 309.5q0 98 25 176t68 132t103 81.5t134 27.5q72 0 132.5 -27.5t103.5 -81.5t67.5 -132t24.5 -176zM543 1051q0 150 -41 222.5t-113 72.5 t-114 -73t-42 -222q0 -152 42 -223.5t114 -71.5t113 71.5t41 223.5zM1628 391q0 -98 -24.5 -176t-68.5 -132t-104.5 -82t-132.5 -28q-145 0 -236 108.5t-91 309.5q0 199 91 307.5t236 108.5t237.5 -108.5t92.5 -307.5zM1454 391q0 147 -41 221t-115 74q-72 0 -112.5 -73.5 t-40.5 -221.5q0 -152 41 -224.5t112 -72.5q74 0 115 72.5t41 224.5z" />
<glyph unicode="&#x26;" horiz-adv-x="1558" d="M813 143q131 43 225 -39q-72 -59 -155.5 -93t-196.5 -34q-104 0 -185 39t-136.5 101.5t-84 143.5t-28.5 167q0 70 20.5 131.5t54 113.5t79 97t94.5 82q-53 78 -82 152.5t-29 146.5q0 76 26.5 141.5t78 113.5t125 75.5t167.5 27.5q68 0 147 -17t146 -52l-49 -129 q-53 27 -122.5 39t-125.5 12q-96 0 -157.5 -54.5t-61.5 -138.5q0 -47 13.5 -87t37 -79.5t57.5 -81.5l77 -94l350 -407q51 90 79.5 173t45.5 183h147q-29 -135 -67.5 -254t-102.5 -223l258 -299h-241l-625 733q-61 -53 -101 -119.5t-40 -158.5q0 -147 68.5 -238.5 t197.5 -91.5q23 0 45 4t51 14z" />
<glyph unicode="'" horiz-adv-x="391" d="M111 1489h168v-160q0 -41 -6.5 -89t-24 -86t-50 -58.5t-87.5 -8.5v402z" />
<glyph unicode="(" horiz-adv-x="825" d="M537 606q0 -170 6 -296t34.5 -225t87 -181t160.5 -162l-80 -102q-119 80 -191.5 169t-113.5 202.5t-55 258t-14 336.5q0 190 14 335.5t55 258.5t114 202t191 169l80 -103q-102 -80 -160.5 -161.5t-87 -180t-34.5 -224.5t-6 -296z" />
<glyph unicode=")" horiz-adv-x="821" d="M293 606q0 170 -6 296t-35 224.5t-87.5 180.5t-160.5 161l80 103q119 -80 191.5 -169t113.5 -202t55.5 -258t14.5 -336q0 -193 -14.5 -337t-55.5 -257.5t-113.5 -203t-191.5 -168.5l-80 102q102 80 160.5 162t87.5 181t35 225t6 296z" />
<glyph unicode="*" horiz-adv-x="1085" d="M653 1509l135 -77l-103 -137l-58 -82l-28 -39l-7 -11l330 33v-156q-125 14 -192.5 20.5t-99.5 8.5t-37 2t-3 0l194 -268l-135 -78l-135 303l-137 -303l-135 78l192 270l-330 -33v156l332 -31l-198 267l135 77l141 -301z" />
<glyph unicode="+" horiz-adv-x="1163" d="M96 690h404v428h149v-428h406v-131h-406v-432h-149v432h-404v131z" />
<glyph unicode="," horiz-adv-x="403" d="M115 201h178v-160q0 -41 -7 -89t-27.5 -86t-54.5 -58.5t-89 -8.5v402z" />
<glyph unicode="-" horiz-adv-x="768" d="M92 559v131h619v-131h-619z" />
<glyph unicode="." horiz-adv-x="626" d="M190 90q0 53 34 89t87 36t89 -36t36 -89t-35.5 -87t-89.5 -34q-53 0 -87 34t-34 87z" />
<glyph unicode="/" horiz-adv-x="679" d="M20 -127l498 1616h162l-498 -1616h-162z" />
<glyph unicode="0" horiz-adv-x="1353" d="M674 -33q-250 0 -402.5 201t-152.5 547q0 170 39 309t110.5 237.5t174 151.5t229.5 53t229.5 -53t175 -151.5t111.5 -236.5t39 -310q0 -186 -44 -326.5t-120 -234t-176 -140.5t-213 -47zM1026 715q0 141 -24.5 252.5t-69.5 190.5t-110.5 120t-147.5 41 q-166 0 -260.5 -161t-94.5 -443q0 -283 94.5 -441.5t260.5 -158.5t259 157.5t93 442.5z" />
<glyph unicode="1" horiz-adv-x="653" d="M295 0v1202l-234 -125l-71 129l426 230h76v-1436h-197z" />
<glyph unicode="2" horiz-adv-x="1052" d="M963 1085q0 -82 -32 -161.5t-84 -156.5t-117 -152l-129 -147l-125 -142q-60 -70 -101 -136l-31 -34l45 8h598v-164h-870v78q100 166 215 302l210 255q95 119 158.5 222.5t63.5 205.5q0 57 -21.5 102t-58.5 77t-85 48.5t-101 16.5q-57 0 -123 -14.5t-150 -59.5l-51 137 q94 51 178 67.5t168 16.5q92 0 173 -24.5t140.5 -71.5t94.5 -116t35 -157z" />
<glyph unicode="3" horiz-adv-x="1081" d="M870 1135q0 -98 -54 -183.5t-152 -138.5l-52 -16l45 -11q49 -18 96.5 -51t83 -79t58.5 -104t23 -128q0 -88 -38 -169t-104.5 -142.5t-160 -98.5t-203.5 -37q-117 0 -208 32t-143 65l48 133q41 -27 121.5 -53.5t179.5 -26.5q78 0 135 28.5t96 73.5t57.5 97.5t18.5 101.5 q0 76 -30 127t-82 82t-125.5 43t-160.5 12l-18 111l107 43l92 42q47 22 85 50.5t61.5 68.5t23.5 95q0 94 -61.5 150.5t-155.5 56.5q-59 0 -130 -14.5t-155 -59.5l-51 137q94 51 183 68.5t173 17.5q88 0 162 -24.5t126 -67.5t80.5 -102t28.5 -129z" />
<glyph unicode="4" horiz-adv-x="1218" d="M762 1436h178v-971h164v-146h-164v-319h-178v1118l4 56l-31 -52l-440 -637l-23 -22l33 4h189q41 0 73.5 -16.5t57 -40t41 -49t24.5 -42.5h-596v125z" />
<glyph unicode="5" horiz-adv-x="1095" d="M315 846l72 8q35 4 74 4q127 0 219 -37t152.5 -98t90 -139t29.5 -160q0 -88 -33.5 -169t-98 -142.5t-159 -98.5t-217.5 -37q-39 0 -87 7.5t-95 20.5t-92 31.5t-78 41.5l47 133q82 -47 163 -65.5t140 -18.5q88 0 148.5 28.5t95.5 73.5t50.5 97.5t15.5 101.5q0 74 -25 127 t-70 89t-105 52.5t-134 16.5q-27 0 -59.5 -3t-67.5 -8.5t-70 -13.5t-65 -16l53 764h682v-162h-543z" />
<glyph unicode="6" horiz-adv-x="1339" d="M846 1298q-109 0 -198 -46t-153.5 -129t-100.5 -198.5t-36 -252.5q0 -84 13.5 -180.5t50.5 -179.5t101.5 -138t166.5 -55q59 0 108.5 23.5t85.5 66.5t55 102.5t19 130.5q0 141 -65.5 213t-157.5 72q-16 0 -31.5 -2t-39.5 -8q-39 -10 -74 -6t-64.5 14t-52 25.5t-37.5 27.5 l92 46q41 19 75 29.5t65.5 15.5t66.5 5q92 0 170 -27.5t134.5 -82.5t88 -136t31.5 -186q0 -88 -32.5 -173t-94 -150.5t-147.5 -106.5t-191 -41q-154 0 -257 61.5t-165.5 161t-88 223.5t-25.5 251q0 141 45 280t132 250t216 179.5t295 68.5q51 0 105.5 -11.5t109.5 -35.5 l-45 -135q-45 20 -88 27t-82 7z" />
<glyph unicode="7" horiz-adv-x="1026" d="M266 0q47 358 164 668.5t318 597.5h-670v170h874v-156q-84 -109 -161.5 -229.5t-143 -272t-113 -342t-69.5 -436.5h-199z" />
<glyph unicode="8" horiz-adv-x="1257" d="M399 1087q0 -59 30 -101t79 -74.5t112 -58.5l130 -54q66 63 104.5 124.5t38.5 139.5q0 61 -21.5 107.5t-57.5 77t-80 46t-89 15.5q-47 0 -91 -15.5t-78 -43t-55.5 -70t-21.5 -93.5zM639 119q133 0 215 68.5t82 177.5q0 88 -53.5 143t-133 95t-174 76t-174 86t-133 126 t-53.5 196q0 88 37 157t96.5 116t137 72.5t159.5 25.5q86 0 164 -25.5t136.5 -72.5t93 -115.5t34.5 -157.5q0 -100 -53 -185t-129 -171q47 -27 89 -60.5t72.5 -77.5t49 -100.5t18.5 -127.5q0 -94 -39 -168t-105.5 -124t-153.5 -76t-183 -26q-98 0 -184 26t-150.5 76 t-101.5 123.5t-37 168.5q0 35 7 71.5t25.5 78.5t52.5 90t87 106q35 -49 48 -108.5t-15 -113.5q-29 -57 -29 -100q0 -63 22.5 -113.5t62.5 -85t94.5 -53t117.5 -18.5z" />
<glyph unicode="9" horiz-adv-x="1339" d="M469 129q111 0 201 46t154.5 130t99 198.5t34.5 254.5q0 82 -13 178t-50 179t-101.5 137.5t-164.5 54.5q-61 0 -111.5 -23.5t-85.5 -66.5t-54.5 -102.5t-19.5 -129.5q0 -139 64.5 -212t159.5 -73q14 0 30.5 2.5t40.5 6.5q39 10 74 7t64.5 -13.5t51 -25.5t36.5 -30 q-53 -29 -93.5 -46t-74 -27.5t-64.5 -14.5t-65 -4q-92 0 -170 27.5t-135.5 82t-89 135.5t-31.5 185q0 88 33.5 173t95 150.5t147.5 105.5t191 40q154 0 257 -61.5t164.5 -159.5t88 -222t26.5 -249q0 -141 -45 -281.5t-133 -251t-217 -180t-295 -69.5q-106 0 -215 51l47 135 q45 -20 88 -28.5t80 -8.5z" />
<glyph unicode=":" horiz-adv-x="612" d="M190 90q0 53 34 89t87 36t89 -36t36 -89t-35.5 -87t-89.5 -34q-53 0 -87 34t-34 87zM190 870q0 53 34 89t87 36t89 -35.5t36 -89.5q0 -53 -35.5 -86.5t-89.5 -33.5q-53 0 -87 33.5t-34 86.5z" />
<glyph unicode=";" horiz-adv-x="612" d="M190 870q0 53 34 89t87 36t89 -35.5t36 -89.5q0 -53 -35.5 -86.5t-89.5 -33.5q-53 0 -87 33.5t-34 86.5zM225 201h181v-160q0 -41 -8.5 -89t-28 -86t-54 -58.5t-90.5 -8.5v402z" />
<glyph unicode="&#x3c;" horiz-adv-x="1255" d="M1135 166v-166l-1059 514v102l1059 514v-163l-834 -387l-53 -15l53 -12z" />
<glyph unicode="=" horiz-adv-x="1241" d="M137 500h967v-140h-967v140zM137 952h967v-139h-967v139z" />
<glyph unicode="&#x3e;" horiz-adv-x="1255" d="M909 553l54 12l-54 15l-833 387v163l1059 -514v-102l-1059 -514v166z" />
<glyph unicode="?" horiz-adv-x="1193" d="M567 1509q88 0 162 -23.5t126 -65.5t81 -98t29 -120q0 -86 -30 -153.5t-74 -128t-95 -118t-95 -119.5t-74 -136t-30 -168h-147q0 111 25.5 193.5t63.5 148t83 118t83 103.5t63.5 105.5t25.5 123.5q0 82 -60.5 136.5t-156.5 54.5q-59 0 -126 -14.5t-149 -59.5l-51 137 q94 51 177 67.5t169 16.5zM369 90q0 53 34.5 89t88.5 36q53 0 88.5 -36t35.5 -89t-35.5 -87t-88.5 -34t-88 34t-35 87z" />
<glyph unicode="@" horiz-adv-x="1882" d="M1268 238q6 4 15 12t15 12q123 78 173.5 169t50.5 210q0 129 -41 230.5t-116 171t-182.5 106.5t-238.5 37t-243.5 -41t-195.5 -123t-130 -206t-47 -290t47 -288.5t127 -203.5t186.5 -122t226.5 -41q45 0 87 2t86.5 9t95.5 19.5t114 32.5l43 -112q-74 -23 -130 -37 t-105 -21.5t-94 -10.5t-97 -3q-158 0 -293 44t-234 138.5t-156.5 240.5t-57.5 353q0 190 62.5 337t168 245t246 148.5t295.5 50.5q158 0 291 -45t230.5 -130t151.5 -209t54 -282q0 -111 -34.5 -199t-99 -154.5t-155 -109.5t-200.5 -63q-23 12 -34 30.5t-22 44.5l-4 39 l-20 -41q-59 -59 -113.5 -75.5t-109.5 -16.5q-131 0 -205 62.5t-74 165.5q0 125 101.5 184t330.5 84q-2 -14 -8 -34.5t-19.5 -41t-35 -36t-51.5 -19.5q-92 -12 -129 -47t-37 -82q0 -51 41 -83t106 -32q53 0 111.5 23.5t105.5 87.5v299q0 94 -45 151.5t-155 57.5 q-43 0 -94.5 -9.5t-104.5 -31.5l-41 104q78 33 140.5 44t127.5 11q154 0 238 -89t84 -249v-233v-49q0 -25 2 -47z" />
<glyph unicode="A" horiz-adv-x="1406" d="M799 1489l536 -1489h-209l-415 1200l-15 60l-14 -60l-229 -657l-23 -43l25 4h276q74 0 113 -44t61 -104h-516l-123 -356h-194l536 1489h191z" />
<glyph unicode="B" horiz-adv-x="1316" d="M608 850q76 0 135.5 20.5t99.5 57.5t60.5 86t20.5 106q0 104 -80 174t-236 70q-55 0 -117.5 -3t-117.5 -9v-502h235zM649 131q25 -4 44.5 -5t47.5 -1q53 0 101.5 22.5t85.5 61.5t58.5 91t21.5 112q0 76 -32 132t-85 93t-127 54.5t-156 17.5h-235v-709h-195v1470 q117 23 218.5 34.5t211.5 11.5q131 0 228.5 -31t162 -84t96 -126t31.5 -155q0 -37 -10 -79t-29.5 -82.5t-48 -75.5t-65.5 -60l-60 -28l58 -15q117 -55 180 -146t63 -214q0 -80 -31.5 -159t-93 -142.5t-149.5 -103.5t-199 -40q-59 0 -126.5 7.5t-159.5 29.5q31 53 77 92 q36 30 85 30q15 0 32 -3z" />
<glyph unicode="C" horiz-adv-x="1335" d="M889 -25q-158 0 -293 53.5t-235.5 153t-157 240.5t-56.5 319q0 172 56.5 314.5t157 245t235.5 159t293 56.5q86 0 177 -17.5t185 -52.5l-53 -133q-90 29 -163.5 41t-145.5 12q-106 0 -202.5 -39t-170.5 -116.5t-117 -195.5t-43 -274q0 -139 43 -252.5t117 -195.5 t170 -126t203 -44q72 0 147.5 18.5t161.5 61.5l53 -133q-96 -51 -186 -73t-176 -22z" />
<glyph unicode="D" horiz-adv-x="1460" d="M745 -25q-70 0 -133 6.5t-153 28.5q29 53 76 88q40 30 96 30q10 0 20 -1q33 -4 50 -4h42q98 0 183.5 49t149 134t99 198.5t35.5 243.5q0 297 -150.5 457.5t-453.5 160.5q-61 0 -120.5 -4t-108.5 -10v-1352h-195v1466q98 23 216 36.5t208 13.5q195 0 346.5 -52.5t255 -152 t157.5 -241.5t54 -322q0 -168 -54 -309.5t-146.5 -245t-214.5 -161t-259 -57.5z" />
<glyph unicode="E" horiz-adv-x="1181" d="M182 1489h848v-148h-653v-1194h684v-147h-879v1489zM961 852v-143h-506q23 59 62.5 101t113.5 42h330z" />
<glyph unicode="F" horiz-adv-x="1173" d="M182 1489h848v-148h-653v-1341h-195v1489zM961 852v-143h-506q23 59 62.5 101t113.5 42h330z" />
<glyph unicode="G" horiz-adv-x="1320" d="M840 1366q-106 0 -207 -38t-179.5 -115.5t-125.5 -194.5t-47 -275t47 -273.5t125.5 -193t179 -115.5t207.5 -38q45 0 103 6t126 29v532h188v-614q-111 -59 -220 -80t-197 -21q-158 0 -297.5 52.5t-243.5 152t-165.5 241.5t-61.5 322q0 172 61.5 314.5t165.5 244 t243.5 158t297.5 56.5q88 0 192.5 -19.5t212.5 -71.5l-53 -133q-111 47 -195.5 60.5t-156.5 13.5z" />
<glyph unicode="H" horiz-adv-x="1495" d="M1122 852v637h195v-1489h-195v709h-667q23 59 62.5 101t111.5 42h493zM182 1489h195v-1489h-195v1489z" />
<glyph unicode="I" horiz-adv-x="552" d="M371 0h-189v1489h189v-1489z" />
<glyph unicode="J" horiz-adv-x="704" d="M535 262q0 -135 -33 -232.5t-92.5 -174t-145.5 -143t-192 -138.5l-82 104l140 118q65 54 111 117.5t71.5 145.5t25.5 203v1227h197v-1227z" />
<glyph unicode="K" horiz-adv-x="1353" d="M782 887l531 -887h-236l-397 711l-14 37l-19 -37l-162 -213q-14 31 -17 72q-1 13 -1 26q0 30 5 63q7 47 25.5 94.5t49.5 90.5l477 645h221zM182 0v1489h195v-1489h-195z" />
<glyph unicode="L" horiz-adv-x="1064" d="M182 1489h197v-1339h622l-2 -150h-817v1489z" />
<glyph unicode="M" horiz-adv-x="1943" d="M307 1489h252l399 -1196l15 -64l14 64l399 1196h252l164 -1489h-186l-117 1192l-6 88l-25 -88l-405 -1172h-182l-408 1174l-27 86l-6 -86l-114 -1194h-185z" />
<glyph unicode="N" horiz-adv-x="1533" d="M403 1190l-28 70l4 -70v-1190h-166v1489h195l722 -1155l25 -68l-4 72v1151h172v-1489h-174z" />
<glyph unicode="O" horiz-adv-x="1619" d="M92 745q0 197 62.5 342.5t163 241.5t222.5 143.5t242 47.5q166 0 295 -61.5t217 -167t133.5 -247t45.5 -299.5q0 -178 -55.5 -320t-151 -243.5t-220 -156t-264.5 -54.5q-143 0 -269 53.5t-219 152.5t-147.5 242.5t-54.5 325.5zM301 745q0 -139 36 -253.5t100.5 -197.5 t152.5 -129t192 -46q109 0 198 49t151.5 133t97.5 198.5t35 245.5q0 143 -38 259t-103.5 198t-153.5 125t-187 43q-98 0 -186 -43t-153.5 -125t-103.5 -198t-38 -259z" />
<glyph unicode="P" horiz-adv-x="1247" d="M1143 1065q0 -98 -40 -176t-107.5 -134.5t-153.5 -89t-178 -40.5q-30 -3 -63 -3q-16 0 -34 1q-51 2 -108 18q23 53 68.5 89t111.5 36q53 0 106.5 22.5t95.5 62.5t68.5 94t26.5 120q0 63 -26.5 118.5t-71.5 96.5t-105.5 63.5t-130.5 22.5q-115 0 -225 -12v-1354l-195 4 v1471q115 23 211 32t209 9q123 0 223.5 -36t171 -97.5t108.5 -143.5t38 -174z" />
<glyph unicode="Q" horiz-adv-x="1613" d="M1460 80l-110 -107l-506 514l110 109l205 -213l27 -39l14 49q45 84 61.5 173t16.5 179q0 143 -38 259t-102.5 198t-152.5 125t-186 43t-186.5 -43t-154 -125t-104.5 -197.5t-39 -259.5q0 -143 37 -258.5t101.5 -196.5t151.5 -125t188 -44q37 0 63.5 4t56.5 12q28 7 58 8 q27 0 56 -7q60 -13 95 -50q-86 -61 -165.5 -89t-163.5 -28q-145 0 -270.5 54.5t-217.5 156t-144 244.5t-52 319q0 178 56 320.5t150.5 244t219 156t264.5 54.5q145 0 271 -53.5t218 -154t145.5 -243.5t53.5 -324q0 -139 -44 -255.5t-138 -251.5z" />
<glyph unicode="R" horiz-adv-x="1327" d="M1143 1075q0 -123 -68.5 -216t-175.5 -146l-49 -17l41 -16q76 -51 116 -125t67.5 -163t53 -188.5t72.5 -203.5h-205q-41 88 -64.5 188.5t-52 192.5t-72.5 163.5t-124 102.5q-6 -2 -18 -2q-26 -2 -54 -2q-21 0 -43 1q-51 3 -108 18q23 53 68.5 87.5t111.5 36.5 q53 2 106.5 25t95.5 60.5t68.5 91t26.5 116.5q0 61 -26.5 113.5t-71.5 91.5t-105.5 61.5t-130.5 22.5q-57 0 -104 -2t-121 -16v-1350h-195v1470q115 23 211 35.5t209 12.5q123 0 223.5 -35t171 -95.5t108.5 -140.5t38 -168v-4z" />
<glyph unicode="S" horiz-adv-x="1134" d="M575 1366q-57 0 -101 -17.5t-74.5 -48t-46 -70.5t-15.5 -85q0 -80 51 -136.5t129 -103.5t167 -93t167 -105.5t129 -139.5t51 -196q0 -76 -31.5 -147.5t-94 -127t-152.5 -88.5t-207 -33q-43 0 -96.5 5.5t-108.5 15.5t-112.5 28.5t-108.5 43.5l53 133q92 -41 185.5 -59.5 t164.5 -18.5q145 0 225 72.5t80 179.5q0 88 -51 146.5t-127 105.5t-166 91t-165.5 100t-127 134t-51.5 193q0 76 30 143.5t85 118.5t131 80t168 29q88 0 177 -14.5t194 -47.5l-56 -133q-88 27 -163 36t-132 9z" />
<glyph unicode="T" horiz-adv-x="1114" d="M20 1341v148h1067v-148h-436v-1341h-196v1341h-435z" />
<glyph unicode="U" horiz-adv-x="1421" d="M711 -29q-131 0 -233.5 42t-173.5 118t-107.5 182.5t-36.5 235.5v940h192v-973q0 -182 97.5 -289.5t261.5 -107.5t261 107.5t97 289.5v973h193v-940q0 -129 -40 -235.5t-113 -182.5t-174 -118t-224 -42z" />
<glyph unicode="V" horiz-adv-x="1290" d="M549 0l-522 1489h211l401 -1223l14 -67l17 65l399 1225h203l-518 -1489h-205z" />
<glyph unicode="W" horiz-adv-x="1990" d="M1108 1468l309 -1189l21 -101l18 96l301 1215h193l-400 -1489h-229l-305 1159l-17 86l-16 -82l-303 -1163h-238l-399 1489h197l303 -1208l16 -101l23 101l317 1187h209z" />
<glyph unicode="X" horiz-adv-x="1282" d="M96 1489h228l301 -543l18 -51l16 51l306 543h217l-434 -717l460 -772h-221zM281 0h-211l409 676q18 -25 32.5 -54.5t23.5 -61.5q6 -23 5 -47v-18q-3 -34 -22 -65z" />
<glyph unicode="Y" horiz-adv-x="1351" d="M758 690v-690h-191v633l-510 856h222zM1038 1489h215l-438 -719q-18 25 -33.5 54.5t-22.5 62.5q-5 21 -5 43q0 13 2 25q4 36 24 73z" />
<glyph unicode="Z" horiz-adv-x="1224" d="M264 1489h961v-78l-793 -1239l-31 -31l45 6h799v-147h-1071v78l791 1235l32 35l-49 -7h-684v148z" />
<glyph unicode="[" horiz-adv-x="915" d="M297 1579h526v-147h-350v-1692h352l-2 -148h-526v1987z" />
<glyph unicode="\" horiz-adv-x="774" d="M549 -127l-498 1616h182l498 -1616h-182z" />
<glyph unicode="]" horiz-adv-x="935" d="M635 -408h-524l-2 148h352v1692h-350v147h524v-1987z" />
<glyph unicode="^" horiz-adv-x="1286" d="M334 430h-162l422 1059h104l422 -1059h-157l-304 758l-12 53l-12 -53z" />
<glyph unicode="_" horiz-adv-x="1017" d="M55 -129v129h908v-129h-908z" />
<glyph unicode="`" horiz-adv-x="401" d="M41 1489h219l135 -256q-61 -16 -114.5 -3t-92.5 62z" />
<glyph unicode="a" d="M928 350q0 -123 9 -210t24 -140h-140q-29 16 -45 44t-28 60l-3 37l-22 -37q-78 -78 -144.5 -101t-140.5 -23q-80 0 -143.5 22.5t-108.5 61t-68.5 92t-23.5 114.5q0 78 30 135.5t96.5 98.5t175 68.5t266.5 45.5q-4 -18 -11.5 -42.5t-25 -48t-44 -42t-67.5 -24.5 q-68 -10 -110 -28.5t-66.5 -42t-32.5 -51.5t-8 -56q0 -63 45 -109.5t123 -46.5q70 0 140.5 35t129.5 112v383q0 121 -59.5 198t-198.5 77q-55 0 -109.5 -11.5t-127.5 -37.5l-47 127q100 43 176.5 56t144.5 13q199 0 306.5 -113.5t107.5 -322.5v-293z" />
<glyph unicode="b" horiz-adv-x="1191" d="M430 1016q53 27 113.5 41t107.5 14q84 0 162 -33.5t138.5 -101.5t96 -168t35.5 -233q0 -123 -37.5 -224.5t-105.5 -175.5t-163 -114.5t-210 -40.5q-221 0 -397 102v1470h190v-1392q49 -18 104.5 -25.5t102.5 -7.5q74 0 132.5 29.5t99.5 83t62.5 129t21.5 166.5 q0 205 -81 301q-75 89 -194 88h-20q-5 0 -11 -1q-85 0 -147 93z" />
<glyph unicode="c" horiz-adv-x="874" d="M580 -20q-102 0 -192.5 35.5t-157 105t-105.5 173t-39 236.5t40 235.5t107.5 172.5t157.5 105.5t189 35.5q55 0 121.5 -10t127.5 -33l-47 -133q-59 16 -107 22.5t-95 6.5q-59 0 -111.5 -24.5t-92.5 -74t-63.5 -125t-23.5 -178.5q0 -104 23.5 -180t63.5 -125t92 -73.5 t112 -24.5q45 0 99 13.5t126 45.5l51 -135q-84 -41 -156.5 -56t-119.5 -15z" />
<glyph unicode="d" horiz-adv-x="1224" d="M104 535q0 123 40 222t106.5 168.5t151.5 107.5t178 38q47 0 98 -7t106 -28q-29 -51 -74 -83q-43 -30 -110 -29h-8.5h-8.5q-48 0 -96 -20q-51 -22 -91 -69t-64.5 -121.5t-24.5 -178.5q0 -90 18.5 -165t53.5 -128.5t87 -84t120 -30.5q145 0 268 149v1276h190v-1202 q0 -123 9.5 -210t21.5 -140h-137q-25 23 -40 46.5t-32 64.5l-4 32l-16 -34q-63 -72 -145.5 -100.5t-145.5 -28.5q-109 0 -191.5 43t-141 117.5t-88.5 176t-30 218.5z" />
<glyph unicode="e" horiz-adv-x="1114" d="M813 649q2 18 2 35q0 40 -10 76q-14 51 -44 90t-73 60.5t-92 21.5q-129 0 -210 -102.5t-81 -292.5q0 -92 24.5 -167t68.5 -129.5t103.5 -84t129.5 -29.5q72 0 134 14.5t150 59.5l52 -135q-98 -51 -190.5 -68.5t-166.5 -17.5q-113 0 -205 41.5t-156.5 116.5t-99 177.5 t-34.5 223.5q0 125 34.5 224t100 170t158 108.5t208.5 37.5q104 0 186.5 -47t131.5 -126t60 -181q3 -26 3 -53q0 -78 -24 -160h-594q23 59 61.5 98t112.5 39h260z" />
<glyph unicode="f" horiz-adv-x="798" d="M10 918v98l176 43v57q0 100 27 183t77 141.5t122.5 90.5t167.5 32q51 0 113.5 -11.5t133.5 -42.5l-43 -125q-66 25 -107.5 32t-74.5 7q-43 0 -86 -16t-76.5 -50t-54 -89.5t-20.5 -130.5v-1137h-179v918h-176zM735 1059v-141h-297q23 59 62 100t112 41h123z" />
<glyph unicode="g" horiz-adv-x="1169" d="M111 524q0 125 39.5 227.5t112.5 175t172.5 112.5t217.5 40q86 0 171 -15t192 -50v-1014q0 -115 -34 -209t-97.5 -161.5t-152.5 -104.5t-202 -37q-80 0 -174 16.5t-196 69.5l53 139q88 -43 162 -60.5t139 -17.5q63 0 120.5 20.5t100.5 62.5t68.5 106.5t25.5 152.5v932 q-47 12 -88 17.5t-88 5.5q-154 0 -248 -104.5t-94 -303.5q0 -86 17.5 -160.5t53.5 -127t88 -78.5q40 -20 91 -21q16 0 33 2q9 1 18 1q36 0 69 -13q42 -16 79 -64q-51 -35 -104.5 -53t-100.5 -22q-17 -2 -34 -2q-73 0 -139 29q-81 36 -141.5 108t-95 174t-34.5 227z" />
<glyph unicode="h" horiz-adv-x="1191" d="M170 0v1552h190v-1552h-190zM831 770q0 72 -27.5 117t-86.5 45q-25 0 -40 -5t-44 -12q-32 -8 -61 -7q-25 0 -48 5q-49 12 -92 58q109 63 180.5 85.5t128.5 22.5q59 0 111.5 -15t91.5 -54t61.5 -102.5t22.5 -157.5v-750h-197v770z" />
<glyph unicode="i" horiz-adv-x="524" d="M164 0v1059h196v-1059h-196zM139 1366q0 53 35 89t88 36t88 -36t35 -89t-35 -88t-88 -35t-88 35t-35 88z" />
<glyph unicode="j" horiz-adv-x="571" d="M182 1366q0 55 34 91t87 36q55 0 91 -36t36 -91q0 -53 -36 -88t-91 -35q-53 0 -87 35t-34 88zM401 80q0 -82 -14 -153.5t-54 -141.5t-110.5 -141.5t-185.5 -151.5l-88 109q84 72 134 129t77.5 110.5t37 110.5t9.5 129v979h194v-979z" />
<glyph unicode="k" horiz-adv-x="1189" d="M360 0h-190v1552h190v-1552zM741 686l400 -686h-217l-303 553l-158 -178q-12 31 -16 67q-1 11 0 23q0 26 5 54q7 40 23.5 80t44.5 73l334 387h225z" />
<glyph unicode="l" horiz-adv-x="520" d="M360 0h-186v1552h186v-1552z" />
<glyph unicode="m" horiz-adv-x="1847" d="M291 1059q49 -55 64.5 -109.5t15.5 -115.5v-834h-197v801q0 57 -7 121.5t-24 136.5h148zM834 770q0 72 -30 117t-89 45q-25 0 -43 -4l-45 -10q-32 -8 -61 -8q-25 0 -48 5q-49 12 -92 58q109 63 182.5 84.5t128.5 21.5q59 0 112.5 -15t93.5 -54t63.5 -102.5t23.5 -157.5 v-750h-196v770zM1491 770q0 72 -30.5 117t-96.5 45q-25 0 -45.5 -5l-48.5 -12q-32 -8 -62 -7q-25 0 -49 5q-51 12 -94 58q111 66 187.5 87t131.5 21q61 0 115.5 -15t96.5 -54t67 -102.5t25 -157.5v-750h-197v770z" />
<glyph unicode="n" horiz-adv-x="1220" d="M291 1059q49 -55 64.5 -109.5t15.5 -115.5v-834h-197v801q0 57 -7 121.5t-24 136.5h148zM846 770q0 72 -32 117t-95 45q-25 0 -43.5 -5l-44.5 -12q-32 -8 -62 -7q-25 0 -49 5q-51 12 -94 58q109 63 182.5 85.5t128.5 22.5q61 0 116.5 -15t97.5 -54t66.5 -102.5 t24.5 -157.5v-750h-196v770z" />
<glyph unicode="o" horiz-adv-x="1159" d="M82 530q0 141 43 245t112.5 171.5t158.5 100t179 32.5q117 0 209.5 -43t156 -116.5t96 -174t32.5 -215.5q0 -133 -40 -236.5t-107.5 -173t-157.5 -105t-189 -35.5q-102 0 -192 35.5t-156.5 105t-105.5 173t-39 236.5zM285 530q0 -90 19.5 -163.5t56 -127t91 -83 t123.5 -29.5q74 0 129.5 31.5t91 87t53 129.5t17.5 155q0 102 -23.5 178t-63.5 125.5t-93 74t-111 24.5q-59 0 -111 -24.5t-92 -74t-63.5 -125.5t-23.5 -178z" />
<glyph unicode="p" horiz-adv-x="1224" d="M1120 524q0 -123 -40 -222t-105.5 -169t-151.5 -107.5t-178 -37.5q-47 0 -98 7t-107 28q29 51 75 82q43 30 109 30h8.5h9.5q48 0 95 20q51 22 91 69.5t65 121.5t25 178q0 88 -17.5 164t-53.5 129t-88 84t-120 31q-70 0 -137.5 -36t-130.5 -114v-1276h-189v1203 q0 123 -10 210t-22 140h137q27 -23 42 -46.5t29 -64.5l4 -33l17 37q66 72 146.5 99.5t146.5 27.5q106 0 190 -43t141.5 -117.5t87 -176t29.5 -218.5z" />
<glyph unicode="q" horiz-adv-x="1191" d="M762 63q-51 -35 -104.5 -53t-100.5 -22q-17 -2 -34 -2q-73 0 -139 29q-81 36 -141.5 108t-95 174t-34.5 227t40 227.5t112.5 175t172 112.5t217.5 40q86 0 171 -15t192 -50v-1508h-187v1403q-47 12 -88 17.5t-88 5.5q-154 0 -248 -104.5t-94 -303.5q0 -86 17.5 -160.5 t53.5 -127t88 -78.5q40 -20 91 -21q16 0 33 2q9 1 18 1q36 0 69 -13q42 -17 79 -64z" />
<glyph unicode="r" horiz-adv-x="800" d="M287 1059q33 -35 46 -75t23 -89v-37l17 37q41 78 114.5 128t157.5 50q41 0 100 -16l-24 -160q-33 8 -56.5 10t-41.5 2q-47 0 -94.5 -19.5t-84 -60.5t-60.5 -106.5t-24 -157.5v-565h-182v700q0 94 -8 190.5t-25 168.5h142z" />
<glyph unicode="s" horiz-adv-x="851" d="M123 201q78 -39 156.5 -56.5t144.5 -17.5q92 0 137 43t45 111q0 55 -37 92t-92 66.5t-118.5 58t-119 67.5t-92 95.5t-36.5 142.5q0 49 21.5 98t62.5 88t102 63.5t141 24.5q59 0 129 -11t156 -42l-47 -133q-66 23 -120 32t-97 9q-72 0 -118 -33t-46 -96q0 -55 37 -91 t92 -66t118.5 -59.5t119 -69.5t92.5 -99.5t37 -147.5q0 -59 -28 -111.5t-76 -92t-109.5 -63t-128.5 -23.5q-78 0 -167 13t-208 73z" />
<glyph unicode="t" horiz-adv-x="872" d="M209 918h-189v92l189 49v270l180 57v-1017q0 -106 45 -177t121 -71q41 0 78 7t90 24l45 -129q-78 -27 -121 -36.5t-92 -9.5q-168 0 -257 109t-89 305v527zM635 918q-72 0 -112 40.5t-60 100.5h289v-141h-117z" />
<glyph unicode="u" horiz-adv-x="1202" d="M891 0q-49 55 -64.5 109.5t-15.5 115.5v834h190v-801q0 -57 7.5 -121.5t25.5 -136.5h-143zM338 289q0 -72 29.5 -117t95.5 -45q25 0 42 5t46 11q32 8 61 8q25 0 50 -6q51 -12 94 -57q-109 -66 -183.5 -87t-130.5 -21q-61 0 -114.5 15t-94 54t-64.5 101.5t-24 158.5v750 h193v-770z" />
<glyph unicode="v" horiz-adv-x="1056" d="M430 0l-397 1059h205l282 -826l17 -51l14 51l280 826h197l-397 -1059h-201z" />
<glyph unicode="w" horiz-adv-x="1761" d="M657 0h-194l-375 1059h205l262 -826l14 -51l15 51l186 500q23 -25 40 -63.5t25 -84.5q5 -32 5 -67q0 -15 -1 -30q-3 -50 -20 -99zM1141 0l-373 1059h205l262 -826l14 -51l15 51l260 826h194l-372 -1059h-205z" />
<glyph unicode="x" horiz-adv-x="1021" d="M756 0l-170 265l-172 265l-351 529h216l219 -367l12 -43l14 43l224 367h200l-348 -520l369 -539h-213zM244 0h-199l315 461q41 -49 54 -116q3 -15 2 -29q0 -52 -33 -103z" />
<glyph unicode="y" horiz-adv-x="1083" d="M459 367q16 -49 20 -101q2 -20 2 -40q0 -29 -4 -57q-6 -46 -22.5 -85t-38.5 -64l-383 1039h200zM248 -356q59 0 99 32.5t72 91t58 137.5l60 171l317 983h199l-375 -1036l-77 -204q-36 -95 -83 -167t-110.5 -114t-159.5 -42q-41 2 -87 9.5t-89 21.5l49 135q68 -18 127 -18 z" />
<glyph unicode="z" horiz-adv-x="917" d="M139 1059h717v-78l-528 -813l-33 -35l47 6h526v-139h-796v78l534 817l31 35l-43 -6h-455v135z" />
<glyph unicode="{" horiz-adv-x="825" d="M367 393q-4 72 -62.5 114t-136.5 56v117q78 14 138.5 56t64.5 114q10 125 32.5 229.5t65.5 192.5t108.5 161.5t159.5 137.5l82 -103q-76 -59 -127 -121.5t-84 -131t-50 -146.5t-23 -170q-6 -86 -47.5 -149.5t-106.5 -106.5l-51 -22l53 -25q66 -43 106.5 -105.5 t45.5 -146.5q6 -98 21 -182t48 -156t85 -137.5t130 -126.5l-82 -102q-98 68 -164.5 142.5t-109.5 164.5t-65.5 200.5t-30.5 245.5z" />
<glyph unicode="|" horiz-adv-x="649" d="M236 -600v2261h163v-2261h-163z" />
<glyph unicode="}" horiz-adv-x="825" d="M621 393q-8 -135 -30 -245.5t-65 -200.5t-110.5 -165t-165.5 -142l-82 102q78 61 130 126.5t84 137.5t48 156t23 182q6 86 48 149.5t107 106.5l49 21l-51 22q-66 43 -106.5 106.5t-46.5 149.5q-6 92 -23.5 170t-50.5 146.5t-84 131t-127 121.5l82 103q94 -63 159.5 -137 t108.5 -162t65.5 -192.5t32.5 -229.5q4 -72 64.5 -114t138.5 -56v-117q-78 -14 -136 -56t-62 -114z" />
<glyph unicode="~" horiz-adv-x="1257" d="M129 483q6 154 90 225.5t217 73.5q66 0 126.5 -25.5t107.5 -60.5t98 -60.5t121 -25.5q49 0 76.5 49.5t33.5 126.5l166 -16q-6 -86 -29.5 -143.5t-63.5 -92t-92 -49t-114 -14.5q-70 -2 -131 24.5t-108 61.5q-51 35 -98.5 60.5t-110.5 25.5q-49 -2 -84 -46t-41 -130z" />
<glyph unicode="&#xa1;" horiz-adv-x="718" d="M143 -430l25 1110h139l29 -1110h-193zM115 969q0 53 33.5 87t87.5 34q53 0 88.5 -34t35.5 -87t-35.5 -89t-88.5 -36t-87 36t-34 89z" />
<glyph unicode="&#xa2;" horiz-adv-x="874" d="M856 246q-59 -31 -113.5 -46.5t-99.5 -21.5v-207h-147v209q-88 12 -163 54t-130.5 112t-86 164t-30.5 215q0 119 32 213t87 161.5t130 109.5t161 57v200h147v-194q45 -4 93 -14.5t93 -26.5l-51 -135q-55 16 -103 23t-95 7q-59 0 -111.5 -24.5t-92.5 -73.5t-63.5 -125 t-23.5 -178q0 -104 23.5 -180t63.5 -125t92 -73.5t112 -24.5q45 0 99 13t126 46z" />
<glyph unicode="&#xa3;" horiz-adv-x="1050" d="M524 403q-29 -115 -118 -206l-44 -37l56 4h571v-164h-874v125q111 55 181.5 151.5t70.5 219.5q0 41 -2.5 79.5t-10.5 81.5h-196v134h176q-10 49 -17.5 120.5t-7.5 137.5q0 98 33 173.5t88 128t130 80t159 27.5q72 0 146.5 -17.5t162.5 -58.5l-51 -137q-76 37 -145.5 51.5 t-112.5 14.5q-115 0 -172.5 -74t-57.5 -190q0 -92 12 -177l21 -162q10 -79 13 -154t-11 -151zM760 657q-74 0 -113 37t-61 97h325v-134h-151z" />
<glyph unicode="&#xa4;" horiz-adv-x="1050" d="M524 1114q72 0 133.5 -22.5t104.5 -59.5l156 144l79 -84l-159 -146q29 -41 50 -103.5t21 -135.5q0 -86 -21.5 -149.5t-49.5 -102.5l153 -152l-82 -82l-149 150q-47 -45 -112.5 -66.5t-127.5 -21.5q-63 0 -127.5 21.5t-105.5 60.5l-144 -144l-82 82l148 146 q-31 41 -53.5 105t-22.5 140q0 80 23.5 144.5t56.5 107.5l-154 146l80 84l152 -146q43 39 104 61.5t129 22.5zM522 993q-57 0 -102 -23.5t-77 -64.5t-48 -95t-16 -114q0 -74 23.5 -129t58 -92t77.5 -54.5t82 -17.5q43 0 86 17.5t79 54.5t57.5 93.5t21.5 136.5 q0 53 -15.5 104t-46 92t-76 66.5t-104.5 25.5z" />
<glyph unicode="&#xa5;" horiz-adv-x="1351" d="M227 633h340l-510 856h222l479 -799v-57h340v-96h-340v-158h340v-96h-340v-283h-191v283h-340v96h340v158h-340v96zM1038 1489h215l-438 -719q-18 25 -33.5 54.5t-22.5 62.5t-3 68.5t24 72.5z" />
<glyph unicode="&#xa6;" horiz-adv-x="520" d="M186 793v868h164v-868h-164zM186 -600v889h164v-889h-164z" />
<glyph unicode="&#xa7;" horiz-adv-x="1024" d="M133 117q94 -39 188.5 -56.5t172.5 -17.5q125 0 181 43t56 113q0 55 -45 92t-113.5 66.5t-148.5 58t-148.5 67.5t-113.5 95.5t-45 142.5q0 57 36.5 114.5t112.5 100.5l53 20l-43 19q-61 39 -100 92t-39 131q0 49 25.5 99.5t74 89t118 63.5t157.5 25q70 0 153 -11.5 t187 -42.5l-55 -133q-78 23 -143.5 32t-116.5 9q-100 0 -157.5 -32.5t-57.5 -96.5q0 -55 45 -92t113.5 -66.5t148.5 -58.5t148.5 -70t113.5 -100t45 -147q0 -70 -40 -125.5t-103 -91.5l-48 -19l43 -18q57 -39 92 -92.5t35 -131.5q0 -66 -30.5 -120t-83.5 -91.5t-125 -59 t-152 -21.5q-47 0 -96 2t-104.5 11t-117 26.5t-132.5 46.5zM762 676q0 41 -26.5 71.5t-72 55t-101.5 46.5l-113 44q-74 -29 -116 -73t-42 -97q0 -43 29.5 -75t76.5 -57.5t108 -47.5l122 -47q72 41 103.5 87t31.5 93z" />
<glyph unicode="&#xa8;" horiz-adv-x="833" d="M78 1372q0 45 31.5 76t74.5 31q45 0 77 -31t32 -76t-32 -75.5t-77 -30.5q-43 0 -74.5 30.5t-31.5 75.5zM475 1372q0 45 32 76t77 31q43 0 74.5 -31t31.5 -76t-31.5 -75.5t-74.5 -30.5q-45 0 -77 30.5t-32 75.5z" />
<glyph unicode="&#xa9;" horiz-adv-x="1474" d="M731 1393q147 0 269 -52.5t208 -142.5t134.5 -210t48.5 -257q0 -139 -48.5 -261t-134.5 -212t-207.5 -142.5t-269.5 -52.5q-150 0 -272.5 52.5t-209.5 142.5t-135 212t-48 261q0 137 48 257t135 210t209.5 142.5t272.5 52.5zM731 1276q-117 0 -212 -41t-162.5 -113.5 t-105.5 -173t-38 -223.5q0 -121 38 -220t105.5 -171t162.5 -112t212 -40q113 -2 207 38t161.5 113t105.5 174t38 224q0 119 -38 219.5t-105.5 173t-161.5 112.5t-207 40zM772 360q-68 0 -128 25t-105 72t-72 115.5t-27 158.5q0 88 27 157.5t73 116t105.5 71t126.5 24.5 q80 0 170 -29l-35 -98q-37 12 -70.5 16t-64.5 4q-78 0 -136 -65.5t-58 -196.5q0 -135 58 -200.5t136 -65.5q29 0 68 8t86 31l35 -96q-57 -29 -106.5 -38.5t-82.5 -9.5z" />
<glyph unicode="&#xaa;" d="M684 864q0 -86 6 -146.5t17 -99.5h-103q-23 12 -33 32l-20 42v25l-16 -25q-55 -55 -101.5 -71.5t-97.5 -16.5q-113 0 -178.5 58.5t-65.5 144.5q0 55 20.5 96t68.5 71t124 49t187 32q-2 -12 -8.5 -30.5t-17.5 -36t-29.5 -31t-47.5 -17.5q-47 -8 -76.5 -20.5t-46 -29 t-21.5 -34.5t-5 -39q0 -45 29.5 -74.5t84.5 -29.5q47 0 97.5 24.5t91.5 79.5v262q0 86 -41 136.5t-140 50.5q-39 0 -76.5 -8.5t-88.5 -26.5l-33 94q70 31 124 40t101 9q137 0 216 -80t79 -225v-205z" />
<glyph unicode="&#xab;" horiz-adv-x="1255" d="M147 528l443 426l90 -88l-295 -338l295 -338l-90 -88zM659 528l443 426l90 -88l-295 -338l295 -338l-90 -88z" />
<glyph unicode="&#xac;" horiz-adv-x="1165" d="M1083 897v-578h-149v447h-846v131h995z" />
<glyph unicode="&#xad;" horiz-adv-x="768" d="M92 559v131h619v-131h-619z" />
<glyph unicode="&#xae;" horiz-adv-x="1474" d="M731 1393q147 0 269 -52.5t208 -142.5t134.5 -210t48.5 -257q0 -139 -48.5 -261t-134.5 -212t-207.5 -142.5t-269.5 -52.5q-150 0 -272.5 52.5t-209.5 142.5t-135 212t-48 261q0 137 48 257t135 210t209.5 142.5t272.5 52.5zM731 1276q-117 0 -212 -41t-162.5 -113.5 t-105.5 -173t-38 -223.5q0 -121 38 -220t105.5 -171t162.5 -112t212 -40q113 -2 207 38t161.5 113t105.5 174t38 224q0 119 -38 219.5t-105.5 173t-161.5 112.5t-207 40zM999 883q0 -63 -35.5 -107.5t-93.5 -68.5q37 -23 57.5 -57t34 -76t25.5 -90t35 -97h-135 q-18 41 -29.5 87t-25 88t-34 75t-57.5 47q-12 0 -17 -1t-8 -1h-9h-19q12 25 30.5 54.5t63.5 35.5q35 6 59.5 38t24.5 73q0 47 -40 80.5t-101 33.5q-18 0 -36.5 -1t-47.5 -5v-604h-127v684q59 14 108.5 20.5t102.5 6.5q117 0 195.5 -57.5t78.5 -157.5z" />
<glyph unicode="&#xaf;" horiz-adv-x="1024" d="M236 1255v131h598v-131h-598z" />
<glyph unicode="&#xb0;" horiz-adv-x="690" d="M358 1460q-43 0 -74.5 -16.5t-53 -43t-32 -59t-10.5 -65.5q0 -35 10.5 -67.5t32 -59.5t53 -42t74.5 -15q45 0 78 18t53.5 46t30.5 59.5t10 60.5q0 43 -14 76.5t-38.5 57.5t-55.5 37t-64 13zM59 1276q0 57 22.5 109.5t62.5 91.5t95.5 62.5t118.5 23.5q51 0 104.5 -18.5 t96.5 -55.5t70.5 -90t27.5 -123t-27.5 -123t-70.5 -90t-96 -55.5t-105 -18.5q-59 0 -113.5 21.5t-95 59.5t-65.5 91.5t-25 114.5z" />
<glyph unicode="&#xb1;" horiz-adv-x="1163" d="M96 752h404v366h149v-366h406v-131h-406v-371h-149v371h-404v131zM96 0v129h959v-129h-959z" />
<glyph unicode="&#xb2;" horiz-adv-x="823" d="M670 1286q0 -74 -38 -141.5t-92 -129.5l-111 -123q-56 -60 -93 -120l-19 -20l27 4h340v-121h-534v74q61 98 128 176l121 143q55 66 92 124t37 120q0 70 -42 97.5t-107 27.5q-35 0 -72 -9.5t-78 -25.5l-45 94q55 31 106.5 41t100.5 10q55 0 105.5 -14t89.5 -43t61.5 -70 t22.5 -94z" />
<glyph unicode="&#xb3;" horiz-adv-x="780" d="M608 1311q0 -66 -43 -121t-114 -88q35 -8 68.5 -25.5t59 -45t42 -64.5t16.5 -82q0 -53 -22.5 -101.5t-63.5 -85t-99.5 -59.5t-127.5 -23q-72 0 -126.5 19.5t-84.5 38.5l37 96q37 -16 74.5 -28.5t97.5 -12.5q84 0 128 49t44 109q0 78 -60.5 111.5t-165.5 33.5l-12 90 l66 27q55 23 99 56.5t44 86.5q0 45 -31 73t-86 28q-70 0 -155 -35l-48 96q57 31 110.5 41t104.5 10q113 0 180.5 -54t67.5 -140z" />
<glyph unicode="&#xb4;" horiz-adv-x="659" d="M344 1292q-41 -49 -94 -61t-107 2l183 283h198z" />
<glyph unicode="&#xb5;" horiz-adv-x="1132" d="M811 125q-39 -53 -102.5 -99t-165.5 -46q-121 0 -189 71l-30 45l4 -65v-463h-176v1491h188v-629q0 -61 13.5 -114.5t41 -94.5t68.5 -64.5t98 -23.5q47 0 92 22.5t81 59.5t57.5 87t21.5 106v651h191v-770q0 -86 24.5 -121t87.5 -31l19 -131q-35 -12 -61.5 -17t-49.5 -5 q-63 0 -111.5 31.5t-68.5 109.5l-8 49z" />
<glyph unicode="&#xb6;" horiz-adv-x="1247" d="M666 623l-4 2q-92 8 -174 41.5t-142.5 91t-96.5 135.5t-36 172q0 88 34 170t98.5 144.5t159.5 99.5t218 37q55 0 104.5 -2.5t96.5 -7.5t97 -12t107 -19v-1536h-149v1409q-47 8 -87 11t-77 5v-1425h-149v684z" />
<glyph unicode="&#xb7;" horiz-adv-x="626" d="M190 623q0 53 34 89t87 36t89 -36t36 -89t-35.5 -87t-89.5 -34q-53 0 -87 34t-34 87z" />
<glyph unicode="&#xb8;" horiz-adv-x="1024" d="M575 4l-26 -106q29 -4 58.5 -15.5t53 -31t38 -46t14.5 -57.5q0 -47 -20.5 -78.5t-54.5 -52t-76 -30t-83 -9.5q-35 0 -73.5 8t-88.5 31l29 88q39 -16 71 -21.5t62 -5.5q35 0 72 13.5t37 50.5q0 39 -41 58.5t-113 27.5l45 168z" />
<glyph unicode="&#xb9;" horiz-adv-x="653" d="M373 633v688l-127 -66l-56 97l256 137h68v-856h-141z" />
<glyph unicode="&#xba;" horiz-adv-x="880" d="M438 602q-78 0 -141.5 27.5t-109.5 78t-70.5 122t-24.5 159.5q0 80 23.5 149.5t68.5 122t109.5 83t144.5 30.5q70 0 132.5 -23.5t109.5 -71.5t75.5 -121t28.5 -169q0 -90 -25.5 -160.5t-71.5 -122t-109.5 -78t-139.5 -26.5zM242 989q0 -137 55 -205.5t141 -68.5 q49 0 86 22.5t62.5 60.5t38 87t12.5 104q0 49 -10.5 98.5t-33 88t-61 63.5t-94.5 25q-49 0 -86 -22.5t-61.5 -61.5t-36.5 -88.5t-12 -102.5z" />
<glyph unicode="&#xbb;" horiz-adv-x="1255" d="M233 102l-90 88l295 338l-295 338l90 88l443 -426zM745 102l-90 88l295 338l-295 338l90 88l443 -426z" />
<glyph unicode="&#xbc;" horiz-adv-x="1429" d="M182 0l893 1489h127l-893 -1489h-127zM250 633v688l-127 -66l-55 97l256 137h67v-856h-141zM1096 866h149v-573h98v-111h-98v-182h-131v639l4 49l-26 -45l-228 -328l-22 -24l35 4h30q31 0 54.5 -11.5t42 -28.5t31 -36.5t20.5 -36.5h-342v115z" />
<glyph unicode="&#xbd;" horiz-adv-x="1562" d="M182 0l893 1489h127l-893 -1489h-127zM250 633v688l-127 -66l-55 97l256 137h67v-856h-141zM1393 651q0 -74 -38 -141.5t-92 -129.5l-111 -123q-56 -60 -93 -120l-19 -20l27 4h340v-121h-535v74q61 98 128 176l122 143q55 66 92 124t37 120q0 70 -42 97.5t-107 27.5 q-35 0 -72 -9.5t-78 -25.5l-45 94q55 31 106.5 41t100.5 10q55 0 105.5 -14t89.5 -43t61.5 -70t22.5 -94z" />
<glyph unicode="&#xbe;" horiz-adv-x="1466" d="M260 0l893 1489h127l-893 -1489h-127zM1174 866h149v-573h98v-111h-98v-182h-131v676l-264 -381h57q31 0 54.5 -11.5t42 -28.5t30.5 -36.5t21 -36.5h-342v115zM545 1311q0 -66 -43 -121t-115 -88q35 -8 68.5 -25.5t59.5 -45t42 -64.5t16 -82q0 -53 -22.5 -101.5 t-63.5 -85t-99 -59.5t-128 -23q-72 0 -126 19.5t-85 38.5l37 96q37 -16 75 -28.5t97 -12.5q84 0 128 49t44 109q0 78 -60.5 111.5t-164.5 33.5l-12 90l65 27q55 23 99 56.5t44 86.5q0 45 -30.5 73t-85.5 28q-70 0 -156 -35l-47 96q57 31 110.5 41t104.5 10q113 0 180.5 -54 t67.5 -140z" />
<glyph unicode="&#xbf;" horiz-adv-x="1193" d="M618 -451q-88 0 -161.5 24t-125.5 66t-81 97t-29 121q0 86 30 153.5t74 128t95 117.5t95 119.5t73.5 136.5t29.5 168h148q0 -111 -25.5 -194t-63.5 -148.5t-83 -117.5t-83 -103t-63.5 -106.5t-25.5 -123.5q0 -82 60.5 -136t156.5 -54q59 0 125.5 14.5t148.5 59.5l52 -138 q-94 -51 -177.5 -67.5t-169.5 -16.5zM817 969q0 -53 -34.5 -89t-88.5 -36q-53 0 -89 35.5t-36 89.5q0 53 36 87t89 34t88 -34t35 -87z" />
<glyph unicode="&#xc0;" horiz-adv-x="1406" d="M799 1489l536 -1489h-209l-430 1239l-243 -696l-23 -43l25 4h276q74 0 113 -44t61 -104h-516l-123 -356h-194l536 1489h191zM469 1823h193l151 -254q-53 -12 -106.5 -2t-88.5 55z" />
<glyph unicode="&#xc1;" horiz-adv-x="1406" d="M799 1489l536 -1489h-209l-430 1239l-243 -696l-23 -43l25 4h276q74 0 113 -44t61 -104h-516l-123 -356h-194l536 1489h191zM803 1622q-41 -45 -94.5 -55.5t-106.5 2.5l182 254h199z" />
<glyph unicode="&#xc2;" horiz-adv-x="1406" d="M799 1489l536 -1489h-209l-430 1239l-243 -696l-23 -43l25 4h276q74 0 113 -44t61 -104h-516l-123 -356h-194l536 1489h191zM756 1823l227 -246l-106 -16l-181 120l-180 -122l-100 18l223 246h117z" />
<glyph unicode="&#xc3;" horiz-adv-x="1406" d="M799 1489l536 -1489h-209l-430 1239l-243 -696l-23 -43l25 4h276q74 0 113 -44t61 -104h-516l-123 -356h-194l536 1489h191zM414 1604q4 117 56 168t126 53q76 0 131 -49q29 -25 49.5 -45.5t61.5 -20.5q53 0 63 119l109 -12q-4 -66 -19.5 -108t-40 -67.5t-54.5 -36 t-58 -10.5q-84 0 -133 47q-29 25 -50.5 46.5t-56.5 21.5q-27 0 -47.5 -26.5t-24.5 -92.5z" />
<glyph unicode="&#xc4;" horiz-adv-x="1406" d="M799 1489l536 -1489h-209l-430 1239l-243 -696l-23 -43l25 4h276q74 0 113 -44t61 -104h-516l-123 -356h-194l536 1489h191zM397 1720q0 45 32 76t75 31q45 0 76.5 -31t31.5 -76t-31.5 -75.5t-76.5 -30.5q-43 0 -75 30.5t-32 75.5zM795 1720q0 45 31.5 76t76.5 31 q43 0 75 -31t32 -76t-32 -75.5t-75 -30.5q-45 0 -76.5 30.5t-31.5 75.5z" />
<glyph unicode="&#xc5;" horiz-adv-x="1406" d="M72 0l532 1481q-51 23 -79.5 64.5t-28.5 94.5q0 80 56 132.5t146 52.5q92 0 145.5 -51.5t53.5 -131.5q0 -53 -26.5 -93t-71.5 -62l536 -1487h-209l-430 1239l-243 -696l-23 -43l25 4h276q74 0 113 -44t61 -104h-516l-123 -356h-194zM696 1540q47 0 75 29.5t28 75.5 q0 45 -28 74.5t-75 29.5q-43 0 -70.5 -30.5t-27.5 -78.5q0 -39 26.5 -69.5t71.5 -30.5z" />
<glyph unicode="&#xc6;" horiz-adv-x="1996" d="M897 1239l-4 82l-31 -82l-348 -696l-29 -43l37 4h262q74 0 113 -44t61 -104h-534l-178 -356h-203l756 1489h930v-148h-664l184 -1194h623v-147h-780zM1749 852v-143h-516q18 59 56 101t112 42h348z" />
<glyph unicode="&#xc7;" horiz-adv-x="1335" d="M889 -25q-20 0 -40 1t-38 4l-20 -82q29 -4 58.5 -15.5t53 -31t37.5 -46t14 -57.5q0 -47 -20.5 -78.5t-54 -52t-75.5 -30t-83 -9.5q-35 0 -74 8t-88 31l29 88q39 -16 70.5 -21.5t62.5 -5.5q35 0 71.5 13.5t36.5 50.5q0 39 -40.5 58.5t-112.5 27.5l43 164 q-125 25 -230.5 88t-181.5 160.5t-118 223.5t-42 277q0 172 56.5 314.5t157 245t235.5 159t293 56.5q86 0 177 -17.5t185 -52.5l-53 -133q-90 29 -163.5 41t-145.5 12q-106 0 -202.5 -39t-170.5 -116.5t-117 -195.5t-43 -274q0 -152 43 -266.5t117 -193t170 -118.5t203 -40 q72 0 147.5 18.5t161.5 61.5l53 -133q-96 -51 -186 -73t-176 -22z" />
<glyph unicode="&#xc8;" horiz-adv-x="1181" d="M182 1489h848v-148h-653v-1194h684v-147h-879v1489zM961 852v-143h-506q23 59 62.5 101t113.5 42h330zM385 1823h193l151 -254q-53 -12 -106.5 -2t-87.5 55z" />
<glyph unicode="&#xc9;" horiz-adv-x="1181" d="M182 1489h848v-148h-653v-1194h684v-147h-879v1489zM961 852v-143h-506q23 59 62.5 101t113.5 42h330zM711 1622q-41 -45 -94.5 -55.5t-106.5 2.5l182 254h199z" />
<glyph unicode="&#xca;" horiz-adv-x="1181" d="M182 1489h848v-148h-653v-1194h684v-147h-879v1489zM961 852v-143h-506q23 59 62.5 101t113.5 42h330zM678 1823l227 -246l-106 -16l-181 120l-180 -122l-100 18l223 246h117z" />
<glyph unicode="&#xcb;" horiz-adv-x="1181" d="M182 1489h848v-148h-653v-1194h684v-147h-879v1489zM961 852v-143h-506q23 59 62.5 101t113.5 42h330zM309 1720q0 45 32 76t75 31q45 0 76.5 -31t31.5 -76t-31.5 -75.5t-76.5 -30.5q-43 0 -75 30.5t-32 75.5zM707 1720q0 45 31.5 76t76.5 31q43 0 75 -31t32 -76 t-32 -75.5t-75 -30.5q-45 0 -76.5 30.5t-31.5 75.5z" />
<glyph unicode="&#xcc;" horiz-adv-x="571" d="M389 0h-188v1489h188v-1489zM55 1823h193l151 -254q-53 -12 -106 -2t-88 55z" />
<glyph unicode="&#xcd;" horiz-adv-x="657" d="M371 0h-189v1489h189v-1489zM373 1622q-41 -45 -94.5 -55.5t-106.5 2.5l182 254h199z" />
<glyph unicode="&#xce;" horiz-adv-x="657" d="M420 0h-189v1489h189v-1489zM385 1823l227 -246l-106 -16l-180 120l-181 -122l-100 18l223 246h117z" />
<glyph unicode="&#xcf;" horiz-adv-x="716" d="M446 0h-188v1489h188v-1489zM47 1720q0 45 32 76t75 31q45 0 76.5 -31t31.5 -76t-31.5 -75.5t-76.5 -30.5q-43 0 -75 30.5t-32 75.5zM444 1720q0 45 32 76t77 31q43 0 74.5 -31t31.5 -76t-31.5 -75.5t-74.5 -30.5q-45 0 -77 30.5t-32 75.5z" />
<glyph unicode="&#xd0;" horiz-adv-x="1460" d="M14 795h168v671q98 23 216 36.5t208 13.5q195 0 346.5 -55.5t255 -157t157.5 -242.5t54 -313q0 -168 -54 -309.5t-146.5 -245t-214 -161t-259.5 -57.5q-70 0 -133 6.5t-153 28.5q29 53 76 88t116 29q33 -4 50 -4h42q98 0 183.5 49t149 134t99 198.5t35.5 243.5 q0 297 -150.5 457.5t-453.5 160.5q-61 0 -120.5 -4t-108.5 -10v-557h465v-133h-465v-662h-195v662h-168v133z" />
<glyph unicode="&#xd1;" horiz-adv-x="1533" d="M403 1190l-28 70l4 -70v-1190h-166v1489h195l722 -1155l25 -68l-4 72v1151h172v-1489h-174zM477 1604q4 117 56.5 168t125.5 53q76 0 132 -49q29 -25 49 -45.5t61 -20.5q53 0 64 119l108 -12q-4 -66 -19.5 -108t-40 -67.5t-54 -36t-58.5 -10.5q-84 0 -133 47 q-29 25 -50.5 46.5t-55.5 21.5q-27 0 -47.5 -26.5t-24.5 -92.5z" />
<glyph unicode="&#xd2;" horiz-adv-x="1619" d="M1473 745q0 -178 -55.5 -320t-151 -243.5t-220 -156t-264.5 -54.5q-143 0 -269 53.5t-219 152.5t-147.5 242.5t-54.5 325.5q0 178 56.5 320.5t150.5 244t219 156t264 54.5q145 0 271.5 -53.5t219.5 -154t146.5 -244t53.5 -323.5zM1264 745q0 143 -38 259t-103.5 198 t-153.5 125t-187 43q-98 0 -186 -43t-153.5 -125t-103.5 -197.5t-38 -259.5q0 -145 38 -261.5t104.5 -197.5t153.5 -124t185 -43t186.5 43t154 124t103.5 197.5t38 261.5zM485 1823h193l151 -254q-53 -12 -106 -2t-88 55z" />
<glyph unicode="&#xd3;" horiz-adv-x="1619" d="M1473 745q0 -178 -55.5 -320t-151 -243.5t-220 -156t-264.5 -54.5q-143 0 -269 53.5t-219 152.5t-147.5 242.5t-54.5 325.5q0 178 56.5 320.5t150.5 244t219 156t264 54.5q145 0 271.5 -53.5t219.5 -154t146.5 -244t53.5 -323.5zM1264 745q0 143 -38 259t-103.5 198 t-153.5 125t-187 43q-98 0 -186 -43t-153.5 -125t-103.5 -197.5t-38 -259.5q0 -145 38 -261.5t104.5 -197.5t153.5 -124t185 -43t186.5 43t154 124t103.5 197.5t38 261.5zM907 1622q-41 -45 -94 -55.5t-106 2.5l182 254h198z" />
<glyph unicode="&#xd4;" horiz-adv-x="1619" d="M1473 745q0 -178 -55.5 -320t-151 -243.5t-220 -156t-264.5 -54.5q-143 0 -269 53.5t-219 152.5t-147.5 242.5t-54.5 325.5q0 178 56.5 320.5t150.5 244t219 156t264 54.5q145 0 271.5 -53.5t219.5 -154t146.5 -244t53.5 -323.5zM1264 745q0 143 -38 259t-103.5 198 t-153.5 125t-187 43q-98 0 -186 -43t-153.5 -125t-103.5 -197.5t-38 -259.5q0 -145 38 -261.5t104.5 -197.5t153.5 -124t185 -43t186.5 43t154 124t103.5 197.5t38 261.5zM844 1823l227 -246l-106 -16l-181 120l-180 -122l-100 18l223 246h117z" />
<glyph unicode="&#xd5;" horiz-adv-x="1619" d="M1473 745q0 -178 -55.5 -320t-151 -243.5t-220 -156t-264.5 -54.5q-143 0 -269 53.5t-219 152.5t-147.5 242.5t-54.5 325.5q0 178 56.5 320.5t150.5 244t219 156t264 54.5q145 0 271.5 -53.5t219.5 -154t146.5 -244t53.5 -323.5zM1264 745q0 143 -38 259t-103.5 198 t-153.5 125t-187 43q-98 0 -186 -43t-153.5 -125t-103.5 -197.5t-38 -259.5q0 -145 38 -261.5t104.5 -197.5t153.5 -124t185 -43t186.5 43t154 124t103.5 197.5t38 261.5zM496 1604q4 117 56 168t126 53q76 0 131 -49q29 -25 49.5 -45.5t61.5 -20.5q53 0 63 119l109 -12 q-4 -66 -19.5 -108t-40 -67.5t-54.5 -36t-58 -10.5q-84 0 -134 47q-29 25 -50 46.5t-56 21.5q-27 0 -47.5 -26.5t-24.5 -92.5z" />
<glyph unicode="&#xd6;" horiz-adv-x="1619" d="M1473 745q0 -178 -55.5 -320t-151 -243.5t-220 -156t-264.5 -54.5q-143 0 -269 53.5t-219 152.5t-147.5 242.5t-54.5 325.5q0 178 56.5 320.5t150.5 244t219 156t264 54.5q145 0 271.5 -53.5t219.5 -154t146.5 -244t53.5 -323.5zM1264 745q0 143 -38 259t-103.5 198 t-153.5 125t-187 43q-98 0 -186 -43t-153.5 -125t-103.5 -197.5t-38 -259.5q0 -145 38 -261.5t104.5 -197.5t153.5 -124t185 -43t186.5 43t154 124t103.5 197.5t38 261.5zM479 1720q0 45 32 76t75 31q45 0 76.5 -31t31.5 -76t-31.5 -75.5t-76.5 -30.5q-43 0 -75 30.5 t-32 75.5zM877 1720q0 45 31.5 76t76.5 31q43 0 75 -31t32 -76t-32 -75.5t-75 -30.5q-45 0 -76.5 30.5t-31.5 75.5z" />
<glyph unicode="&#xd7;" horiz-adv-x="1163" d="M111 254l370 373l-370 368l94 92l370 -368l367 368l92 -92l-366 -368l370 -373l-92 -92l-371 370l-372 -370z" />
<glyph unicode="&#xd8;" horiz-adv-x="1619" d="M1221 1362q117 -100 184.5 -256t67.5 -361q0 -178 -55.5 -320t-151 -243.5t-220 -156t-264.5 -54.5q-176 0 -321 78l-101 -172h-161l147 250q-117 98 -185.5 255t-68.5 363q0 178 56.5 320.5t150.5 244t219 156t264 54.5q176 0 322 -78l104 174h162zM1270 745 q0 143 -40 258t-106 197l-549 -928q-35 41 -52 100.5t16 119.5l483 808q-109 74 -240 74q-98 0 -187 -44t-155.5 -126t-105.5 -198.5t-39 -260.5q0 -145 39 -261.5t106.5 -198.5t155.5 -126t186 -44t187.5 44t156 126t105.5 198.5t39 261.5z" />
<glyph unicode="&#xd9;" horiz-adv-x="1421" d="M711 -29q-131 0 -233.5 42t-173.5 118t-107.5 182.5t-36.5 235.5v940h192v-973q0 -182 97.5 -289.5t261.5 -107.5t261 107.5t97 289.5v973h193v-940q0 -129 -40 -235.5t-113 -182.5t-174 -118t-224 -42zM455 1823h192l152 -254q-53 -12 -106.5 -2t-88.5 55z" />
<glyph unicode="&#xda;" horiz-adv-x="1421" d="M711 -29q-131 0 -233.5 42t-173.5 118t-107.5 182.5t-36.5 235.5v940h192v-973q0 -182 97.5 -289.5t261.5 -107.5t261 107.5t97 289.5v973h193v-940q0 -129 -40 -235.5t-113 -182.5t-174 -118t-224 -42zM825 1622q-41 -45 -94 -55.5t-106 2.5l182 254h199z" />
<glyph unicode="&#xdb;" horiz-adv-x="1421" d="M711 -29q-131 0 -233.5 42t-173.5 118t-107.5 182.5t-36.5 235.5v940h192v-973q0 -182 97.5 -289.5t261.5 -107.5t261 107.5t97 289.5v973h193v-940q0 -129 -40 -235.5t-113 -182.5t-174 -118t-224 -42zM768 1823l227 -246l-106 -16l-180 120l-181 -122l-100 18l223 246 h117z" />
<glyph unicode="&#xdc;" horiz-adv-x="1421" d="M711 -29q-131 0 -233.5 42t-173.5 118t-107.5 182.5t-36.5 235.5v940h192v-973q0 -182 97.5 -289.5t261.5 -107.5t261 107.5t97 289.5v973h193v-940q0 -129 -40 -235.5t-113 -182.5t-174 -118t-224 -42zM406 1720q0 45 31.5 76t74.5 31q45 0 77 -31t32 -76t-32 -75.5 t-77 -30.5q-43 0 -74.5 30.5t-31.5 75.5zM803 1720q0 45 31.5 76t76.5 31q43 0 75 -31t32 -76t-32 -75.5t-75 -30.5q-45 0 -76.5 30.5t-31.5 75.5z" />
<glyph unicode="&#xdd;" horiz-adv-x="1351" d="M758 690v-690h-191v633l-510 856h222zM1038 1489h215l-438 -719q-18 25 -33.5 54.5t-22.5 62.5t-3 68.5t24 72.5zM817 1622q-41 -45 -94 -55.5t-107 2.5l183 254h198z" />
<glyph unicode="&#xde;" horiz-adv-x="1247" d="M1143 743q0 -98 -40 -176t-107.5 -134t-153.5 -89t-178 -41q-45 -4 -96.5 -2t-108.5 18q23 53 68.5 89t111.5 36q53 0 106.5 22.5t95.5 62.5t68.5 94.5t26.5 119.5q0 63 -26.5 119t-71.5 96.5t-105.5 63t-130.5 22.5q-115 0 -225 -12v-1032h-189v1489h189v-307 q106 12 225 12q123 0 223.5 -36t171 -97.5t108.5 -143.5t38 -174z" />
<glyph unicode="&#xdf;" horiz-adv-x="1161" d="M559 178q68 -31 126 -43t103 -12q61 0 104.5 43t43.5 113q0 55 -26.5 96t-65.5 74.5t-86 67.5t-86 75t-65.5 96t-26.5 133q0 90 58 165t171 122q12 45 12 96q0 49 -17.5 89t-47 69t-67.5 45t-77 16q-43 0 -87 -16t-79.5 -50t-58 -89.5t-22.5 -130.5v-1137h-179v1116 q0 100 28 183t80 141.5t127 90.5t169 32t167.5 -30t124 -79t76 -113.5t25.5 -136.5q0 -53 -16.5 -102t-55.5 -111q-72 -35 -109.5 -72.5t-37.5 -97.5q0 -55 26.5 -95t65.5 -74t86 -67.5t86 -77.5t65.5 -101.5t26.5 -137.5q0 -59 -24.5 -112.5t-66.5 -93t-99.5 -63.5 t-122.5 -24q-61 0 -130 13.5t-167 62.5z" />
<glyph unicode="&#xe0;" d="M258 1516h195l149 -283q-53 -12 -105.5 -1t-90.5 60zM928 350q0 -123 9 -210t24 -140h-140q-29 16 -45 44t-28 60l-3 37l-22 -37q-78 -78 -144.5 -101t-140.5 -23q-80 0 -143.5 22.5t-108.5 61t-68.5 92t-23.5 114.5q0 78 30 135.5t96.5 98.5t175 68.5t266.5 45.5 q-4 -18 -11.5 -42.5t-25 -48t-44 -42t-67.5 -24.5q-68 -10 -110 -28.5t-66.5 -42t-32.5 -51.5t-8 -56q0 -63 45 -109.5t123 -46.5q70 0 140.5 35t129.5 112v383q0 121 -59.5 198t-198.5 77q-55 0 -109.5 -11.5t-127.5 -37.5l-47 127q100 43 176.5 56t144.5 13 q199 0 306.5 -113.5t107.5 -322.5v-293z" />
<glyph unicode="&#xe1;" d="M647 1292q-41 -49 -94 -61t-107 2l183 283h198zM926 350q0 -123 9 -210t23 -140h-139q-29 16 -45 44t-29 60l-2 37l-22 -37q-78 -78 -144.5 -101t-140.5 -23q-80 0 -143.5 22.5t-108.5 61t-68.5 92t-23.5 114.5q0 78 30 135.5t96.5 98.5t175 68.5t265.5 45.5 q-4 -18 -11 -42.5t-24.5 -48t-44 -42t-67.5 -24.5q-68 -10 -110 -28.5t-66.5 -42t-32.5 -51.5t-8 -56q0 -63 45 -109.5t123 -46.5q70 0 140.5 35t129.5 112v383q0 121 -59.5 198t-198.5 77q-55 0 -109.5 -11.5t-127.5 -37.5l-48 127q100 43 177 56t145 13 q199 0 306.5 -113.5t107.5 -322.5v-293z" />
<glyph unicode="&#xe2;" d="M604 1522l227 -297l-106 -17l-180 172l-180 -174l-101 19l223 297h117zM928 350q0 -123 9 -210t24 -140h-140q-29 16 -45 44t-28 60l-3 37l-22 -37q-78 -78 -144.5 -101t-140.5 -23q-80 0 -143.5 22.5t-108.5 61t-68.5 92t-23.5 114.5q0 78 30 135.5t96.5 98.5t175 68.5 t266.5 45.5q-4 -18 -11.5 -42.5t-25 -48t-44 -42t-67.5 -24.5q-68 -10 -110 -28.5t-66.5 -42t-32.5 -51.5t-8 -56q0 -63 45 -109.5t123 -46.5q70 0 140.5 35t129.5 112v383q0 121 -59.5 198t-198.5 77q-55 0 -109.5 -11.5t-127.5 -37.5l-47 127q100 43 176.5 56t144.5 13 q199 0 306.5 -113.5t107.5 -322.5v-293z" />
<glyph unicode="&#xe3;" d="M928 350q0 -123 9 -210t24 -140h-140q-29 16 -45 44t-28 60l-3 37l-22 -37q-78 -78 -144.5 -101t-140.5 -23q-80 0 -143.5 22.5t-108.5 61t-68.5 92t-23.5 114.5q0 78 30 135.5t96.5 98.5t175 68.5t266.5 45.5q-4 -18 -11.5 -42.5t-25 -48t-44 -42t-67.5 -24.5 q-68 -10 -110 -28.5t-66.5 -42t-32.5 -51.5t-8 -56q0 -63 45 -109.5t123 -46.5q70 0 140.5 35t129.5 112v383q0 121 -59.5 198t-198.5 77q-55 0 -109.5 -11.5t-127.5 -37.5l-47 127q100 43 176.5 56t144.5 13q199 0 306.5 -113.5t107.5 -322.5v-293zM246 1278q4 117 56 168 t126 53q76 0 131 -49q29 -25 49.5 -45.5t61.5 -20.5q53 0 63 119l109 -12q-4 -66 -19.5 -108t-40 -67.5t-54.5 -35.5t-58 -10q-84 0 -133 47q-29 25 -50.5 46t-56.5 21q-27 0 -47.5 -26.5t-24.5 -91.5z" />
<glyph unicode="&#xe4;" d="M242 1372q0 45 31.5 76t74.5 31q45 0 77 -31t32 -76t-32 -75.5t-77 -30.5q-43 0 -74.5 30.5t-31.5 75.5zM639 1372q0 45 31.5 76t77.5 31q43 0 74.5 -31t31.5 -76t-31.5 -75.5t-74.5 -30.5q-45 0 -77 30.5t-32 75.5zM928 350q0 -123 9 -210t24 -140h-140q-29 16 -45 44 t-28 60l-3 37l-22 -37q-78 -78 -144.5 -101t-140.5 -23q-80 0 -143.5 22.5t-108.5 61t-68.5 92t-23.5 114.5q0 78 30 135.5t96.5 98.5t175 68.5t266.5 45.5q-4 -18 -11.5 -42.5t-25 -48t-44 -42t-67.5 -24.5q-68 -10 -110 -28.5t-66.5 -42t-32.5 -51.5t-8 -56 q0 -63 45 -109.5t123 -46.5q70 0 140.5 35t129.5 112v383q0 121 -59.5 198t-198.5 77q-55 0 -109.5 -11.5t-127.5 -37.5l-47 127q100 43 176.5 56t144.5 13q199 0 306.5 -113.5t107.5 -322.5v-293z" />
<glyph unicode="&#xe5;" d="M928 350q0 -123 9 -210t24 -140h-140q-29 16 -45 44t-28 60l-3 37l-22 -37q-78 -78 -144.5 -101t-140.5 -23q-80 0 -143.5 22.5t-108.5 61t-68.5 92t-23.5 114.5q0 78 30 135.5t96.5 98.5t175 68.5t266.5 45.5q-4 -18 -11.5 -42.5t-25 -48t-44 -42t-67.5 -24.5 q-68 -10 -110 -28.5t-66.5 -42t-32.5 -51.5t-8 -56q0 -63 45 -109.5t123 -46.5q70 0 140.5 35t129.5 112v383q0 121 -59.5 198t-198.5 77q-55 0 -109.5 -11.5t-127.5 -37.5l-47 127q100 43 176.5 56t144.5 13q199 0 306.5 -113.5t107.5 -322.5v-293zM547 1169 q-90 0 -145.5 50.5t-55.5 126.5q0 80 56.5 132t146.5 52q92 0 145.5 -51.5t53.5 -130.5q0 -78 -57.5 -128.5t-143.5 -50.5zM547 1245q47 0 74.5 30t27.5 75t-27.5 74.5t-74.5 29.5q-43 0 -70.5 -30.5t-27.5 -77.5q0 -39 26.5 -70t71.5 -31z" />
<glyph unicode="&#xe6;" horiz-adv-x="1740" d="M1434 649q6 59 -8.5 110.5t-44 90.5t-72.5 60.5t-92 21.5q-129 0 -210 -102.5t-81 -292.5q0 -92 24.5 -167t68.5 -129.5t103.5 -84t128.5 -29.5q72 0 134.5 14.5t150.5 59.5l51 -135q-98 -51 -190 -68.5t-166 -17.5q-63 0 -125 22.5t-115 61t-93 91t-60 113.5 q-41 -133 -148.5 -210.5t-251.5 -77.5q-80 0 -143.5 22.5t-108.5 61t-68.5 92t-23.5 114.5q0 78 30 135.5t96.5 98.5t175 68.5t266.5 45.5q-4 -18 -11.5 -42.5t-25 -48t-44 -42t-67.5 -24.5q-68 -10 -110 -28.5t-66.5 -42t-32.5 -51.5t-8 -56q0 -63 45 -109.5t123 -46.5 q129 0 199.5 105.5t70.5 304.5v120q0 121 -59.5 198t-198.5 77q-55 0 -109.5 -11.5t-127.5 -37.5l-47 127q100 43 176.5 56t144.5 13q119 0 208 -61.5t130 -159.5q25 47 65.5 88t91 71t109 46t119.5 16q104 0 186 -47t131.5 -126t60.5 -181t-22 -213h-594q23 59 62 98 t113 39h260z" />
<glyph unicode="&#xe7;" horiz-adv-x="874" d="M569 -20l-20 -82q29 -4 58.5 -15.5t53 -31t38 -46t14.5 -57.5q0 -47 -20.5 -78.5t-54.5 -52t-76 -30t-83 -9.5q-35 0 -73.5 8t-88.5 31l29 88q39 -16 71 -21.5t62 -5.5q35 0 72 13.5t37 50.5q0 39 -41 58.5t-113 27.5l43 162q-84 14 -155.5 57t-124 111.5t-82 162 t-29.5 209.5q0 133 40 235.5t107.5 172.5t157.5 105.5t189 35.5q55 0 121.5 -10t127.5 -33l-51 -135q-55 16 -103 23.5t-95 7.5q-59 0 -111.5 -24.5t-92.5 -74t-63.5 -125t-23.5 -178.5q0 -104 23.5 -180t63.5 -125t92 -73.5t112 -24.5q45 0 99 13.5t126 45.5l51 -135 q-84 -41 -156.5 -56t-119.5 -15h-11z" />
<glyph unicode="&#xe8;" horiz-adv-x="1114" d="M813 649q6 59 -8 110.5t-44 90.5t-73 60.5t-92 21.5q-129 0 -210 -102.5t-81 -292.5q0 -92 24.5 -167t68.5 -129.5t103.5 -84t129.5 -29.5q72 0 134 14.5t150 59.5l52 -135q-98 -51 -190.5 -68.5t-166.5 -17.5q-113 0 -205 41.5t-156.5 116.5t-99 177.5t-34.5 223.5 q0 125 34.5 224t100 170t158 108.5t208.5 37.5q104 0 186.5 -47t131.5 -126t60.5 -181t-21.5 -213h-594q23 59 61.5 98t112.5 39h260zM319 1516h195l150 -283q-53 -12 -105.5 -1t-91.5 60z" />
<glyph unicode="&#xe9;" horiz-adv-x="1114" d="M813 649q6 59 -8 110.5t-44 90.5t-73 60.5t-92 21.5q-129 0 -210 -102.5t-81 -292.5q0 -92 24.5 -167t68.5 -129.5t103.5 -84t129.5 -29.5q72 0 134 14.5t150 59.5l52 -135q-98 -51 -190.5 -68.5t-166.5 -17.5q-113 0 -205 41.5t-156.5 116.5t-99 177.5t-34.5 223.5 q0 125 34.5 224t100 170t158 108.5t208.5 37.5q104 0 186.5 -47t131.5 -126t60.5 -181t-21.5 -213h-594q23 59 61.5 98t112.5 39h260zM700 1292q-41 -49 -94 -61t-106 2l182 283h199z" />
<glyph unicode="&#xea;" horiz-adv-x="1114" d="M813 649q6 59 -8 110.5t-44 90.5t-73 60.5t-92 21.5q-129 0 -210 -102.5t-81 -292.5q0 -92 24.5 -167t68.5 -129.5t103.5 -84t129.5 -29.5q72 0 134 14.5t150 59.5l52 -135q-98 -51 -190.5 -68.5t-166.5 -17.5q-113 0 -205 41.5t-156.5 116.5t-99 177.5t-34.5 223.5 q0 125 34.5 224t100 170t158 108.5t208.5 37.5q104 0 186.5 -47t131.5 -126t60.5 -181t-21.5 -213h-594q23 59 61.5 98t112.5 39h260zM655 1522l228 -297l-107 -17l-180 172l-180 -174l-101 19l224 297h116z" />
<glyph unicode="&#xeb;" horiz-adv-x="1114" d="M813 649q6 59 -8 110.5t-44 90.5t-73 60.5t-92 21.5q-129 0 -210 -102.5t-81 -292.5q0 -92 24.5 -167t68.5 -129.5t103.5 -84t129.5 -29.5q72 0 134 14.5t150 59.5l52 -135q-98 -51 -190.5 -68.5t-166.5 -17.5q-113 0 -205 41.5t-156.5 116.5t-99 177.5t-34.5 223.5 q0 125 34.5 224t100 170t158 108.5t208.5 37.5q104 0 186.5 -47t131.5 -126t60.5 -181t-21.5 -213h-594q23 59 61.5 98t112.5 39h260zM279 1372q0 45 31.5 76t74.5 31q45 0 77 -31t32 -76t-32 -75.5t-77 -30.5q-43 0 -74.5 30.5t-31.5 75.5zM676 1372q0 45 31.5 76t76.5 31 q43 0 75 -31t32 -76t-32 -75.5t-75 -30.5q-45 0 -76.5 30.5t-31.5 75.5z" />
<glyph unicode="&#xec;" horiz-adv-x="565" d="M225 0v1059h197v-1059h-197zM41 1516h195l149 -283q-53 -12 -105.5 -1t-91.5 60z" />
<glyph unicode="&#xed;" horiz-adv-x="559" d="M143 0v1059h197v-1059h-197zM348 1292q-41 -49 -94 -61t-107 2l183 283h198z" />
<glyph unicode="&#xee;" horiz-adv-x="690" d="M244 0v1059h196v-1059h-196zM401 1522l228 -297l-107 -17l-180 172l-180 -174l-101 19l224 297h116z" />
<glyph unicode="&#xef;" horiz-adv-x="720" d="M264 0v1059h197v-1059h-197zM55 1372q0 45 32 76t75 31q45 0 76.5 -31t31.5 -76t-31.5 -75.5t-76.5 -30.5q-43 0 -75 30.5t-32 75.5zM451 1372q0 45 31.5 76t74.5 31q45 0 77 -31t32 -76t-32 -75.5t-77 -30.5q-43 0 -74.5 30.5t-31.5 75.5z" />
<glyph unicode="&#xf0;" horiz-adv-x="1140" d="M1069 530q0 -133 -40 -236.5t-107.5 -173t-157.5 -105t-189 -35.5q-102 0 -192 35.5t-156.5 105t-105.5 173t-39 236.5t40 235.5t107.5 172.5t157.5 105.5t188 35.5q33 0 68 -6t72 -22l86 -50l-51 62q-47 66 -103.5 118t-87.5 74l-256 -122l-39 88l203 100 q-47 35 -95 61.5t-106 55.5l66 118q74 -35 148.5 -76.5t140.5 -88.5l229 110l43 -90l-184 -88q37 -31 97 -103.5t118.5 -176t101.5 -235t43 -278.5zM866 530q0 102 -23.5 178t-63.5 125.5t-93 74t-111 24.5q-59 0 -111 -24.5t-92 -74t-63.5 -125t-23.5 -178.5 q0 -104 23.5 -180t63.5 -125t92 -73.5t111 -24.5q57 0 110.5 24.5t93.5 73.5t63.5 125t23.5 180z" />
<glyph unicode="&#xf1;" horiz-adv-x="1220" d="M291 1059q49 -55 64.5 -109.5t15.5 -115.5v-834h-197v801q0 57 -7 121.5t-24 136.5h148zM846 770q0 72 -32 117t-95 45q-25 0 -43.5 -5l-44.5 -12q-59 -14 -110.5 -1.5t-94.5 57.5q109 63 182.5 85.5t128.5 22.5q61 0 116.5 -15t97.5 -54t66.5 -102.5t24.5 -157.5v-750 h-196v770zM311 1278q4 117 56.5 168t126.5 53q76 0 131 -49q29 -25 49 -45.5t61 -20.5q53 0 64 119l108 -12q-4 -66 -19.5 -108t-40 -67.5t-54 -35.5t-58.5 -10q-84 0 -133 47q-29 25 -50.5 46t-55.5 21q-27 0 -47.5 -26.5t-24.5 -91.5z" />
<glyph unicode="&#xf2;" horiz-adv-x="1159" d="M1069 530q0 -133 -40 -236.5t-107.5 -173t-157.5 -105t-189 -35.5q-102 0 -192 35.5t-156.5 105t-105.5 173t-39 236.5t40 235.5t107.5 172.5t157.5 105.5t188 35.5q102 0 192.5 -35.5t157 -105.5t105.5 -172.5t39 -235.5zM866 530q0 102 -23.5 178t-63.5 125.5t-93 74 t-111 24.5q-59 0 -111 -24.5t-92 -74t-63.5 -125t-23.5 -178.5q0 -104 23.5 -180t63.5 -125t92 -73.5t111 -24.5q57 0 110.5 24.5t93.5 73.5t63.5 125t23.5 180zM319 1516h195l150 -283q-53 -12 -105.5 -1t-91.5 60z" />
<glyph unicode="&#xf3;" horiz-adv-x="1159" d="M1069 530q0 -133 -40 -236.5t-107.5 -173t-157.5 -105t-189 -35.5q-102 0 -192 35.5t-156.5 105t-105.5 173t-39 236.5t40 235.5t107.5 172.5t157.5 105.5t188 35.5q102 0 192.5 -35.5t157 -105.5t105.5 -172.5t39 -235.5zM866 530q0 102 -23.5 178t-63.5 125.5t-93 74 t-111 24.5q-59 0 -111 -24.5t-92 -74t-63.5 -125t-23.5 -178.5q0 -104 23.5 -180t63.5 -125t92 -73.5t111 -24.5q57 0 110.5 24.5t93.5 73.5t63.5 125t23.5 180zM682 1292q-41 -49 -94 -61t-107 2l183 283h198z" />
<glyph unicode="&#xf4;" horiz-adv-x="1159" d="M1069 530q0 -133 -40 -236.5t-107.5 -173t-157.5 -105t-189 -35.5q-102 0 -192 35.5t-156.5 105t-105.5 173t-39 236.5t40 235.5t107.5 172.5t157.5 105.5t188 35.5q102 0 192.5 -35.5t157 -105.5t105.5 -172.5t39 -235.5zM866 530q0 102 -23.5 178t-63.5 125.5t-93 74 t-111 24.5q-59 0 -111 -24.5t-92 -74t-63.5 -125t-23.5 -178.5q0 -104 23.5 -180t63.5 -125t92 -73.5t111 -24.5q57 0 110.5 24.5t93.5 73.5t63.5 125t23.5 180zM635 1522l227 -297l-106 -17l-181 172l-180 -174l-100 19l223 297h117z" />
<glyph unicode="&#xf5;" horiz-adv-x="1159" d="M1069 530q0 -133 -40 -236.5t-107.5 -173t-157.5 -105t-189 -35.5q-102 0 -192 35.5t-156.5 105t-105.5 173t-39 236.5t40 235.5t107.5 172.5t157.5 105.5t188 35.5q102 0 192.5 -35.5t157 -105.5t105.5 -172.5t39 -235.5zM866 530q0 102 -23.5 178t-63.5 125.5t-93 74 t-111 24.5q-59 0 -111 -24.5t-92 -74t-63.5 -125t-23.5 -178.5q0 -104 23.5 -180t63.5 -125t92 -73.5t111 -24.5q57 0 110.5 24.5t93.5 73.5t63.5 125t23.5 180zM281 1278q4 117 56 168t126 53q76 0 131 -49q29 -25 49.5 -45.5t61.5 -20.5q53 0 63 119l109 -12 q-4 -66 -19.5 -108t-40 -67.5t-54.5 -35.5t-58 -10q-84 0 -134 47q-29 25 -50 46t-56 21q-27 0 -47.5 -26.5t-24.5 -91.5z" />
<glyph unicode="&#xf6;" horiz-adv-x="1159" d="M1069 530q0 -133 -40 -236.5t-107.5 -173t-157.5 -105t-189 -35.5q-102 0 -192 35.5t-156.5 105t-105.5 173t-39 236.5t40 235.5t107.5 172.5t157.5 105.5t188 35.5q102 0 192.5 -35.5t157 -105.5t105.5 -172.5t39 -235.5zM866 530q0 102 -23.5 178t-63.5 125.5t-93 74 t-111 24.5q-59 0 -111 -24.5t-92 -74t-63.5 -125t-23.5 -178.5q0 -104 23.5 -180t63.5 -125t92 -73.5t111 -24.5q57 0 110.5 24.5t93.5 73.5t63.5 125t23.5 180zM268 1372q0 45 32 76t75 31q45 0 76.5 -31t31.5 -76t-31.5 -75.5t-76.5 -30.5q-43 0 -75 30.5t-32 75.5z M666 1372q0 45 31.5 76t76.5 31q43 0 75 -31t32 -76t-32 -75.5t-75 -30.5q-45 0 -76.5 30.5t-31.5 75.5z" />
<glyph unicode="&#xf7;" horiz-adv-x="1163" d="M96 690h959v-131h-959v131zM471 1012q0 47 28.5 76.5t73.5 29.5q47 0 77 -29.5t30 -76.5q0 -45 -29.5 -74t-77.5 -29q-45 0 -73.5 29t-28.5 74zM471 229q0 47 28.5 77t73.5 30q47 0 77 -30t30 -77q0 -45 -29.5 -73.5t-77.5 -28.5q-45 0 -73.5 28.5t-28.5 73.5z" />
<glyph unicode="&#xf8;" horiz-adv-x="1024" d="M1069 530q0 -133 -40 -236.5t-107.5 -173t-157.5 -105t-189 -35.5q-117 0 -210 43l-93 -158h-157l135 231q-78 72 -123 179.5t-45 254.5q0 133 40 235.5t107.5 172.5t157.5 105.5t188 35.5q123 0 230 -53l88 148h151l-133 -224q72 -72 115 -176.5t43 -243.5zM872 528 q0 80 -15 144.5t-42 113.5l-334 -563q-35 41 -46 101.5t16 109.5l272 457q-66 45 -148 45q-59 0 -112 -24.5t-94 -75t-65.5 -127t-24.5 -179.5q0 -104 24.5 -180t65.5 -127t94 -75.5t112 -24.5q57 0 111.5 24.5t95.5 74.5t65.5 126t24.5 180z" />
<glyph unicode="&#xf9;" horiz-adv-x="1202" d="M891 0q-49 55 -64.5 109.5t-15.5 115.5v834h190v-801q0 -57 7.5 -121.5t25.5 -136.5h-143zM338 289q0 -72 29.5 -117t95.5 -45q25 0 42 5t46 11q59 14 110.5 2t94.5 -57q-109 -66 -183.5 -87t-130.5 -21q-61 0 -114.5 15t-94 54t-64.5 101.5t-24 158.5v750h193v-770z M307 1516h195l149 -283q-53 -12 -105 -1t-91 60z" />
<glyph unicode="&#xfa;" horiz-adv-x="1202" d="M891 0q-49 55 -64.5 109.5t-15.5 115.5v834h190v-801q0 -57 7.5 -121.5t25.5 -136.5h-143zM338 289q0 -72 29.5 -117t95.5 -45q25 0 42 5t46 11q59 14 110.5 2t94.5 -57q-109 -66 -183.5 -87t-130.5 -21q-61 0 -114.5 15t-94 54t-64.5 101.5t-24 158.5v750h193v-770z M709 1292q-41 -49 -94.5 -61t-106.5 2l182 283h199z" />
<glyph unicode="&#xfb;" horiz-adv-x="1202" d="M891 0q-49 55 -64.5 109.5t-15.5 115.5v834h190v-801q0 -57 7.5 -121.5t25.5 -136.5h-143zM338 289q0 -72 29.5 -117t95.5 -45q25 0 42 5t46 11q59 14 110.5 2t94.5 -57q-109 -66 -183.5 -87t-130.5 -21q-61 0 -114.5 15t-94 54t-64.5 101.5t-24 158.5v750h193v-770z M635 1522l227 -297l-106 -17l-181 172l-180 -174l-100 19l223 297h117z" />
<glyph unicode="&#xfc;" horiz-adv-x="1202" d="M891 0q-49 55 -64.5 109.5t-15.5 115.5v834h190v-801q0 -57 7.5 -121.5t25.5 -136.5h-143zM338 289q0 -72 29.5 -117t95.5 -45q25 0 42 5t46 11q59 14 110.5 2t94.5 -57q-109 -66 -183.5 -87t-130.5 -21q-61 0 -114.5 15t-94 54t-64.5 101.5t-24 158.5v750h193v-770z M276 1372q0 45 32 76t75 31q45 0 77 -31t32 -76t-32 -75.5t-77 -30.5q-43 0 -75 30.5t-32 75.5zM674 1372q0 45 31.5 76t76.5 31q43 0 75 -31t32 -76t-32 -75.5t-75 -30.5q-45 0 -76.5 30.5t-31.5 75.5z" />
<glyph unicode="&#xfd;" horiz-adv-x="1083" d="M459 367q16 -49 20 -100.5t-2 -97.5t-22.5 -85t-38.5 -64l-383 1039h200zM248 -356q59 0 99 32.5t72 91t58 137.5l60 171l317 983h199l-375 -1036l-77 -204q-36 -95 -83 -167t-110.5 -114t-159.5 -42q-41 2 -87 9.5t-89 21.5l49 135q68 -18 127 -18zM674 1292 q-41 -49 -94.5 -61t-106.5 2l182 283h199z" />
<glyph unicode="&#xfe;" horiz-adv-x="1224" d="M186 1552h185v-1392q49 -18 104 -25.5t103 -7.5q74 0 132 29.5t99 83t62.5 129t21.5 166.5q0 205 -81 301t-214 88q-92 -6 -158 92q53 27 113.5 41t108.5 14q84 0 161.5 -33.5t138 -101.5t96.5 -168t36 -233q0 -123 -38 -224.5t-105.5 -175.5t-163 -114.5t-209.5 -40.5 q-55 0 -101.5 7t-105.5 29v-510h-185v2046z" />
<glyph unicode="&#xff;" horiz-adv-x="1083" d="M459 367q16 -49 20 -100.5t-2 -97.5t-22.5 -85t-38.5 -64l-383 1039h200zM248 -356q59 0 99 32.5t72 91t58 137.5l60 171l317 983h199l-375 -1036l-77 -204q-36 -95 -83 -167t-110.5 -114t-159.5 -42q-41 2 -87 9.5t-89 21.5l49 135q68 -18 127 -18zM242 1372 q0 45 31.5 76t74.5 31q45 0 77 -31t32 -76t-32 -75.5t-77 -30.5q-43 0 -74.5 30.5t-31.5 75.5zM639 1372q0 45 31.5 76t77.5 31q43 0 74.5 -31t31.5 -76t-31.5 -75.5t-74.5 -30.5q-45 0 -77 30.5t-32 75.5z" />
<glyph unicode="&#x152;" horiz-adv-x="1964" d="M782 -29q-143 0 -269 53.5t-219 152.5t-147.5 242.5t-54.5 325.5q0 178 56.5 320.5t150.5 244t219 156t264 54.5q59 0 142.5 -15.5t160.5 -15.5h787v-148h-653v-1194h684v-147h-818q-84 0 -168 -14.5t-135 -14.5zM782 1370q-98 0 -186 -43t-153.5 -125t-103.5 -197.5 t-38 -259.5q0 -145 38 -261.5t104.5 -197.5t153.5 -124t185 -43q53 0 114.5 8t127.5 31v1173q-57 18 -123 28.5t-119 10.5zM1802 852v-143h-506q23 59 63 101t114 42h329z" />
<glyph unicode="&#x153;" horiz-adv-x="1867" d="M1057 530q0 -90 25.5 -164.5t68.5 -128t102.5 -82t128.5 -28.5q72 0 134.5 14.5t150.5 59.5l51 -135q-98 -51 -190 -68.5t-166 -17.5q-131 0 -231.5 73.5t-165.5 192.5q-59 -127 -164 -196.5t-226 -69.5q-102 0 -192 35.5t-156.5 105t-105.5 173t-39 236.5t40 235.5 t107.5 172.5t157.5 105.5t188 35.5q123 0 221.5 -60.5t164.5 -195.5q55 123 163.5 189.5t243.5 66.5q104 0 186 -47t131.5 -126t60.5 -181t-22 -213h-594q23 59 62 98t113 39h260q6 59 -8.5 110.5t-44 90.5t-72.5 60.5t-92 21.5q-127 0 -207 -101.5t-84 -300.5zM866 530 q-2 104 -26.5 180t-64.5 125.5t-91 73t-109 23.5q-59 0 -111 -24.5t-92 -74t-63.5 -125t-23.5 -178.5q0 -104 23.5 -180t63.5 -125t92 -73.5t111 -24.5q57 0 108.5 23.5t91.5 72.5t64.5 125t26.5 182z" />
<glyph unicode="&#x178;" horiz-adv-x="1351" d="M758 690v-690h-191v633l-510 856h222zM1038 1489h215l-438 -719q-18 25 -33.5 54.5t-22.5 62.5t-3 68.5t24 72.5zM358 1720q0 45 32 76t75 31q45 0 76.5 -31t31.5 -76t-31.5 -75.5t-76.5 -30.5q-43 0 -75 30.5t-32 75.5zM756 1720q0 45 31.5 76t76.5 31q43 0 75 -31 t32 -76t-32 -75.5t-75 -30.5q-45 0 -76.5 30.5t-31.5 75.5z" />
<glyph unicode="&#x2c6;" horiz-adv-x="1024" d="M635 1522l227 -297l-106 -17l-181 172l-180 -174l-100 19l223 297h117z" />
<glyph unicode="&#x2dc;" horiz-adv-x="1024" d="M311 1278q4 117 56.5 168t126.5 53q76 0 131 -49q29 -25 49 -45.5t61 -20.5q53 0 64 119l108 -12q-4 -66 -19.5 -108t-40 -67.5t-54 -35.5t-58.5 -10q-84 0 -133 47q-29 25 -50.5 46t-55.5 21q-27 0 -47.5 -26.5t-24.5 -91.5z" />
<glyph unicode="&#x2000;" horiz-adv-x="913" />
<glyph unicode="&#x2001;" horiz-adv-x="1828" />
<glyph unicode="&#x2002;" horiz-adv-x="913" />
<glyph unicode="&#x2003;" horiz-adv-x="1828" />
<glyph unicode="&#x2004;" horiz-adv-x="608" />
<glyph unicode="&#x2005;" horiz-adv-x="456" />
<glyph unicode="&#x2006;" horiz-adv-x="303" />
<glyph unicode="&#x2007;" horiz-adv-x="303" />
<glyph unicode="&#x2008;" horiz-adv-x="227" />
<glyph unicode="&#x2009;" horiz-adv-x="364" />
<glyph unicode="&#x200a;" horiz-adv-x="100" />
<glyph unicode="&#x2010;" horiz-adv-x="768" d="M92 559v131h619v-131h-619z" />
<glyph unicode="&#x2011;" horiz-adv-x="768" d="M92 559v131h619v-131h-619z" />
<glyph unicode="&#x2012;" horiz-adv-x="768" d="M92 559v131h619v-131h-619z" />
<glyph unicode="&#x2013;" horiz-adv-x="1105" d="M92 498v131h869v-131h-869z" />
<glyph unicode="&#x2014;" horiz-adv-x="1738" d="M92 498v131h1514v-131h-1514z" />
<glyph unicode="&#x2018;" horiz-adv-x="419" d="M305 1087h-178v160q0 41 7 88t27.5 86t54.5 59.5t89 8.5v-402z" />
<glyph unicode="&#x2019;" horiz-adv-x="458" d="M166 1489h178v-160q0 -41 -7 -89t-27.5 -86t-54.5 -58.5t-89 -8.5v402z" />
<glyph unicode="&#x201a;" horiz-adv-x="403" d="M115 201h178v-160q0 -41 -7 -89t-27.5 -86t-54.5 -58.5t-89 -8.5v402z" />
<glyph unicode="&#x201c;" horiz-adv-x="759" d="M645 1087h-178v160q0 41 7 88t27.5 86t54.5 59.5t89 8.5v-402zM289 1087h-178v160q0 41 7 88t27.5 86t54 59.5t89.5 8.5v-402z" />
<glyph unicode="&#x201d;" horiz-adv-x="759" d="M111 1489h178v-160q0 -41 -7.5 -89t-28 -86t-54 -58.5t-88.5 -8.5v402zM467 1489h178v-160q0 -41 -7 -89t-27.5 -86t-54.5 -58.5t-89 -8.5v402z" />
<glyph unicode="&#x201e;" horiz-adv-x="741" d="M115 201h178v-160q0 -41 -7 -89t-27.5 -86t-54.5 -58.5t-89 -8.5v402zM469 201h178v-160q0 -41 -7 -89t-27.5 -86t-54.5 -58.5t-89 -8.5v402z" />
<glyph unicode="&#x2022;" horiz-adv-x="1024" d="M375 645q0 66 43 111t108 45q66 0 111 -45t45 -111t-45 -108.5t-111 -42.5t-108.5 42.5t-42.5 108.5z" />
<glyph unicode="&#x2026;" horiz-adv-x="1746" d="M190 90q0 53 34 89t87 36t89 -36t36 -89t-35.5 -87t-89.5 -34q-53 0 -87 34t-34 87zM743 90q0 53 34 89t87 36t89 -36t36 -89t-35.5 -87t-89.5 -34q-53 0 -87 34t-34 87zM1296 90q0 53 34 89t87 36t89 -36t36 -89t-36 -87t-89 -34t-87 34t-34 87z" />
<glyph unicode="&#x202f;" horiz-adv-x="364" />
<glyph unicode="&#x2039;" horiz-adv-x="1255" d="M403 528l443 426l90 -88l-295 -338l295 -338l-90 -88z" />
<glyph unicode="&#x203a;" horiz-adv-x="1255" d="M494 102l-91 88l295 338l-295 338l91 88l442 -426z" />
<glyph unicode="&#x205f;" horiz-adv-x="456" />
<glyph unicode="&#x20ac;" horiz-adv-x="1208" d="M-16 643h145q-2 16 -2 36v38v53q0 25 4 51h-147v133h168q27 117 80 211.5t126.5 160t165.5 101t201 35.5q86 0 158.5 -13t171.5 -50l-54 -135q-86 33 -150.5 42t-125.5 9q-86 0 -162 -42t-131 -120t-88 -188.5t-33 -247.5v-38q0 -19 2 -36h572v-133h-551 q41 -182 147.5 -282.5t243.5 -100.5q37 0 68.5 2t64.5 8t68 16.5t75 26.5l54 -137q-90 -35 -167 -49t-163 -14q-111 0 -206 36.5t-169 106.5t-126 167t-77 220h-163v133zM885 954v-133h-492q20 59 60.5 96t111.5 37h320z" />
<glyph unicode="&#x2122;" horiz-adv-x="1490" d="M53 1409v82h490v-82h-189v-530h-112v530h-189zM694 1491h152l149 -447l6 -28l7 28l151 447h141l68 -612h-100l-47 454v41l-13 -41l-153 -444h-107l-153 446l-13 39l-2 -39l-43 -456h-110z" />
<glyph unicode="&#xe000;" horiz-adv-x="1060" d="M0 1060h1060v-1060h-1060v1060z" />
<glyph unicode="&#xfb01;" horiz-adv-x="1323" d="M963 0v1059h196v-1059h-196zM938 1366q0 53 35 89t88 36t88 -36t35 -89t-35 -88t-88 -35t-88 35t-35 88zM10 918v98l176 43v57q0 100 27 183t77 141.5t122.5 90.5t167.5 32q51 0 113.5 -11.5t133.5 -42.5l-43 -125q-66 25 -107.5 32t-74.5 7q-43 0 -86 -16t-76.5 -50 t-54 -89.5t-20.5 -130.5v-1137h-179v918h-176zM735 1059v-141h-297q23 59 62 100t112 41h123z" />
<glyph unicode="&#xfb02;" horiz-adv-x="1318" d="M1159 0h-186v1552h186v-1552zM10 918v98l176 43v57q0 100 27 183t77 141.5t122.5 90.5t167.5 32q51 0 113.5 -11.5t133.5 -42.5l-43 -125q-66 25 -107.5 32t-74.5 7q-43 0 -86 -16t-76.5 -50t-54 -89.5t-20.5 -130.5v-1137h-179v918h-176zM735 1059v-141h-297 q23 59 62 100t112 41h123z" />
<glyph unicode="&#xfb03;" horiz-adv-x="2121" d="M1761 0v1059h196v-1059h-196zM1736 1366q0 53 35 89t88 36t88 -36t35 -89t-35 -88t-88 -35t-88 35t-35 88zM809 918v98l176 43v57q0 100 27 183t77 141.5t122.5 90.5t167.5 32q51 0 113.5 -11.5t133.5 -42.5l-43 -125q-66 25 -107.5 32t-74.5 7q-43 0 -86 -16t-76.5 -50 t-54 -89.5t-20.5 -130.5v-1137h-179v918h-176zM1534 1059v-141h-297q23 59 62 100t112 41h123zM10 918v98l176 43v57q0 100 27 183t77 141.5t122.5 90.5t167.5 32q51 0 113.5 -11.5t133.5 -42.5l-43 -125q-66 25 -107.5 32t-74.5 7q-43 0 -86 -16t-76.5 -50t-54 -89.5 t-20.5 -130.5v-1137h-179v918h-176zM735 1059v-141h-297q23 59 62 100t112 41h123z" />
<glyph unicode="&#xfb04;" horiz-adv-x="2117" d="M1957 0h-186v1552h186v-1552zM809 918v98l176 43v57q0 100 27 183t77 141.5t122.5 90.5t167.5 32q51 0 113.5 -11.5t133.5 -42.5l-43 -125q-66 25 -107.5 32t-74.5 7q-43 0 -86 -16t-76.5 -50t-54 -89.5t-20.5 -130.5v-1137h-179v918h-176zM1534 1059v-141h-297 q23 59 62 100t112 41h123zM10 918v98l176 43v57q0 100 27 183t77 141.5t122.5 90.5t167.5 32q51 0 113.5 -11.5t133.5 -42.5l-43 -125q-66 25 -107.5 32t-74.5 7q-43 0 -86 -16t-76.5 -50t-54 -89.5t-20.5 -130.5v-1137h-179v918h-176zM735 1059v-141h-297q23 59 62 100 t112 41h123z" />
</font>
</defs>
</svg>
