<?xml version="1.0" standalone="no"?>
<!DOCTYPE svg PUBLIC "-//W3C//DTD SVG 1.1//EN" "http://www.w3.org/Graphics/SVG/1.1/DTD/svg11.dtd" >
<svg xmlns="http://www.w3.org/2000/svg">
<metadata>
This is a custom SVG webfont generated by Font Squirrel.
Copyright   : Copyright c 2010 Friedrich Althausen httpfriedrichalthausende All rights reservedThis Font Software is licensed under the SIL Open Font License Version 11This license is available with a FAQ at httpscriptssilorgOFL
Designer    : Friedrich Althausen
Foundry     : Friedrich Althausen
Foundry URL : httpfriedrichalthausende
</metadata>
<defs>
<font id="webfontW736jsGt" horiz-adv-x="505" >
<font-face units-per-em="2048" ascent="1536" descent="-512" />
<missing-glyph horiz-adv-x="368" />
<glyph unicode=" "  horiz-adv-x="368" />
<glyph unicode="&#x09;" horiz-adv-x="368" />
<glyph unicode="&#xa0;" horiz-adv-x="368" />
<glyph unicode="!" horiz-adv-x="561" d="M121 115q8 41 40 68.5t75 27.5q47 0 76.5 -36t19.5 -91q-10 -47 -38 -73.5t-73 -26.5q-55 0 -83.5 36t-16.5 95zM252 473q18 143 31 266l22 234q10 111 17 214l12 208q47 10 108.5 29.5t96.5 37.5q29 -10 35 -33.5t-9 -72.5l-51 -187l-58 -224l-60 -243 q-30 -125 -54 -241q-53 -6 -90 12z" />
<glyph unicode="&#x22;" horiz-adv-x="684" d="M264 997q16 109 28.5 214.5t16.5 207.5q27 4 60.5 16.5t56.5 26.5q23 -10 32 -33.5t-1 -58.5q-23 -72 -49.5 -165t-59.5 -228q-25 0 -45.5 4t-38.5 16zM543 997q16 109 28.5 214.5t16.5 207.5q27 4 60.5 16.5t56.5 26.5q23 -10 31.5 -33.5t-1.5 -58.5q-23 -72 -49.5 -165 t-58.5 -228q-25 0 -45.5 4t-38.5 16z" />
<glyph unicode="#" horiz-adv-x="1159" d="M80 432q0 53 24 107h232l78 366q-66 0 -122 -1t-104 -3q0 23 5.5 51.5t19.5 55.5h223l96 454q61 -8 89 -45l-86 -409h327l96 454q59 -12 89 -41l-89 -413h211q0 -61 -24 -101h-207l-78 -368h223q0 -57 -24 -101h-219l-97 -454q-53 8 -90 45l88 409h-327l-97 -454 q-66 10 -88 53l84 399q-66 -2 -123 -2t-110 -2zM434 539h328l78 368h-328z" />
<glyph unicode="$" horiz-adv-x="942" d="M4 129q23 72 39 143.5t20 141.5q25 10 56 11t55 -7q-10 -147 26 -226t134 -102l102 537q-55 39 -109.5 82t-93 98t-57 124.5t-2.5 164.5q23 137 129.5 219t280.5 88l24 129q31 0 55.5 -8t43.5 -31l-21 -94q80 -10 141.5 -34t102.5 -58q-10 -70 -16.5 -132.5t-6.5 -132.5 q-51 -20 -112 -10q-4 127 -37 187.5t-92 78.5l-55 -260q-26 -125 -48 -247l123 -89q61 -45 107.5 -101t70 -125.5t6.5 -162.5q-12 -76 -52 -137t-99.5 -104t-137 -66.5t-167.5 -23.5l-31 -172q-29 2 -54.5 10t-41.5 28l26 140q-104 14 -177 51t-132 90zM354 1108 q-12 -82 25 -141.5t100 -112.5l86 453q-86 -6 -140.5 -53.5t-70.5 -145.5zM432 80q92 0 157.5 54t82.5 145q8 49 0 90t-29.5 75.5t-53.5 64.5t-69 58z" />
<glyph unicode="%" horiz-adv-x="1402" d="M190 61l1063 1342q59 -31 70 -84l-284 -346l-255 -315l-253 -318l-277 -358q-25 12 -42.5 32t-21.5 47zM191.5 956.5q-11.5 69.5 5.5 153.5q25 125 111.5 200.5t205.5 75.5q141 0 209 -101t35 -269q-27 -127 -110 -204t-193 -77q-74 0 -129.5 26.5t-89 76t-45 119z M340 1116q-25 -133 9 -214t116 -81q51 0 92 50.5t57 136.5q27 133 -7 212.5t-113 79.5q-53 0 -95.5 -50t-58.5 -134zM724 202.5q-11 69.5 5 153.5q25 125 112 201t206 76q141 0 208.5 -101.5t34.5 -269.5q-27 -127 -109.5 -203.5t-193.5 -76.5q-74 0 -129 26.5t-89 75.5 t-45 118.5zM872 362q-25 -133 9 -213.5t116 -80.5q51 0 92 50t58 136q27 133 -7 213t-114 80q-53 0 -95.5 -50.5t-58.5 -134.5z" />
<glyph unicode="&#x26;" horiz-adv-x="1452" d="M58.5 252q-11.5 78 2.5 158q14 82 48 145t80.5 112.5t101.5 87.5t115 70q-49 115 -57.5 204t5.5 175q8 49 34 96.5t72 84t112.5 60t156.5 23.5q80 0 137.5 -21.5t92 -58t47 -84t2.5 -98.5q-16 -84 -54.5 -141t-90.5 -100t-115 -75l-130 -63q31 -57 73 -124l95 -148 l110 -162q48 -68 85 -114q47 53 81 114.5t48 132.5q14 76 10 126t-22.5 81t-51 44.5t-75.5 15.5q-16 35 -13 75q27 4 58 13.5t60.5 21.5t56 26.5t43.5 28.5q86 -33 107.5 -113.5t-3.5 -207.5q-23 -125 -87.5 -231.5t-156.5 -190.5q49 -53 79 -68.5t54 -15.5q25 0 47.5 10.5 t47.5 38.5q37 -20 57 -61q-37 -63 -89 -100t-124 -37q-27 0 -51.5 4t-50 16t-55 35.5t-66.5 62.5q-98 -57 -201.5 -87.5t-208.5 -30.5q-135 0 -222 36.5t-135 96t-59.5 137.5zM235.5 290.5q12.5 -61.5 47 -107.5t92 -72.5t137.5 -26.5q86 0 166 20.5t151 59.5l-91 120 l-115 162q-57 84 -100.5 156t-76.5 133q-78 -51 -134 -123.5t-76 -189.5q-13 -70 -0.5 -131.5zM517 1086.5q9 -66.5 58 -171.5q94 51 166 116t93 167q16 92 -20 136t-112 44q-78 0 -125 -48t-59 -122q-10 -55 -1 -121.5z" />
<glyph unicode="'" horiz-adv-x="405" d="M264 997q16 109 28.5 214.5t16.5 207.5q27 4 60.5 16.5t56.5 26.5q23 -10 32 -33.5t-1 -58.5q-23 -72 -49.5 -165t-59.5 -228q-25 0 -45.5 4t-38.5 16z" />
<glyph unicode="(" horiz-adv-x="610" d="M114 -29.5q-48 281.5 3 561.5q25 137 64.5 260t104 241t153.5 237t212 248q49 6 74 -25q-90 -96 -157.5 -195.5t-120 -211t-89 -238.5t-61.5 -275q-117 -680 76 -1114q-25 -20 -70 -14q-141 244 -189 525.5z" />
<glyph unicode=")" horiz-adv-x="604" d="M-121 -539q94 117 166 229.5t126 234.5t92 255t65 291q53 311 32.5 560t-118.5 464q29 25 67 23q143 -281 191.5 -536t1.5 -511q-27 -152 -71 -284t-109.5 -254.5t-156.5 -242.5t-212 -245q-47 -11 -74 16z" />
<glyph unicode="*" horiz-adv-x="933" d="M258 1159q16 82 68 119q47 -41 107 -88l122 -92q10 74 15 141.5t10 146.5q29 4 68.5 -2t68.5 -24q-29 -59 -54.5 -129t-50.5 -148q74 12 141.5 27.5t145.5 38.5q12 -27 17.5 -66t-1.5 -71q-66 4 -143.5 7t-153.5 5q35 -68 70 -126t80 -126q-23 -23 -56.5 -37t-68.5 -18 q-14 61 -36 135l-44 145q-53 -53 -97 -103t-93 -114q-72 37 -92 103l117 75l126 89q-66 33 -129 58z" />
<glyph unicode="+" horiz-adv-x="1091" d="M74 489q-4 66 26 107h416l82 432q55 23 107 0l-45 -217l-42 -215h429q4 -59 -23 -100h-426l-43 -239l-43 -241q-27 -8 -55.5 -5t-48.5 20l88 463q-113 0 -221.5 -1.5t-200.5 -3.5z" />
<glyph unicode="," horiz-adv-x="432" d="M-72 -328q55 51 99.5 107.5t61.5 105.5t2 86t-79 54q0 31 8.5 68.5t22.5 60.5q43 4 95 20t83 37q35 -20 46.5 -67.5t-5.5 -127.5q-18 -98 -90 -201.5t-174 -185.5q-25 0 -42.5 12.5t-27.5 30.5z" />
<glyph unicode="-" horiz-adv-x="702" d="M68 473q4 47 11 79t23 60h560q-2 -45 -8.5 -74.5t-18.5 -58.5q-102 0 -245.5 -1t-321.5 -5z" />
<glyph unicode="." horiz-adv-x="382" d="M14 115q8 41 40 68.5t75 27.5q47 0 77 -36t19 -91q-10 -47 -37.5 -73.5t-72.5 -26.5q-55 0 -84 36t-17 95z" />
<glyph unicode="/" horiz-adv-x="589" d="M-72 43l752 1425q31 -10 49.5 -24t32.5 -37l-384 -709l-368 -716q-31 8 -49.5 21t-32.5 40z" />
<glyph unicode="0" horiz-adv-x="1212" d="M90.5 328.5q-22.5 107.5 1.5 238.5q20 106 74.5 193.5t132.5 150t175 97t208 34.5q125 0 222 -40.5t157.5 -115.5t82 -178.5t-2.5 -228.5q-23 -111 -75 -202t-128 -157.5t-171 -102t-202 -35.5q-129 0 -228 43t-161.5 119.5t-85 184zM278.5 386q12.5 -95 52.5 -163.5 t106.5 -106.5t156.5 -38q121 0 214 89t132 277q20 111 9 203t-50 158.5t-104.5 102.5t-151.5 36q-139 0 -232.5 -94t-121.5 -254q-23 -115 -10.5 -210z" />
<glyph unicode="1" horiz-adv-x="649" d="M12 -6q0 51 17 88q41 4 67.5 13t44 28.5t28.5 51.5t21 85l97 504q20 102 -9.5 135t-113.5 43q-4 20 -5 42t3 46q113 -6 241 -6q127 0 250 6q-2 -25 -5 -46t-13 -42q-39 -6 -65.5 -16.5t-44 -29.5t-30 -51t-20.5 -81l-96 -504q-10 -53 -9 -85t14 -51.5t42 -27.5t74 -14 q10 -41 4 -88q-123 6 -248 6q-59 0 -125 -1t-119 -5z" />
<glyph unicode="2" horiz-adv-x="870" d="M-43 80l113 88l123 94l117 90l100 76q88 66 144 145.5t73 161.5q18 98 -22 159.5t-126 61.5q-80 0 -145.5 -72.5t-112.5 -226.5q-51 0 -90 19q41 129 47 266q86 51 172 75.5t182 24.5q160 0 242 -70.5t57 -199.5q-10 -49 -31.5 -90t-55 -81t-81.5 -80l-110 -87l-65 -49 l-86 -66l-92 -71l-83 -68q41 4 78 4h78q55 0 96 -3t76 -3t64.5 25.5t50.5 105.5q27 2 51 -2t41 -12q-12 -68 -19.5 -133.5t-7.5 -118.5q-10 -23 -29.5 -36t-54.5 -13q-59 0 -132 3t-179 3q-94 0 -179 -1t-190 -5q-22 37 -14 86z" />
<glyph unicode="3" horiz-adv-x="864" d="M-63 -293q2 53 43 76q29 -16 72.5 -25.5t109.5 -9.5q145 0 248.5 75t132.5 210q12 63 3 115.5t-45 90t-96.5 59t-148.5 21.5q-14 12 -20.5 35t0.5 47q324 102 368 342q18 94 -19.5 151.5t-121.5 57.5q-80 0 -137.5 -66.5t-110.5 -228.5q-29 -4 -57.5 0.5t-51.5 14.5 q23 59 33.5 129.5t14.5 136.5q68 51 154.5 77.5t178.5 26.5q84 0 149.5 -19t107.5 -57t58.5 -92.5t2.5 -121.5q-16 -82 -91 -161t-198 -145q61 -10 111.5 -40.5t81 -81t40 -120t-9.5 -157.5q-20 -90 -72.5 -162.5t-129 -125t-175 -81t-210.5 -28.5q-68 0 -124 14t-91 43z " />
<glyph unicode="4" horiz-adv-x="940" d="M-45 74l392 475l380 487q27 0 51.5 -5t40.5 -13l-153 -844h114q41 0 66 -31q-16 -31 -28.5 -67.5t-18.5 -75.5h-164l-57 -313q-88 -6 -162 -37q-29 18 -21 71l51 277q-170 -2 -280.5 -4t-183.5 -6q-16 18 -21.5 37.5t-5.5 48.5zM156 174h321l49 266q18 102 31.5 166 t30.5 117l-92 -123l-142 -182l-97 -122z" />
<glyph unicode="5" horiz-adv-x="827" d="M-96 -293q6 49 41 76q37 -16 81 -25.5t109 -9.5q70 0 133.5 22.5t114.5 64.5t86 99.5t49 126.5q35 168 -70.5 269.5t-326.5 122.5q-35 18 -37 57l166 520q86 -4 171 -5t183 -1q70 0 100.5 34t38.5 75q51 6 95 -15q-16 -53 -24.5 -115.5t-12.5 -125.5q-23 -37 -74 -37 q-117 0 -227.5 -1t-216.5 -10l-64 -208q125 -14 225.5 -59.5t167 -115t94 -159.5t7.5 -195q-18 -98 -70.5 -180t-130.5 -140.5t-179.5 -90t-217.5 -31.5q-57 0 -113.5 14t-97.5 43z" />
<glyph unicode="6" horiz-adv-x="976" d="M69.5 329.5q-12.5 110.5 14.5 250.5q31 160 113 289.5t201.5 224t269 149.5t313.5 64q16 -27 8 -70q-287 -53 -450.5 -182t-231.5 -324q66 45 125.5 61.5t128.5 16.5q94 0 166 -32t115 -88t57 -137t-4 -179q-16 -88 -57 -161t-99.5 -124t-133.5 -78.5t-159 -27.5 q-111 0 -190.5 42t-126.5 118.5t-59.5 187zM253 380q3 -95 30.5 -162.5t76 -104.5t113.5 -37q84 0 147.5 71.5t86.5 190.5q29 160 -28.5 255t-176.5 95q-70 0 -120 -13t-101 -42l-9 -41q-22 -117 -19 -212z" />
<glyph unicode="7" horiz-adv-x="827" d="M104 -225q0 76 26 162t92.5 206.5t180.5 288.5l291 410h-291q-45 0 -75.5 -5.5t-55 -18.5t-45 -39.5t-41.5 -69.5q-55 0 -82 24q25 68 44.5 146.5t29.5 150.5q43 -2 93 -3l100 -2q49 -1 94 -1h82h68q32 0 66 1t76 2t97 3q25 -18 29 -65l-186 -270l-126 -187 q-51 -78 -82 -131l-55 -98q-29 -53 -47 -105.5t-31.5 -111t-21.5 -128t-15 -155.5q-41 -20 -87 -57t-70 -70q-18 4 -38 28.5t-20 94.5z" />
<glyph unicode="8" horiz-adv-x="923" d="M29 346q23 113 105.5 194t232.5 154q-109 86 -144 170t-12 189q10 49 42 95t83 81t119.5 55.5t154.5 20.5q178 0 255 -83t50 -218q-10 -51 -36.5 -93.5t-63.5 -77t-82 -62.5t-92 -52q137 -115 177 -222.5t13 -236.5q-12 -63 -49 -114.5t-93 -88.5t-129 -56t-157 -19 q-211 0 -310 93t-64 271zM202 223q9 -53 37.5 -88t73.5 -51t105 -16q86 0 147.5 41t77.5 139q10 53 7 99t-25.5 92t-67.5 94.5t-117 105.5q-111 -57 -164 -125t-69 -162q-14 -76 -5 -129zM397 1000.5q0 -33.5 17.5 -68.5t53.5 -74t99 -84q72 41 113 90t57 123q12 57 4 101.5 t-29.5 73t-55 43t-72.5 14.5q-59 0 -111.5 -38t-69.5 -110q-6 -37 -6 -70.5z" />
<glyph unicode="9" horiz-adv-x="970" d="M-27 -279q281 49 448 186.5t243 338.5q-61 -41 -119 -56.5t-123 -15.5q-197 0 -281 130t-43 347q16 88 56.5 161t97.5 124t131 78.5t158 27.5q113 0 193.5 -42t126.5 -119.5t57.5 -188t-15.5 -248.5q-33 -168 -115.5 -309t-203.5 -245.5t-273.5 -167t-322.5 -70.5 q-15 22 -15 69zM276.5 521.5q8.5 -68.5 35 -120t70.5 -79t99 -27.5q66 0 116 11t99 40q12 43 19 86q20 117 16 212t-29.5 162.5t-73.5 104.5t-114 37q-84 0 -145.5 -72.5t-83.5 -201.5q-17 -84 -8.5 -152.5z" />
<glyph unicode=":" horiz-adv-x="385" d="M27 180q8 41 39.5 68.5t74.5 27.5q47 0 77 -35.5t20 -90.5q-10 -47 -38 -74t-73 -27q-55 0 -83.5 36t-16.5 95zM147 786q8 41 40 69t75 28q47 0 77 -36t19 -91q-10 -47 -37.5 -74t-72.5 -27q-55 0 -84 36t-17 95z" />
<glyph unicode=";" horiz-adv-x="432" d="M-72 -328q55 51 99.5 107.5t61.5 105.5t2 86t-79 54q0 31 8.5 68.5t22.5 60.5q43 4 95 20t83 37q35 -20 46.5 -67.5t-5.5 -127.5q-18 -98 -90 -201.5t-174 -185.5q-25 0 -42.5 12.5t-27.5 30.5zM176 786q8 41 40 69t75 28q47 0 76.5 -36t19.5 -91q-10 -47 -37.5 -74 t-73.5 -27q-55 0 -83.5 36t-16.5 95z" />
<glyph unicode="&#x3c;" horiz-adv-x="890" d="M76 492q-4 23 1 50t27 54l805 557q29 -6 50.5 -21.5t31.5 -37.5l-815 -562l604 -503q2 -29 -7 -60.5t-25 -46.5l-176 155l-163 141l-163 135z" />
<glyph unicode="=" horiz-adv-x="1034" d="M45 291q-4 70 27 112h884q-4 -61 -32 -106h-209q-111 0 -225 -1l-227 -2q-114 -1 -218 -3zM102 629q-4 70 27 112h885q-4 -61 -33 -106h-209q-111 0 -224 -1l-227 -2q-115 -1 -219 -3z" />
<glyph unicode="&#x3e;" horiz-adv-x="921" d="M-10 41l782 483l-627 584q16 20 43 32.5t54 16.5l610 -577q12 -27 13 -60t-9 -61l-226 -133l-202 -122l-200 -126l-218 -141q-34 41 -20 104z" />
<glyph unicode="?" horiz-adv-x="919" d="M260 115q8 41 40 68.5t75 27.5q47 0 76.5 -36t19.5 -91q-10 -47 -37.5 -73.5t-73.5 -26.5q-55 0 -83.5 36t-16.5 95zM285 1135l18 66q8 30 13.5 56.5t8.5 54t5 62.5q35 31 114.5 59.5t176.5 28.5q154 0 230.5 -81t49.5 -216q-14 -66 -46 -117t-73 -95t-88 -86t-88 -88 t-73.5 -101t-45.5 -127q-6 -25 -9 -68t1 -71q-18 -10 -33.5 -13.5t-33.5 -3.5q-27 23 -41.5 92.5t2.5 157.5q20 102 70.5 172t104.5 126t101 110.5t60 126.5q16 84 -11.5 141t-107.5 57q-70 0 -121 -60.5t-94 -203.5q-33 0 -52.5 4.5t-37.5 16.5z" />
<glyph unicode="@" horiz-adv-x="1654" d="M70.5 145q-31.5 174 5.5 387q31 184 112.5 335t200.5 258.5t270.5 167t323.5 59.5q174 0 306 -52.5t216 -149.5t114 -237.5t-1 -316.5q-23 -131 -74 -242.5t-123.5 -194.5t-161 -130t-186.5 -47q-70 0 -101.5 33.5t-37.5 82.5t6 104.5t31 98.5h-2q-29 -57 -70 -113.5 t-89 -102.5t-102.5 -74.5t-111.5 -28.5q-102 0 -145 102t2 330q25 119 76 218t123.5 170.5t161.5 112.5t190 41q29 0 60.5 -5t53.5 -13q31 0 63.5 4t53.5 14q8 -4 15 -12t9.5 -28.5t-2 -57.5t-18.5 -98l-102 -459q-12 -59 -15.5 -93t0.5 -51.5t15.5 -21.5t27.5 -4 q61 0 116.5 33t102 92t80 144t49.5 188q29 160 2.5 285.5t-100.5 214t-190.5 134.5t-268.5 46q-141 0 -265 -51.5t-222 -144.5t-167 -225t-95 -292q-35 -197 -8.5 -358.5t106.5 -277.5t210 -178.5t302 -62.5q174 0 319.5 58.5t264.5 154.5q45 -8 53 -51 q-117 -115 -280.5 -184.5t-387.5 -69.5q-197 0 -347 67.5t-243.5 192.5t-125 299zM631.5 240.5q17.5 -93.5 79.5 -93.5q27 0 70.5 37t91 106.5t93.5 170t76 227.5l35 143q-53 20 -125 21q-63 0 -112 -25.5t-86 -70.5t-62.5 -108.5t-40.5 -139.5q-37 -174 -19.5 -267.5z" />
<glyph unicode="A" horiz-adv-x="1406" d="M-55 -6q0 23 3 45t13 43q29 8 51.5 22.5t45 40t49 65.5t61.5 99l309 536l303 539q18 8 41 10.5t39 2.5l154 -561q74 -281 141 -566q14 -57 26.5 -91t26 -53.5t29.5 -28.5t39 -15q6 -23 7 -44v-15q0 -15 -1 -29q-51 4 -115.5 5t-111.5 1q-53 0 -112.5 -1t-121.5 -5 q0 23 3 45t14 43q45 6 72.5 15t40 27.5t12.5 48.5t-13 77l-47 199q-129 0 -276.5 -2.5t-270.5 -6.5l-86 -147q-35 -59 -50 -97t-10 -61.5t27.5 -35t63.5 -17.5q7 -34 7 -70q0 -9 -1 -18q-49 4 -95 5t-93 1q-53 0 -91 -1t-83 -5zM416 543h463l-48 187l-51 185 q-16 59 -27.5 105.5t-21.5 109.5l-57 -113l-62 -116l-96 -179z" />
<glyph unicode="B" horiz-adv-x="1210" d="M51 -6q2 51 17 88q47 6 75.5 17.5t47 35t28.5 61t21 97.5l147 842q7 41 7 69q0 7 -1 14q-2 32 -17.5 49t-43 24t-66.5 12q-4 23 -6 43t2 45q72 -4 121 -5.5t104 -1.5q74 0 148 3.5t143 3.5q215 0 317 -79q77 -60 76 -180q0 -39 -8 -83q-23 -115 -118 -198t-232 -101 q197 -10 284 -109q60 -68 60 -182q0 -51 -12 -111q-33 -158 -174.5 -253t-370.5 -95h-129q-70 0 -143 -1l-145 -2q-71 -1 -132 -3zM437 116q17 -19 52 -24.5t91 -5.5q133 0 226 69.5t116 182.5q11 55 11 101q0 107 -61 161q-86 78 -321 78h-51l-70 -406q-11 -59 -11 -94 q-1 -41 18 -62zM516 770h59q166 0 259.5 70.5t115.5 187.5q7 39 8 72q0 86 -51 135q-70 68 -207 68q-20 0 -42.5 -2.5t-51.5 -10.5z" />
<glyph unicode="C" horiz-adv-x="1259" d="M104 672q25 193 105 331t191.5 227t244.5 131t264 42q129 0 230.5 -30t203.5 -91q-27 -70 -42 -145.5t-25 -163.5q-28 -11 -60 -12q-25 0 -51 8q8 61 8 109q0 38 -5 68q-11 69 -43.5 106.5t-84 52t-116.5 14.5q-131 0 -236.5 -50t-181.5 -136t-123 -203t-61 -248 q-5 -47 -6 -93q0 -65 11 -126q17 -104 67 -183t134 -126.5t205 -47.5q113 0 215.5 32t194.5 87q29 -29 33 -78q-121 -86 -244 -125.5t-254 -39.5q-158 0 -274.5 53t-189.5 147t-100 219q-17 75 -17 158q0 55 7 113z" />
<glyph unicode="D" horiz-adv-x="1484" d="M51 -6q4 51 17 88q45 6 74.5 17.5t48 34t29.5 61t22 98.5l147 842q6 37 6 64q0 10 -1 19q-3 32 -18.5 49t-43 25t-66.5 13q-6 23 -7 44t3 42q66 -4 142.5 -5.5t140.5 -1.5q66 0 131 3.5t127 3.5q92 0 184 -12.5t174 -43t149.5 -84t110.5 -134.5t56 -193q4 -34 3 -71 q0 -87 -20 -191q-31 -170 -107.5 -294t-192.5 -206t-264 -122t-325 -40h-6h-121q-66 0 -133 -1l-134 -2q-67 -1 -126 -3zM422 180q0 -35 15.5 -54.5t49 -26.5t93.5 -7q125 0 234.5 31t195.5 97.5t147.5 171t89.5 253.5q21 109 21 197q0 66 -12 120q-28 126 -99.5 201.5 t-178 107.5t-226.5 32q-41 0 -76 -4.5t-70 -12.5l-174 -1014q-10 -57 -10 -92z" />
<glyph unicode="E" horiz-adv-x="1124" d="M39 -6q0 47 14 88q47 6 76 17.5t47.5 34t28.5 61t20 98.5l148 842q7 46 7 74q0 36 -13 56q-12 17 -38 24t-65 14q-4 20 -5 41.5t3 46.5q106 -4 196.5 -5.5t145.5 -1.5q119 0 249 1t290 6q-10 -78 -15 -170q-2 -46 -2 -87t2 -77q-35 -15 -88 -15h-14q-2 66 -11 113t-38 78 t-86 45t-156 14h-147l-92 -547h84q63 0 108 7.5t76 26t48 51t26 83.5q27 4 48 5.5t50 -3.5l-22.5 -99t-20.5 -128q-10 -74 -15.5 -129t-9.5 -106q-29 4 -52 9t-42 17q1 16 1 31q0 77 -36 107q-43 36 -168 36h-92l-61 -360q-10 -66 -10 -104.5t16 -60.5t51 -29t92 -7h8 q94 0 156 17.5t104 50.5t72.5 82t61.5 110q29 -4 51 -14t41 -31q-35 -66 -63.5 -144.5t-47.5 -168.5q-92 4 -186 5t-209 1q-150 0 -271.5 -1t-244.5 -5z" />
<glyph unicode="F" horiz-adv-x="1056" d="M51 -6q2 51 17 88q45 8 73.5 19.5t46 32t26.5 53t19 83.5l150 865q8 47 8 76.5t-12 48t-40 27.5t-73 16q-6 27 -6 54q0 17 2 34q66 -4 149 -5.5t203 -1.5q119 0 249 1t290 6q-10 -78 -14 -170q-2 -46 -2 -87t2 -77q-35 -15 -89 -15h-14q-2 66 -11 113t-38 78t-86 45 t-156 14h-147l-100 -592h98q63 0 108.5 8.5t76 28t48 52t25.5 83.5q27 4 48.5 5.5t49.5 -3.5q-12 -51 -22 -99t-21 -128q-10 -74 -15 -129t-9 -106q-29 4 -52.5 9t-41.5 17q1 16 1 31q0 77 -36 108q-43 36 -168 35h-105l-55 -321q-10 -59 -12 -96t12 -58.5t49 -34t96 -20.5 q6 -20 7.5 -39.5t-0.5 -48.5q-78 4 -134.5 5t-126.5 1q-76 0 -137 -1t-131 -5z" />
<glyph unicode="G" horiz-adv-x="1361" d="M104 672q25 195 105 333t193.5 227t249.5 130t276 41q160 0 270.5 -30t208.5 -91q-27 -72 -42 -144.5t-26 -162.5q-26 -11 -57 -12q-25 0 -53 8q6 52 5 94q0 50 -7 87q-14 69 -52 105.5t-96.5 49t-134.5 12.5q-135 0 -243.5 -46t-187.5 -131t-127 -202t-62 -258 q-6 -56 -6.5 -111t6.5 -109q12 -108 57 -193t127 -136t207 -51q61 0 110 6t103 27q23 8 38 19t25 31.5t18.5 54.5t18.5 89q16 90 21 143q1 12 1 23q0 36 -11 56q-13 28 -44.5 37.5t-89.5 13.5q-5 25 -4 49q0 19 2 39q68 -4 128.5 -5t123.5 -1h57q27 0 54.5 1t58.5 2t70 3 q-2 -51 -19 -88q-33 -4 -54.5 -12.5t-36.5 -34t-28.5 -74.5t-27.5 -131q-16 -82 -19 -123v-12q0 -34 11 -60q-98 -66 -244 -109.5t-320 -43.5q-152 0 -264 51t-183 143t-98 218q-16 72 -16 153q-1 61 8 125z" />
<glyph unicode="H" horiz-adv-x="1548" d="M59 -6q0 51 17 88q41 4 68.5 13t45 28.5t27.5 52.5t21 84l149 864q7 41 7 70q0 7 -1 14q-2 33 -16.5 51.5t-42 27.5t-70.5 16q-4 20 -5 41.5t3 46.5q113 -6 246 -7q127 0 250 7q-2 -25 -5 -46.5t-14 -41.5q-39 -6 -65.5 -16.5t-44 -30t-29.5 -51t-20 -81.5l-64 -370h625 l63 370q7 41 7 70q0 7 -1 14q-2 33 -16 51.5t-42 27.5t-71 16q-4 20 -5 41.5t3 46.5q113 -6 246 -7q127 0 250 7q-2 -25 -5 -46.5t-14 -41.5q-39 -6 -65.5 -16.5t-43.5 -30t-29.5 -51t-20.5 -81.5l-150 -864q-9 -47 -9 -78q0 -37 15 -57q14 -18 42 -27.5t73 -15.5 q6 -26 6 -54q0 -17 -2 -34q-123 6 -248 6q-59 0 -126.5 -1t-120.5 -5q0 51 16 88q41 4 68.5 13t45 28.5t27.5 52.5t21 84l69 406h-146q-83 0 -169 -1t-168 -3.5t-143 -6.5l-68 -395q-9 -47 -9 -78q0 -37 15 -57q14 -18 42 -27.5t73 -15.5q6 -26 6 -54q0 -17 -2 -34 q-123 6 -248 6q-59 0 -127 -1t-121 -5z" />
<glyph unicode="I" horiz-adv-x="731" d="M59 -6q0 51 17 88q41 4 68.5 13t45 28.5t27.5 52.5t21 84l149 864q7 41 7 70q0 7 -1 14q-2 33 -16.5 51.5t-42 27.5t-70.5 16q-4 20 -5 41.5t3 46.5q113 -6 246 -7q127 0 250 7q-2 -25 -5 -46.5t-14 -41.5q-39 -6 -65.5 -16.5t-44 -30t-29.5 -51t-20 -81.5l-150 -864 q-9 -47 -9 -78q0 -37 15 -57q14 -18 42 -27.5t73 -15.5q6 -26 6 -54q0 -17 -2 -34q-123 6 -248 6q-59 0 -127 -1t-121 -5z" />
<glyph unicode="J" horiz-adv-x="688" d="M-106 -440q63 45 117.5 95t96.5 111.5t71.5 138.5t45.5 175l185 1055q7 38 7 66q0 35 -15 55q-13 19 -40.5 29.5t-74.5 17.5q-6 22 -7 50q0 17 3 38q43 -4 107.5 -5.5t129.5 -1.5h76q33 0 61 1l58 3q29 1 65 3q-2 -51 -16 -88q-41 -6 -68.5 -17.5t-46 -32t-31 -54.5 t-20.5 -85l-152 -868q-25 -143 -55.5 -253t-86.5 -198t-146 -161.5t-232 -143.5q-16 10 -24 28.5t-8 41.5z" />
<glyph unicode="K" horiz-adv-x="1310" d="M59 -6q0 51 17 88q41 4 68.5 13t45 28.5t27.5 52.5t21 84l149 864q7 41 7 70q0 7 -1 14q-2 33 -16.5 51.5t-42 27.5t-70.5 16q-4 20 -5 41.5t3 46.5q113 -6 246 -7q127 0 250 7q-2 -25 -5 -46.5t-14 -41.5q-39 -6 -65.5 -16.5t-44 -30t-29.5 -51t-20 -81.5l-68 -393 l408 387q53 51 78.5 84t30.5 54.5t-9 31.5t-43 15l-8 44q-4 22 0 44q61 -4 109 -5.5t114 -1.5q57 0 98 1t103 6q0 -18 -1 -44t-10 -44q-43 -6 -77.5 -15.5t-70.5 -30t-78 -53.5t-97 -84l-383 -360q86 -92 158.5 -207t148.5 -281q33 -72 59.5 -96t57.5 -24q20 0 33.5 6 t35.5 26q39 -20 62 -65q-53 -66 -107.5 -101.5t-130.5 -35.5q-63 4 -105 44t-77 132q-72 184 -144.5 311t-160.5 225l-76 -434q-10 -51 -10 -84t11 -52.5t36 -28.5t63 -13q6 -26 7 -54q0 -17 -2 -34q-61 4 -114.5 5t-113.5 1q-59 0 -127 -1t-121 -5z" />
<glyph unicode="L" horiz-adv-x="1116" d="M51 -6l4 44q2 22 11 44q45 4 74.5 15.5t48 35t28.5 62t21 98.5l147 842q6 35 6 61q0 46 -18 66q-29 31 -107 41q-4 20 -5 42.5t1 45.5q57 -4 117.5 -5.5t124.5 -1.5h134q71 0 130 5q0 -49 -16 -86q-47 -6 -77 -16.5t-49.5 -32t-31.5 -57.5t-21 -89l-145 -836 q-10 -57 -10 -92t16.5 -54.5t50 -26.5t90.5 -7h13q86 0 144.5 13.5t102.5 44t77.5 81t70.5 121.5q29 -4 50.5 -14t39.5 -31q-68 -131 -108 -313q-29 2 -74 3t-97.5 2t-109.5 1h-113h-125q-66 0 -133 -1l-134 -2q-67 -1 -128 -3z" />
<glyph unicode="M" horiz-adv-x="1808" d="M-55 -6q0 20 3 42.5t13 45.5q41 10 69.5 27.5t50 51.5t42 88t45.5 140q53 180 101 361.5t91 367.5q12 55 13.5 89t-11 53.5t-38 28.5t-66.5 14q-4 25 -5 45t3 43q47 -4 85 -5.5t73 -1.5q41 0 74.5 1t72.5 6q90 -289 168 -574t148 -571l324 565l312 580q45 -4 74 -5.5 t60 -1.5t70.5 1t78.5 6q0 -47 -14 -88q-41 -4 -67.5 -15.5t-43 -36t-26 -64.5t-13.5 -102q-25 -440 -55 -751q-7 -61 -7 -102q0 -10 1 -20q2 -46 14 -71.5t36 -38t58 -20.5q4 -20 5.5 -43t-1.5 -45q-47 4 -114.5 5t-134.5 1q-74 0 -134.5 -1t-111.5 -5q0 45 16 88 q49 8 81 21.5t51.5 41t28.5 71.5t15 112q16 166 29.5 344t24.5 370l-295 -531l-310 -519q-20 -8 -40.5 -9t-43.5 -1q-66 270 -139.5 538t-159.5 543q-43 -182 -88 -352l-82 -305q-27 -96 -34 -155q-4 -27 -4 -50q0 -25 5 -42q9 -34 38.5 -50.5t80.5 -26.5q4 -23 5.5 -44.5 t-0.5 -43.5q-63 4 -116.5 5t-94.5 1q-47 0 -93 -1t-118 -5z" />
<glyph unicode="N" horiz-adv-x="1462" d="M49 -6q2 49 14 88q39 6 67 21.5t48.5 46t35.5 80t30 122.5l79 434l74 435l-6 10q-23 39 -49.5 53t-75.5 19q-6 23 -6 51q0 17 2 37q31 -4 59.5 -5.5t63.5 -1.5q88 0 141 7l324 -538l309 -544l123 713q12 80 14 131q0 7 1 13q0 42 -12 69q-13 31 -40.5 45t-73.5 23 q-4 20 -5 41.5t3 46.5q45 -4 95.5 -5.5t91.5 -1.5q47 0 102 1t96 6q0 -18 -4 -43t-12 -45q-35 -10 -58.5 -28t-41 -51.5t-30.5 -87t-26 -135.5l-84 -505l-90 -504q-16 -6 -38.5 -8t-45.5 -2l-316 556l-329 549l-60 -357l-67 -357q-16 -82 -18 -134v-15q0 -42 10 -70 q12 -33 42 -48.5t77 -23.5q6 -22 6 -51q0 -17 -2 -37q-61 4 -121.5 5t-101.5 1q-47 0 -87 -1t-108 -5z" />
<glyph unicode="O" horiz-adv-x="1476" d="M114 447q-12 64 -13 135q0 88 20 186q25 133 93.5 249t167.5 202t224 135t266 49q147 0 269.5 -52.5t201 -152.5t107.5 -250q13 -65 13 -139q0 -95 -21 -203q-25 -129 -90.5 -242.5t-162.5 -198.5t-224 -134t-275 -49q-154 0 -274.5 57t-197 160.5t-104.5 247.5zM318 508 q13 -129 63.5 -226.5t137.5 -153.5t208 -56q100 0 184 40t148.5 111.5t108.5 167.5t65 211q17 95 17 180q0 55 -7 107q-18 131 -73.5 225t-141.5 146.5t-194 52.5q-92 0 -174 -42t-148 -115t-112 -169t-66 -205q-20 -99 -20 -191q0 -42 4 -83z" />
<glyph unicode="P" horiz-adv-x="1153" d="M51 -6q2 51 17 88q45 8 73.5 19.5t46 32t26.5 53t19 83.5l150 865q8 47 8 76.5t-12 48t-40 27.5t-73 16q-6 27 -6 54q0 17 2 34q29 -2 67 -3l77 -3q39 -1 75 -1h64q20 0 53 1t71 3l79 2q41 1 77 1q223 0 320 -121q68 -85 67 -217q0 -56 -12 -121q-18 -96 -65.5 -173 t-117 -131.5t-159.5 -84t-192 -29.5q-88 0 -134 25q-2 16 4.5 42.5t14.5 39.5q20 -6 47 -10.5t57 -4.5q139 0 228.5 80t120.5 240q12 63 12 116q0 98 -42 161q-65 97 -245 97q-33 0 -63.5 -2t-67.5 -12l-170 -995q-10 -59 -12 -96t12 -58.5t49 -34t96 -20.5q6 -20 7.5 -39.5 t-0.5 -48.5q-78 4 -134.5 5t-126.5 1q-76 0 -137 -1t-131 -5z" />
<glyph unicode="Q" horiz-adv-x="1474" d="M114 447q-12 64 -13 135q0 88 20 186q25 133 93.5 249t167.5 202t224 135t266 49q147 0 269.5 -52.5t201 -152.5t107.5 -250q13 -65 13 -139q0 -95 -21 -203q-18 -102 -64.5 -195.5t-114 -170t-154.5 -135t-189 -89.5q88 -29 171 -84t158 -122q66 -59 99 -76 q26 -13 53 -13h14q18 2 34.5 11.5t27.5 21.5q20 -8 35.5 -26.5t21.5 -40.5q-12 -20 -34.5 -44t-53.5 -44.5t-69 -34t-81 -13.5q-84 0 -148.5 36t-127.5 139q-61 100 -134 169.5t-196 86.5q-154 0 -274.5 57t-197 160.5t-104.5 247.5zM318 508q13 -129 63.5 -226.5 t137.5 -153.5t208 -56q100 0 184 40t148.5 111.5t108.5 167.5t65 211q17 95 17 180q0 55 -7 107q-18 131 -73.5 225t-141.5 146.5t-194 52.5q-92 0 -174 -42t-148 -115t-112 -169t-66 -205q-20 -99 -20 -191q0 -42 4 -83z" />
<glyph unicode="R" horiz-adv-x="1331" d="M59 -6q0 23 3.5 45t13.5 43q45 4 72.5 15.5t45 33t26.5 55t20 84.5l149 865q5 30 5 54q0 46 -18 68q-28 35 -112 46q-5 22 -4 47q0 19 2 41q76 -4 133.5 -5.5t128.5 -1.5q86 0 170 3.5t168 3.5q221 0 323 -99q75 -73 75 -191q0 -41 -9 -87q-27 -137 -147.5 -228.5 t-312.5 -126.5q25 -33 46 -65.5t42.5 -72.5t44 -91t49.5 -119q35 -86 66.5 -122.5t60.5 -36.5q20 0 33.5 6t35.5 26q39 -20 62 -65q-53 -66 -107.5 -101.5t-130.5 -35.5q-86 0 -128 66.5t-77 189.5q-39 127 -80.5 217t-95.5 172q-33 -4 -63.5 -3t-54.5 3l-66 -377 q-9 -47 -9 -76q0 -35 12 -54q11 -17 36 -24.5t61 -13.5q4 -23 5.5 -44.5t-1.5 -43.5q-39 2 -68.5 3t-56 2t-53.5 1h-59q-72 0 -124.5 -1t-111.5 -5zM510 723q23 -4 42 -4h40q86 0 162.5 19.5t138 56t102.5 93t56 130.5q7 38 7 71q0 89 -52 142q-72 72 -232 72 q-98 0 -168 -19z" />
<glyph unicode="S" horiz-adv-x="942" d="M4 129q23 72 39 143.5t20 141.5q25 10 56 11t55 -7q-2 -28 -1 -53q0 -139 47 -206q56 -79 212 -79q92 0 157.5 54t82.5 145q5 28 5 52q0 55 -25 97q-36 61 -98 112.5t-137 99.5t-136.5 109.5t-94.5 144.5q-20 51 -20 116q0 40 8 86q25 141 137.5 224t298.5 83 q106 0 187.5 -27.5t132.5 -68.5q-10 -70 -16.5 -132.5t-6.5 -132.5q-34 -14 -73 -13q-19 0 -39 3q-4 160 -56.5 218.5t-142.5 58.5q-100 0 -162.5 -46t-79.5 -155q-3 -20 -3 -39q0 -58 29 -103q38 -60 102.5 -112.5t139 -103t137 -111.5t96.5 -139q22 -50 22 -114 q0 -34 -7 -73q-12 -74 -52 -135t-99.5 -105t-134 -67.5t-156.5 -23.5q-78 0 -140.5 10t-112.5 29.5t-92 47t-79 60.5z" />
<glyph unicode="T" horiz-adv-x="1116" d="M129 1073l21.5 73t20.5 82l17.5 84t14.5 79q86 -4 223 -5.5t291 -1.5q160 0 302 1t228 6q-12 -72 -19 -155t-7 -169q-23 -12 -46.5 -15t-52.5 -1q0 70 -9 119t-32.5 78.5t-64.5 43t-105 13.5h-102l-184 -1055q-8 -43 -8.5 -73t14 -48t45.5 -29.5t86 -17.5q6 -27 6 -55 q0 -17 -2 -33q-66 4 -133.5 5t-128.5 1q-68 0 -140.5 -1t-127.5 -5q0 51 14 90q49 6 82 16.5t52 31t30.5 54t21.5 84.5l180 1035h-120q-55 0 -96.5 -14.5t-73 -46.5t-55 -81t-46.5 -119q-31 0 -55.5 5.5t-40.5 23.5z" />
<glyph unicode="U" horiz-adv-x="1300" d="M203 524l104 611q8 47 9 77.5t-8 49t-30.5 27.5t-54.5 14q-5 20 -4 45q0 19 2 43q72 -4 120 -5.5t108 -1.5q66 0 117.5 1t127.5 6q-2 -25 -5 -45.5t-13 -42.5q-47 -4 -78 -13.5t-50.5 -30t-30.5 -55.5t-21 -90l-101 -582q-14 -81 -14 -145q0 -29 3 -55q9 -84 45 -138.5 t94.5 -79t133.5 -24.5q152 0 251.5 107.5t133.5 306.5l97 549q12 66 12 107.5t-12.5 68t-40 43t-70.5 31.5q-5 22 -5 47q0 19 3 41q66 -4 113 -5.5t90 -1.5h46q22 0 45 1t51 2.5l63 3.5q0 -45 -19 -88q-43 -14 -71.5 -31t-47 -45.5t-32 -74.5t-25.5 -120l-90 -510 q-49 -279 -179 -409.5t-354 -130.5q-260 0 -359 143q-68 99 -68 250q0 69 14 149z" />
<glyph unicode="V" horiz-adv-x="1341" d="M211 1391q70 -4 122 -5.5t113 -1.5q68 0 126.5 1t129.5 6q0 -18 -4 -43t-14 -48q-55 -6 -88 -15t-47 -33q-11 -18 -11 -48q0 -9 1 -18q4 -43 22 -115q51 -186 98.5 -378.5t92.5 -403.5l217 385q102 190 200 395q29 61 43 100q10 27 10 48q0 9 -1 17q-6 26 -33 41t-80 28 q-5 22 -5 47q0 19 3 41q43 -4 85 -5.5t101 -1.5q51 0 92 1t101 6q0 -45 -19 -88q-25 -12 -43 -26.5t-39.5 -42.5t-47 -73t-62.5 -117l-273 -517l-299 -527q-16 -10 -38 -13l-20 -2l-26 3l-69 299l-70 291l-67 269l-62 236q-18 66 -31.5 107t-29 63.5t-32.5 33.5t-44 18 q-5 21 -5 46q0 19 3 40z" />
<glyph unicode="W" horiz-adv-x="1972" d="M211 1391q80 -4 131 -5.5t96 -1.5q51 0 115.5 1t120.5 6q0 -23 -2 -45.5t-13 -45.5q-57 -10 -89.5 -22t-46.5 -37q-12 -23 -12 -58q0 -38 11 -108l31 -180l32 -196l30 -200l30 -196l267 537l259 549q25 12 61 11q13 0 28 -1q33 -123 64.5 -257t60 -272.5t54 -276.5 t46.5 -269q90 176 169 349t150 349q33 80 46 129q9 32 9 56q0 13 -2 23q-7 30 -36 45t-82 28q-5 23 -5 48q0 19 3 40q41 -4 86 -5.5t98 -1.5q51 0 102.5 1t92.5 6q0 -45 -19 -88q-25 -10 -46 -28t-43.5 -51.5t-49.5 -88t-64 -140.5l-222 -497q-114 -248 -242 -498 q-18 -10 -41 -12t-43 2q-18 125 -42 264t-51.5 280.5t-59.5 280.5t-65 266q-125 -274 -262 -546l-278 -535q-16 -10 -41 -13q-11 -1 -21 -2q-14 0 -26 3q-47 322 -92 595l-86 500q-12 70 -21.5 111t-21 62.5t-25.5 30.5t-37 18q-8 26 -8 55q0 15 2 31z" />
<glyph unicode="X" horiz-adv-x="1263" d="M-23 -6q0 45 19 88q27 8 52.5 20.5t55 35t66.5 59t88 94.5l164 190l158 199l-92 194l-97 199l-59 117q-23 43 -40.5 65.5t-34.5 31.5t-44 18q-5 23 -5 48q0 19 3 38q82 -4 132 -5.5t106 -1.5q61 0 118.5 1t134.5 6q0 -47 -18 -91q-53 -8 -82 -22t-38 -39q-4 -11 -4 -25 q0 -17 6 -39q11 -40 40 -100l135 -289l108 138l99 137q45 66 64 108q17 39 16 65q0 31 -22 46q-20 14 -58 23q-5 25 -4 49q0 19 2 39q49 -4 90 -5.5t84 -1.5q49 0 100.5 1t104.5 6q0 -18 -4 -42t-14 -46q-29 -4 -51.5 -14.5t-49 -37t-59.5 -72.5l-84 -120l-135 -188 l-144 -185l81 -188l81 -193q29 -72 50.5 -111.5t43 -62t44 -33t53.5 -18.5q5 -20 4 -45q0 -19 -2 -41q-45 2 -78 3t-60.5 2t-52.5 1h-55q-66 0 -133.5 -1t-112.5 -5q0 43 19 90q49 6 75.5 17.5t34.5 35.5q3 10 4 24q0 18 -7 42q-11 41 -38 108l-55 135l-57 134l-112 -146 l-114 -141q-70 -89 -70 -136q0 -54 76 -75q4 -23 4.5 -44.5t-1.5 -43.5q-66 4 -114 5t-102 1q-59 0 -107.5 -1t-105.5 -5z" />
<glyph unicode="Y" horiz-adv-x="1193" d="M208 1355q0 16 3 36q57 -4 114.5 -5.5t112.5 -1.5q61 0 120.5 1t137.5 6q0 -25 -5 -46.5t-13 -44.5q-100 -14 -127 -48q-12 -15 -12 -38q0 -30 20 -75q41 -92 84 -204t82 -224l80 108l74 102l62 87l46 65q72 107 72 158v5q-4 50 -98 67q-5 22 -5 47q0 19 2 41 q51 -4 94.5 -5.5t102.5 -1.5q49 0 91 1t91 6q0 -45 -18 -88q-18 -6 -33.5 -17.5t-40 -37t-62.5 -75l-98 -133.5l-150 -206l-173 -228l-64 -356q-8 -43 -8 -71.5t14.5 -47t45 -30t86.5 -19.5q6 -27 6 -55q0 -17 -2 -33q-66 4 -133.5 5t-128.5 1q-68 0 -140.5 -1t-128.5 -5 q0 51 15 90q51 8 82.5 19.5t51 31t31 52t21.5 83.5l57 330l-111 285q-54 133 -96 223l-45 93t-33.5 56.5t-30.5 29.5t-38 18q-5 29 -5 50z" />
<glyph unicode="Z" horiz-adv-x="1105" d="M-45 78l483 603l461 613h-270q-68 0 -118 -10t-90 -38.5t-73 -80t-65 -135.5q-68 6 -107 39q27 59 51.5 147.5t36.5 174.5q61 -2 117 -3l111 -3q55 -1 115 -1h132h100q48 0 96 1l99 3q51 1 113 3q27 -31 27 -84l-463 -616l-478 -599h297q94 0 157 8.5t107 36t76.5 78.5 t69.5 137q63 -12 102 -49q-27 -63 -51 -145t-39 -164q-74 2 -139 3l-129 2q-63 1 -126 1h-132h-129q-57 0 -109 -1l-102 -2q-51 -1 -113 -3q-20 35 -18 84z" />
<glyph unicode="[" horiz-adv-x="614" d="M-78 -551l365 2071q35 -2 86 -3t106.5 -1t108.5 1t90 3q20 -33 10 -78q-84 -6 -138 -15.5t-88 -29t-51.5 -54t-27.5 -94.5l-272 -1550q-8 -49 -3 -80t30.5 -49.5t72.5 -27.5t121 -11q8 -16 9 -37.5t-9 -44.5q-29 2 -84 3t-116.5 1t-119 -1t-90.5 -3z" />
<glyph unicode="\" horiz-adv-x="598" d="M193 1452q51 23 102 12l211 -1464q-20 -10 -47 -14t-53 -2q-47 371 -100.5 735z" />
<glyph unicode="]" horiz-adv-x="612" d="M-76 -551q-2 20 3 43t18 39q78 2 129 10t82.5 23.5t48 43t24.5 70.5l277 1571q10 59 6 94t-30.5 54.5t-77 29t-130.5 15.5q0 23 7.5 44t19.5 34q37 -2 90 -3t109.5 -1t109 1t86.5 3l-364 -2071q-41 2 -96.5 3t-112.5 1t-109.5 -1t-89.5 -3z" />
<glyph unicode="^" horiz-adv-x="976" d="M223 881l479 522q29 18 55.5 20t49.5 -2l57 -140l69 -157l71 -156l65 -141q-14 -10 -38.5 -17t-47.5 -3l-231 526l-130 -139l-132 -143l-124 -141l-112 -126q-31 38 -31 97z" />
<glyph unicode="_" horiz-adv-x="1024" d="M-80 -301q-4 70 27 113h884q-4 -61 -32 -107h-209q-111 0 -224 -1l-228 -2q-114 -1 -218 -3z" />
<glyph unicode="`" horiz-adv-x="544" d="M279 1442q41 16 93 18t99 -14q14 -86 34.5 -171t55.5 -177q-14 -6 -34.5 -5t-37.5 9q-39 78 -96 173t-114 167z" />
<glyph unicode="a" horiz-adv-x="989" d="M59 84q-21 50 -21 130q0 84 23 200q25 119 76 218t124 170.5t162 112.5t189 41q29 0 61 -5t54 -13q31 0 63.5 4t53.5 14q8 -4 15 -12t9 -28.5t-2 -57.5t-18 -98l-103 -459q-12 -59 -18 -94t-4 -53.5t11 -24.5t26 -6q23 0 47 13.5t65 47.5q14 -14 22.5 -29.5t14.5 -33.5 q-49 -57 -111.5 -98t-115.5 -41q-70 0 -101.5 33.5t-37.5 82.5q-2 16 -2 34q0 34 8 71q12 55 31 98h-2q-29 -57 -70 -113.5t-89 -102.5t-102.5 -74.5t-111.5 -28.5q-103 0 -146 102zM241 241q17 -93 78 -94q27 0 71 37t91 106.5t93.5 170t76.5 227.5l35 143q-53 20 -125 21 q-63 0 -112.5 -25.5t-86 -70.5t-62.5 -108.5t-40 -139.5q-25 -118 -25 -199q0 -38 6 -68z" />
<glyph unicode="b" horiz-adv-x="917" d="M18 84q14 20 28.5 58t29 86t28 103.5t23.5 112.5l115 650q12 72 16 111.5t-7 59t-38 23.5t-76 4q-1 9 -1 18q0 35 14 60q72 10 144.5 32.5t131.5 51.5q48 -15 48 -82q0 -22 -5 -49l-80 -449q-14 -78 -33.5 -146.5t-50.5 -154.5h4q25 61 67 128t95 124.5t113.5 94 t126.5 36.5q102 0 145 -102q21 -50 21 -130q0 -84 -23 -200q-25 -119 -76 -218t-123.5 -172t-163 -112.5t-190.5 -39.5t-166 24.5t-117 77.5zM231 111q29 -16 58.5 -20.5t64.5 -4.5q63 0 112.5 25.5t86.5 70.5t61.5 108.5t40.5 139.5q25 118 25 199q0 38 -5 68 q-17 93 -79 94q-27 0 -71 -37t-92 -106.5t-93 -170t-76 -227.5z" />
<glyph unicode="c" horiz-adv-x="765" d="M53 292q4 87 21 175q18 94 60 182t103.5 156.5t140.5 109.5t173 41q59 0 94 -10t68 -33q-47 -109 -58 -227q-16 -8 -39.5 -12t-48.5 -4q0 98 -27.5 138t-86.5 40q-31 0 -58.5 -21.5t-52.5 -59.5t-43 -88t-29 -106q-16 -82 -22 -160q-3 -34 -3 -65q0 -41 5 -76 q8 -61 35.5 -99t79.5 -38q59 0 115.5 32t94.5 75q27 -18 43 -58q-37 -47 -80.5 -84t-90 -63.5t-91.5 -40.5t-84 -14q-88 0 -136 43t-67 111q-16 57 -16 126q-1 15 0 30z" />
<glyph unicode="d" horiz-adv-x="1003" d="M59 84q-21 50 -21 130q0 84 23 200q25 119 76 218t124 170.5t162 112.5t189 41q39 0 86 -10q2 33 8 70l11 78q12 72 16 111.5t-6 59t-37.5 23.5t-77.5 4q0 23 1 42.5t12 35.5q25 2 62.5 11.5t77.5 21.5t77 25.5t59 25.5q47 -16 47 -85q0 -21 -4 -46l-168 -961 q-14 -82 -21 -130t-7 -72.5t8 -30.5t22 -6q23 0 47.5 13.5t65.5 47.5q14 -14 22.5 -29.5t14.5 -33.5q-49 -57 -113.5 -98t-118.5 -41q-74 0 -105.5 34.5t-36.5 85.5q-1 14 -1 29q0 39 9 82q13 59 28 109h-2q-29 -59 -70 -120t-90 -110t-106.5 -79.5t-116.5 -30.5 q-103 0 -146 102zM241 241q17 -93 78 -94q27 0 71 37t92 106.5t94.5 170t74.5 227.5l35 143q-53 20 -125 21q-63 0 -112.5 -25.5t-86 -70.5t-62.5 -108.5t-40 -139.5q-25 -118 -25 -199q0 -38 6 -68z" />
<glyph unicode="e" horiz-adv-x="737" d="M50 285q3 84 20 168q23 119 71.5 213t111 158.5t134.5 98t139 33.5q61 0 102.5 -19t63 -51t26.5 -73q2 -16 2 -32q0 -26 -5 -52q-12 -63 -63.5 -116.5t-119 -92.5t-143.5 -61.5t-139 -24.5q-5 -46 -5 -91v-15q1 -53 13 -96.5t39 -70t74 -26.5q45 0 102 27.5t102 81.5 q31 -23 43 -60q-29 -37 -68.5 -73.5t-85.5 -65.5t-95.5 -46t-98.5 -17q-86 0 -134 42t-68 109q-18 59 -18 130v22zM258 510q51 2 100.5 15.5t89 38t66.5 59t35 79.5q3 16 3 33q0 8 -1 17q-2 25 -13.5 46t-31 34.5t-47.5 13.5q-59 0 -113.5 -78t-79.5 -213z" />
<glyph unicode="f" horiz-adv-x="598" d="M-295 -371q4 31 14 60q47 -16 104.5 -24.5t123.5 -8.5q35 0 60.5 11t46 57.5t41 139.5t44.5 257q23 152 43.5 321.5t55.5 382.5l-73 9q-38 4 -73 4q0 47 23 80h137l2 12q23 137 71 237.5t111.5 166t140 97t158.5 31.5q78 0 132.5 -15t80.5 -36q-23 -47 -36 -104.5 t-17 -114.5q-29 -17 -69 -17q-8 0 -17 1q-4 104 -38 148t-97 44q-37 0 -65.5 -18.5t-53.5 -68.5t-49.5 -138t-50.5 -225h202q0 -23 -3 -43.5t-11 -36.5q-57 0 -111.5 -5.5t-95.5 -11.5q-35 -199 -58.5 -348l-37.5 -231q-29 -164 -71 -302.5t-99 -237.5t-128 -154.5 t-155 -55.5q-96 0 -182 74q-2 16 -2 32t2 31z" />
<glyph unicode="g" horiz-adv-x="917" d="M-59 -449q23 47 35 112t16 122q31 17 73 17q8 0 17 -1q4 -119 36 -170t122 -51q96 0 163.5 85t102.5 276l29 168q8 47 28.5 117.5t46.5 138.5h-2q-27 -63 -68.5 -131t-95 -124.5t-115 -92t-124.5 -35.5q-102 0 -146 102q-21 50 -21 130q0 84 23 200q25 119 76 218 t124 170.5t162 112.5t189 41q29 0 62 -5t55 -13q29 2 57.5 6t44.5 12q18 -8 25 -30q2 -8 2 -23q0 -23 -6 -61l-154 -867q-47 -262 -172 -374.5t-319 -112.5q-84 0 -156.5 17t-109.5 46zM241 241q17 -93 78 -94q27 0 71 37t92 106.5t94.5 170t74.5 227.5l35 143 q-53 20 -125 21q-63 0 -112.5 -25.5t-86 -70.5t-62.5 -108.5t-40 -139.5q-25 -118 -25 -199q0 -38 6 -68z" />
<glyph unicode="h" horiz-adv-x="1032" d="M49 0l193 1094q12 72 16 111.5t-6 59t-38 23.5t-77 4q0 23 1 42.5t12 35.5q25 2 62.5 11.5t77.5 21.5t76.5 25.5t59.5 25.5q47 -16 47 -85q0 -21 -4 -46l-51 -282q-20 -112 -39 -194.5t-39 -154.5l-49 -164h2l51 109q25 49 70 105.5t101 104.5t116.5 78.5t113.5 30.5 q33 0 67 -16t56.5 -59t25.5 -120v-15q0 -73 -26 -183l-59 -250l-24.5 -108.5t-9.5 -57t6 -22.5t20 -4q23 0 56.5 19.5t57.5 43.5q29 -29 37 -65q-68 -70 -124 -103.5t-111 -33.5q-61 0 -90 22.5t-36 65.5q-3 18 -3 38q0 30 6 66q10 61 27 137l55 244q18 78 21 128q1 15 1 28 q0 31 -5 51q-7 29 -24.5 40t-39.5 11q-31 0 -81 -40t-102.5 -112.5t-97.5 -173t-65 -221.5l-47 -266h-187z" />
<glyph unicode="i" d="M67 62q-9 32 -10 71q0 62 23 143l84 295q23 78 32 122q5 23 4 41q0 15 -3 26q-8 23 -36 29t-79 6v11q0 38 12 66q25 2 57.5 11.5t66.5 22t63.5 25.5t48.5 25q63 -27 77 -89q4 -17 3 -39q0 -58 -25 -150l-113 -395q-14 -49 -20 -81t-4 -48.5t11 -22.5t24 -6 q20 0 47.5 14.5t58.5 44.5q31 -20 37 -65q-59 -66 -117.5 -101.5t-115.5 -35.5q-102 -1 -126 80zM295 1303q12 57 49 90.5t84 33.5q51 0 76 -33q16 -23 16 -56q0 -16 -4 -35q-10 -53 -47 -87t-88 -34q-49 0 -73 33q-16 24 -16 57q0 15 3 31z" />
<glyph unicode="j" horiz-adv-x="477" d="M-244 -442q147 104 228.5 238t113.5 308l101 539q8 47 9 77t-10.5 46t-38 22.5t-73.5 6.5q-2 20 0 39.5t12 37.5q25 2 58.5 11.5t69.5 22t67 25.5t49 25q27 -12 43 -27.5t23 -46.5q3 -17 3 -42q0 -20 -2 -44q-5 -54 -22 -143l-94 -501q-25 -127 -65 -227.5t-101 -180.5 t-145 -142.5t-195 -111.5q-29 25 -31 68zM285 1303q12 57 49 90.5t84 33.5q51 0 76 -33q16 -23 16 -56q0 -16 -4 -35q-10 -53 -47 -87t-88 -34q-49 0 -73 33q-16 24 -16 57q0 15 3 31z" />
<glyph unicode="k" horiz-adv-x="892" d="M49 0l193 1094q12 72 16 111.5t-6 59t-38 23.5t-77 4q-1 9 -1 18q0 35 14 60q25 2 62.5 11.5t77.5 21.5t76.5 25.5t59.5 25.5q48 -15 48 -82q0 -22 -5 -49l-45 -248q-18 -100 -34.5 -175t-34 -136.5t-40.5 -130.5h2q59 143 145.5 233t207.5 90q98 0 145 -64 q35 -48 35 -110q0 -22 -4 -45q-10 -55 -46 -103t-88.5 -85t-117 -61.5t-131.5 -32.5q66 -55 151 -236q29 -59 48.5 -75.5t48.5 -16.5q20 0 40.5 13.5t51.5 45.5q25 -27 37 -65q-49 -59 -109.5 -99t-103.5 -40q-41 0 -68 9t-48.5 30.5t-38.5 58.5t-38 90q-29 74 -56.5 128 t-68.5 116q-4 -14 -6 -26.5t-4 -27.5l-63 -360h-187zM340 512q125 12 214 58t103 130q3 16 3 30q0 32 -17 52q-25 29 -65 29q-27 0 -58 -21.5t-63.5 -61.5t-62 -95t-54.5 -121z" />
<glyph unicode="l" horiz-adv-x="520" d="M74 147q0 25 2 51.5t8 68.5t17 105l30 159l45 235l66 328q14 70 17 109.5t-7 60t-38 24.5t-77 4q0 23 1 42.5t12 35.5q25 2 62.5 11.5t77.5 21.5t76.5 25.5t59.5 25.5q47 -16 47 -85q0 -21 -4 -46q-41 -233 -83 -449l-83 -415q-23 -109 -31 -175q-7 -59 -7 -94 q0 -42 11 -54q10 -11 27 -11q20 0 45 13.5t60 45.5q27 -25 36 -61q-49 -59 -111.5 -100t-119.5 -41q-140 0 -140 152q1 6 1 13z" />
<glyph unicode="m" horiz-adv-x="1593" d="M76 0l112 596q12 72 16.5 112t-7 59t-39 23.5t-76.5 4.5q0 8 1 34.5t11 42.5q25 2 63 11.5t77.5 22t75.5 25.5t59 25q47 -16 47 -86q0 -21 -4 -47q-16 -88 -34 -145t-40 -109h2l31 68q23 51 68.5 107.5t102 103.5t119 77.5t117.5 30.5q27 0 55.5 -11t51 -38.5t33.5 -72.5 q5 -20 4 -46q0 -30 -7 -67q-8 -41 -18 -77t-27 -75h2l31 68q23 49 69 103.5t103.5 100.5t119.5 75.5t116 29.5q55 0 88 -28.5t46 -79.5q10 -37 9 -86q0 -19 -1 -38q-5 -73 -28 -161l-61 -240q-16 -63 -24.5 -101t-8.5 -57.5t9.5 -25.5t25.5 -6q23 0 49.5 13.5t63.5 47.5 q29 -27 34 -65q-47 -55 -109.5 -96t-121.5 -41q-57 0 -88 16t-40 54q-5 21 -5 51q0 23 3 51q7 63 28 157l53 234q18 78 22 128q2 20 2 36q0 25 -4 43q-6 29 -21 40t-38 11q-31 0 -80 -34t-101 -101.5t-98.5 -168t-72.5 -233.5l-51 -266h-185l94 461q25 115 30 184q2 29 2 52 q0 33 -4 55q-7 37 -25.5 49t-40.5 12q-31 0 -80.5 -37t-100.5 -107.5t-97 -172t-71 -230.5l-51 -266h-186z" />
<glyph unicode="n" horiz-adv-x="1060" d="M74 0l112 596q12 72 16.5 112t-6 59t-38 23.5t-76.5 4.5q0 23 1 42t11 35q25 2 63 11.5t78.5 22t77.5 25.5t60 25q47 -16 47 -86q0 -21 -4 -47q-16 -88 -36 -146.5t-42 -109.5h2l33 70q25 49 69.5 105.5t101 104.5t117 78.5t113.5 30.5q33 0 66.5 -16t56.5 -59t26 -120 v-15q0 -73 -26 -183l-59 -250l-24.5 -108.5t-9.5 -57t6 -22.5t19 -4q23 0 57 19.5t58 43.5q29 -29 37 -65q-68 -70 -124 -103.5t-112 -33.5q-61 0 -89.5 22.5t-35.5 65.5q-3 18 -3 38q0 30 6 66q10 61 26 137l56 244q18 78 21 128q1 15 1 28q0 31 -5 51q-7 29 -24.5 40 t-40.5 11q-31 0 -81 -40t-101 -112.5t-96 -173t-68 -221.5l-51 -266h-186z" />
<glyph unicode="o" horiz-adv-x="931" d="M58 253q-4 30 -4 62q0 59 14 125q23 117 68.5 212.5t110 163t143.5 104t167 36.5t154.5 -33.5t106.5 -97t51 -151.5q4 -31 4 -65q0 -61 -13 -130q-20 -113 -66 -204t-111 -156.5t-145.5 -101t-170.5 -35.5q-88 0 -152.5 32.5t-105 93t-51.5 145.5zM254 184 q35 -106 127 -106q47 0 91 27.5t81 77.5t65.5 120t45.5 156q16 85 15 154q0 76 -19 133q-36 110 -130 110q-47 0 -89 -27.5t-78.5 -79t-64.5 -123t-44 -159.5q-17 -88 -17 -159t17 -124z" />
<glyph unicode="p" horiz-adv-x="954" d="M-6 -502l192 1094q12 72 16.5 111.5t-6 59t-38 24t-76.5 4.5q0 23 1 42t11 35q25 2 63 11.5t77.5 21.5t76.5 25.5t60 25.5q47 -16 47 -85q0 -21 -4 -46q-10 -61 -25.5 -118.5t-40.5 -116.5h4q25 61 66 126.5t93 120t112.5 90t126.5 35.5q102 0 145 -102q21 -50 21 -130 q0 -84 -23 -200q-25 -119 -76 -218t-123.5 -172t-162 -112.5t-189.5 -39.5q-23 0 -47 4l-47 8q2 -18 2 -39q0 -25 -3 -53q-5 -51 -20 -137l-47 -269h-186zM268 109q53 -20 125 -21q63 0 112.5 25.5t86.5 70.5t61.5 108.5t40.5 139.5q25 118 25 199q0 38 -5 68q-17 93 -79 94 q-27 0 -71 -37t-92 -106.5t-94 -170t-75 -227.5z" />
<glyph unicode="q" horiz-adv-x="946" d="M59 84q-21 50 -21 130q0 84 23 200q25 119 76 218t124 170.5t162 112.5t189 41q102 0 168 -24.5t117 -77.5q-14 -23 -28.5 -59.5t-29 -84.5t-27.5 -103.5t-24 -112.5l-174 -990h-186l107 605q8 47 28.5 117.5t46.5 138.5h-4q-25 -63 -66.5 -131t-95 -124.5t-115 -92 t-124.5 -35.5q-103 0 -146 102zM241 241q17 -93 78 -94q27 0 71 37t92 106.5t93.5 170t75.5 227.5l35 143q-53 20 -125 21q-63 0 -112.5 -25.5t-86 -70.5t-62.5 -108.5t-40 -139.5q-25 -118 -25 -199q0 -38 6 -68z" />
<glyph unicode="r" horiz-adv-x="749" d="M66 0l114 596q14 72 18.5 112t-6 59t-37 23.5t-75.5 4.5q0 23 2 42t12 35q25 2 63 11.5t77.5 22t76.5 25.5t60 25q46 -15 46 -81q0 -22 -5 -50q-20 -109 -90 -270h4l34 76q31 68 71 126t82 103t86 70.5t85 25.5q39 0 65.5 -9t49.5 -27q-23 -47 -37 -114t-19 -124 q-29 -17 -69 -17q-8 0 -17 1q-2 45 -6 72.5t-10 42t-14.5 18.5t-20.5 4q-29 0 -66.5 -43t-80.5 -121q-66 -119 -105 -223.5t-65 -233.5l-35 -182h-188z" />
<glyph unicode="s" horiz-adv-x="741" d="M10 98q23 47 32 99.5t13 109.5q29 17 70 17h16v-13q0 -44 13 -85q14 -46 39.5 -80.5t60.5 -55t78 -20.5t78.5 21.5t44.5 64.5q2 12 2 23q0 32 -17 62q-23 40 -61.5 78.5l-84.5 80.5t-83 92.5t-57 110.5q-12 36 -12 77q0 29 5 61q18 104 96.5 159.5t207.5 55.5 q66 0 138.5 -21.5t117.5 -64.5q-23 -47 -32 -95t-13 -105q-29 -17 -70 -17h-17q-4 98 -49 155.5t-127 57.5q-49 0 -77.5 -23.5t-34.5 -58.5q-3 -14 -3 -27q0 -32 17 -60q25 -40 66 -77l89 -79q48 -41 86 -90.5t58 -109.5q12 -36 12 -77q0 -29 -6 -61q-20 -106 -100 -163.5 t-215 -57.5q-86 0 -161 31.5t-120 84.5z" />
<glyph unicode="t" horiz-adv-x="647" d="M86 838q0 47 23 80h151l4 20q23 94 36 167t17 116q41 6 87.5 19t74.5 30q12 -6 19.5 -18.5t7.5 -38t-8.5 -72.5t-26.5 -123l-22 -100h190q0 -23 -3 -43.5t-11 -36.5q-55 0 -106.5 -4.5t-92.5 -10.5l-96 -407q-18 -84 -24 -143q-2 -24 -2 -44q0 -29 4 -51q7 -37 25.5 -53 t43.5 -16q35 0 77 25.5t74 66.5q16 -10 27.5 -28.5t15.5 -37.5q-20 -27 -49.5 -54.5t-65.5 -49t-76 -35.5t-81 -14q-129 0 -169 99q-18 44 -17 110q0 86 28 210l97 424l-75 8.5t-77 4.5z" />
<glyph unicode="u" horiz-adv-x="1040" d="M82 835q2 22 12 37q23 2 61 11.5t78.5 22t76.5 25.5t57 25q23 -14 33 -30q9 -13 9 -46v-20q-3 -49 -25 -145l-62 -269q-32 -128 -32 -203q0 -110 66 -110q29 0 76 34t98.5 103.5t97.5 174t72 245.5l48 248h186l-100 -508q-23 -109 -33 -170t-12.5 -92t6 -38t26.5 -7 q23 0 44.5 14.5t56.5 48.5q14 -12 23 -29.5t16 -35.5q-49 -57 -112 -98t-118 -41q-94 0 -122 63q-16 36 -16 86q0 37 9 80q10 53 33 98h-4q-25 -51 -65 -108.5t-91 -106.5t-108.5 -80.5t-116.5 -31.5q-72 0 -104.5 44t-40.5 113q-3 26 -2 54q0 48 8 101q12 85 32 167 q31 123 44 190q9 46 9 76q0 14 -1 24q-6 32 -33 38t-78 6q-3 12 -3 26q0 7 1 14z" />
<glyph unicode="v" horiz-adv-x="974" d="M70 795q0 8 2 34.5t8 42.5q51 6 111.5 33t93.5 51q29 -10 46 -23t28.5 -39t19.5 -65l20 -100q14 -74 26.5 -151.5t23 -152.5t17.5 -144.5t11 -124.5q131 154 194.5 277.5t63.5 199.5q0 80 -28.5 114.5t-96.5 45.5q-13 28 -13 59q0 8 1 16q27 8 57.5 19.5t58 24t51 24.5 t36.5 22q57 -23 88 -71.5t31 -138.5q0 -59 -24 -132t-82 -165.5t-155.5 -207t-244.5 -261.5q-9 -1 -18 -1q-46 0 -81 19q-12 193 -39.5 367t-58.5 301q-10 37 -19.5 62.5t-24.5 40.5t-39.5 20.5t-63.5 3.5z" />
<glyph unicode="w" horiz-adv-x="1441" d="M70 795q0 8 2 34.5t8 42.5q51 6 111.5 33t93.5 51q29 -10 46 -23t28.5 -39t19.5 -65l20 -100q14 -72 26.5 -148.5t23 -151.5t17.5 -143.5t11 -123.5q76 88 125 169t71 167q17 69 17 145q0 18 -1 36q-5 95 -36 212q35 10 66 27.5t47 37.5q25 -6 39 -16t26.5 -33.5 t22.5 -64.5t25 -111l29 -148q15 -77 27.5 -152t22 -143.5t15.5 -123.5q123 154 176 271.5t53 193.5q0 80 -31.5 117.5t-99.5 46.5q-13 28 -13 59q0 8 1 16l57 19q31 10 58.5 22.5t51 24.5t36.5 22q57 -23 89.5 -71.5t32.5 -141.5q0 -59 -19 -128.5t-71.5 -161t-144.5 -207 t-238 -264.5q-9 -1 -17 -1q-46 0 -81 19q-10 133 -25.5 249t-31.5 210q-23 -61 -50.5 -115.5t-67.5 -110t-95.5 -117t-128.5 -134.5q-9 -1 -18 -1q-46 0 -81 19q-12 193 -39.5 367t-58.5 301q-10 37 -19.5 62.5t-24.5 40.5t-39.5 20.5t-63.5 3.5z" />
<glyph unicode="x" horiz-adv-x="950" d="M-45 10q16 47 26.5 111.5t10.5 124.5q16 10 40.5 15t49.5 3q4 -72 15.5 -90t31.5 -18t47 21.5t55.5 58t56 86t52.5 104.5q-20 66 -37.5 130.5t-30.5 119.5q-16 72 -53 97q-32 22 -94 22h-21q-2 12 -1 22q0 30 12 55q25 2 57.5 11.5t65 22t60.5 25.5t44 25q31 -6 46 -27.5 t30 -80.5l28 -114q14 -56 31 -109q29 57 65 116.5t78 106.5t88 77.5t95 30.5q39 0 65.5 -9t49.5 -27q-23 -47 -37.5 -114t-18.5 -124q-29 -17 -69 -17q-8 0 -17 1q-2 45 -6 72.5t-10 42t-14.5 18.5t-20.5 4q-23 0 -50.5 -25.5t-55 -68.5t-55 -97.5t-50.5 -111.5l54.5 -167 t49.5 -130q23 -51 41.5 -65.5t40.5 -14.5q23 0 47.5 14.5t65.5 48.5q25 -27 37 -65q-49 -57 -111.5 -98t-122.5 -41q-66 0 -98.5 23.5t-54.5 76.5q-23 53 -43 111l-41 116q-29 -57 -64.5 -115.5t-77.5 -105.5t-88.5 -76.5t-93.5 -29.5q-37 0 -58.5 6t-41.5 22z" />
<glyph unicode="y" horiz-adv-x="915" d="M-254 -371q4 31 14 60q47 -16 102.5 -24.5t104.5 -8.5q31 0 62.5 9t67.5 34t79 71t100 119q-12 240 -39.5 445t-62.5 334q-10 37 -19.5 62.5t-24.5 40.5t-39.5 20.5t-63.5 3.5q-1 10 -1 20q0 34 11 57q51 6 111.5 33t93.5 51q25 -8 41 -19t27.5 -31.5t20.5 -54.5t19 -89 q35 -180 54.5 -336t25.5 -324q135 205 193.5 349.5t58.5 230.5q0 43 -23.5 71.5t-91.5 39.5q-13 28 -13 59q0 8 1 16q27 8 57.5 19.5t58 24t51 24.5t36.5 22q57 -23 83.5 -65.5t26.5 -95.5q0 -129 -95 -311.5t-281 -450.5q-123 -178 -207 -285.5t-145.5 -164t-109.5 -75 t-102 -18.5q-96 0 -182 74q-2 16 -2 32t2 31z" />
<glyph unicode="z" horiz-adv-x="815" d="M-25 78q213 186 373 361t246 319q-29 8 -63.5 12t-88.5 4q-53 0 -90 -6t-64.5 -19.5t-48 -35t-42.5 -54.5q-27 2 -43.5 10.5t-32.5 24.5q31 55 53.5 117.5t32.5 118.5q53 14 112.5 20t149.5 6q100 0 159.5 -6t106.5 -14q27 -27 33 -72q-47 -84 -108.5 -173t-133 -179 t-151.5 -177t-164 -167q29 4 62.5 6t84.5 2q57 0 96.5 -5t61.5 -5q31 0 56.5 18.5t60.5 91.5q23 2 47.5 -4t40.5 -20q-23 -51 -38 -112.5t-21 -119.5q-18 -31 -62 -30q-29 0 -57.5 2t-63.5 3t-81 3t-109 2q-111 0 -187.5 -2t-107.5 -6q-10 18 -16 39q-4 15 -3 32q-1 7 0 15z " />
<glyph unicode="{" horiz-adv-x="649" d="M72 500q0 41 22 65q86 31 130 82t63.5 114.5t23.5 137.5t9.5 148.5t21.5 147.5t60 136.5t126 111.5t217 77q6 -14 7.5 -34t-2.5 -36q-94 -16 -145.5 -59t-77 -103.5t-32 -132.5t-9.5 -146.5t-12 -149.5t-37.5 -138.5t-88 -113.5t-162.5 -77q94 -29 137.5 -81t54.5 -120.5 t-2.5 -148.5t-32.5 -161l-38 -159q-18 -79 -18 -147.5t28.5 -121t102.5 -78.5q0 -18 -5 -37t-16 -31q-111 39 -166 99.5t-74.5 133t-11 153.5t24.5 163l32 161q15 79 12 145.5t-33.5 118.5t-108.5 81z" />
<glyph unicode="|" horiz-adv-x="374" d="M-45 -465l371 1923q31 0 55.5 -8t42.5 -31l-195 -957l-178 -966q-29 2 -54.5 10.5t-41.5 28.5z" />
<glyph unicode="}" horiz-adv-x="659" d="M-84 -520.5q-2 16.5 2 33.5q86 16 133 62t70.5 112.5t30.5 147.5l12 166q6 85 18.5 169t46 154.5t97 125t172.5 80.5q-98 27 -142.5 74t-53.5 106.5t6.5 128t37 140.5t39.5 141.5t13 132t-40.5 113.5t-124.5 84q4 20 9.5 38.5t15.5 29.5q119 -41 180.5 -96.5t85 -120 t17.5 -135t-23 -142.5l-33 -140q-16 -69 -14 -128.5t31.5 -107.5t105.5 -79q6 -27 -4 -65q-88 -25 -136 -78t-73.5 -124t-36.5 -154l-21 -168q-11 -86 -30.5 -170t-63.5 -156t-120 -127t-199 -82q-6 18 -8 34.5z" />
<glyph unicode="~" horiz-adv-x="1120" d="M68 489q84 113 159.5 155t147.5 42q57 0 112.5 -18.5t109.5 -40t109.5 -40t110.5 -18.5q51 0 103.5 20.5t107.5 72.5q41 0 62 -33q-82 -106 -156 -146.5t-139 -40.5q-55 0 -107.5 19.5t-105 44t-105.5 44t-110 19.5q-59 0 -122 -28.5t-134 -104.5q-37 16 -43 53z" />
<glyph unicode="&#xa1;" horiz-adv-x="561" d="M-12 -488.5q-6 23.5 8 72.5l51 187l58 224l60 243q30 125 54 241q53 6 90 -12q-18 -145 -30 -268l-23 -234q-10 -111 -16 -213l-13 -207q-47 -10 -108.5 -29.5t-95.5 -37.5q-29 10 -35 33.5zM229 856q10 47 38 73.5t73 26.5q55 0 84 -35.5t16 -95.5q-8 -41 -39.5 -68.5 t-74.5 -27.5q-47 0 -77 36t-20 91z" />
<glyph unicode="&#xa2;" horiz-adv-x="765" d="M53 297q4 84 21 170q14 80 47 155.5t80 139t108.5 110t132.5 68.5l62 320q31 0 55.5 -8.5t42.5 -30.5l-31 -136l-28 -129h8q59 0 94 -10t68 -33q-47 -109 -58 -227q-16 -8 -39.5 -12t-48.5 -4q0 129 -51 161q-41 -182 -73 -350l-64 -346q55 4 108.5 35t87.5 72 q27 -18 43 -58q-53 -70 -124.5 -119t-139.5 -69l-21 -134l-24 -141q-29 2 -54.5 10.5t-41.5 28.5l43 222q-82 4 -127 49t-62.5 113.5t-13.5 152.5zM245 333q1 -54 12 -98.5t34 -68.5l131 676q-51 -20 -92 -95t-60 -174q-12 -63 -19 -124.5t-6 -115.5z" />
<glyph unicode="&#xa3;" horiz-adv-x="962" d="M-80 59q66 51 120 101.5t96 103.5t69.5 112.5t40.5 131.5q6 37 6 70q-59 0 -113.5 -1.5t-101.5 -3.5q-4 70 26 113h173l-21 72q-10 37 -16 78t-7.5 89t9.5 107q12 70 48 137.5t93 118.5t134 83t171 32t165 -21.5t130 -66.5q-14 -61 -22.5 -126t-12.5 -142 q-31 -6 -58.5 -3t-49.5 13q10 139 -34 194.5t-151 55.5q-86 0 -150.5 -57.5t-80.5 -153.5q-12 -70 -5 -122t21 -98l29 -91q14 -44 16 -99h263q0 -66 -29 -106h-246q-20 -92 -71.5 -180.5t-145.5 -188.5q90 45 184 45q57 0 101.5 -16.5t80.5 -35.5l64 -36q29 -16 55 -16 q57 0 93 55q23 -4 41 -21.5t24 -33.5q-35 -78 -96.5 -124t-132.5 -46q-53 0 -88 18t-71 42t-81 42t-119 18q-66 0 -137.5 -27.5t-148.5 -92.5q-23 14 -38.5 33t-25.5 44z" />
<glyph unicode="&#xa4;" horiz-adv-x="1105" d="M20 162l144 125q-35 53 -47.5 123.5t4.5 156.5q18 109 92 189l-98 102q16 14 42.5 23.5t53.5 11.5l70 -80q100 70 241 70q74 0 134.5 -20.5t103.5 -57.5l106 92q25 -6 47.5 -18.5t32.5 -28.5l-131 -111q29 -47 38 -105.5t-3 -127.5q-12 -70 -42 -128.5t-73 -103.5 l115 -124q-14 -14 -41 -22.5t-51 -10.5l-90 102q-94 -66 -222 -65q-139 0 -227 71l-113 -106q-23 2 -46.5 13.5t-39.5 29.5zM236 565q-27 -145 35.5 -236t195.5 -91q49 0 93 19t80 53t60.5 80t34.5 99q25 137 -38.5 223.5t-194.5 86.5q-102 0 -175 -65t-91 -169z" />
<glyph unicode="&#xa5;" horiz-adv-x="1193" d="M184 395q-4 31 1 60.5t20 52.5h346l16 92l-18 49h-95q-42 0 -80 -1l-76 -2q-38 -1 -83 -3q-4 70 27 113h266l-80 195l-68 157l-45 93t-33.5 56.5t-30.5 29.5t-38 18q-4 23 -5 42t3 44q57 -4 114.5 -5.5t112.5 -1.5q61 0 120.5 1t137.5 6q0 -25 -5 -46.5t-13 -44.5 q-100 -14 -127 -47.5t8 -113.5q41 -92 84 -204t82 -224l80 108l74 102l62 87l46 65q76 113 72 163t-98 67q-8 39 -3 88q51 -4 94.5 -5.5t102.5 -1.5q49 0 91 1t91 6q0 -45 -18 -88q-18 -6 -33.5 -17.5t-40 -37t-62.5 -75l-98 -133.5l-99 -136l-112 -148h244q4 -59 -24 -107 h-299l-33 -43l-19 -98h347q-4 -61 -33 -107h-332l-27 -151q-8 -43 -8 -71.5t14.5 -47t45 -30t86.5 -19.5q10 -43 4 -88q-66 4 -133.5 5t-128.5 1q-68 0 -140.5 -1t-128.5 -5q0 51 15 90q51 8 82.5 19.5t51 31t31 52t21.5 83.5l22 129q-90 0 -177 -1t-171 -3z" />
<glyph unicode="&#xa6;" horiz-adv-x="374" d="M-45 -465l158 815q31 0 55.5 -8t42.5 -31l-83 -406q-40 -202 -77 -409q-29 2 -54.5 10.5t-41.5 28.5zM184 711l142 747q31 0 55.5 -8t42.5 -31l-75 -371q-36 -185 -68 -376q-29 2 -55 10.5t-42 28.5z" />
<glyph unicode="&#xa7;" horiz-adv-x="1048" d="M86 539q25 113 115 197.5t239 129.5q-37 33 -68.5 70t-53 80t-28.5 94t5 113q20 104 117.5 172.5t257.5 68.5q176 0 291 -96q-10 -70 -16.5 -132t-6.5 -132q-51 -20 -113 -10q-2 86 -14 140t-35.5 84t-57.5 41t-79 11q-66 0 -108 -35t-54 -94q-16 -78 21 -136t99 -110.5 t137 -104.5t134.5 -116.5t90 -149.5t6.5 -204q-23 -113 -113 -198t-242 -130q37 -33 70 -69.5t53.5 -79.5t27.5 -94.5t-5 -112.5q-20 -104 -117.5 -173t-257.5 -69q-176 0 -291 96q10 70 16.5 132.5t6.5 132.5q51 20 112 10q2 -86 14.5 -140.5t36 -84t57.5 -41t79 -11.5 q66 0 107.5 35t53.5 94q16 78 -20.5 136.5t-99 110.5t-137 104.5t-134 117t-90.5 149.5t-6 204zM287 559q-14 -74 2 -130t52 -102t85 -87l100 -80q88 33 155 96t83 143q14 74 -2.5 130.5t-51 102.5t-83.5 86l-101 81q-88 -33 -155.5 -96.5t-83.5 -143.5z" />
<glyph unicode="&#xa8;" horiz-adv-x="948" d="M356 1221q16 90 113 90q53 0 76.5 -34t13.5 -87q-27 -100 -115 -100q-51 0 -75.5 36t-12.5 95zM672 1214q16 96 119 97q49 0 73.5 -31t14.5 -84q-10 -51 -40 -77.5t-77 -26.5q-51 0 -75.5 33.5t-14.5 88.5z" />
<glyph unicode="&#xa9;" horiz-adv-x="1466" d="M69.5 221q-26.5 139 6.5 311q27 143 93.5 261t162.5 201t218 129t259 46q166 0 290 -54t200.5 -154.5t102 -239.5t-6.5 -311q-27 -143 -92.5 -261t-162 -201t-218 -129t-258.5 -46q-164 0 -289 54t-202 154.5t-103.5 239.5zM155.5 258q18.5 -123 83 -211t175 -136 t266.5 -48q119 0 222.5 39t185 111.5t138 173t79.5 223.5q29 152 9 275.5t-84.5 211.5t-174 136t-262.5 48q-119 0 -222.5 -38.5t-186.5 -111.5t-139.5 -174.5t-78.5 -224.5q-29 -151 -10.5 -274zM391 292q4 87 21 175q18 94 60 182t103.5 156.5t140.5 109.5t173 41 q59 0 94 -10t68 -33q-47 -109 -58 -227q-16 -8 -39.5 -12t-48.5 -4q0 98 -27.5 138t-86.5 40q-31 0 -58.5 -21.5t-52.5 -59.5t-43.5 -88t-28.5 -106q-16 -82 -22 -160.5t2 -140t35.5 -99.5t78.5 -38q59 0 115.5 32t95.5 75q27 -18 43 -58q-37 -47 -81 -84t-90 -63.5 t-91 -40.5t-84 -14q-88 0 -136 43t-67.5 111.5t-15.5 155.5z" />
<glyph unicode="&#xaa;" horiz-adv-x="927" d="M236.5 815q-31.5 76 3.5 246q18 88 56 163.5t92 129t122 84t141 30.5q47 0 86 -14q20 -2 46 2t42 12q18 -10 22.5 -34.5t-13.5 -108.5l-80 -350q-14 -74 -12.5 -91.5t22.5 -17.5q12 0 31.5 9.5t42.5 31.5q14 -10 24 -30.5t15 -36.5q-39 -43 -86.5 -72t-83.5 -29 q-53 0 -78 26t-29 61.5t5 76.5t24 72h-4q-23 -41 -52.5 -83t-65.5 -76t-78 -55.5t-85 -21.5q-76 0 -107.5 76zM379 946.5q8 -59.5 49 -59.5q18 0 49 22.5t64.5 69.5t68.5 118.5t62 170.5l28 102q-41 12 -88 12q-88 0 -139 -67.5t-76 -179.5q-26 -129 -18 -188.5z" />
<glyph unicode="&#xab;" horiz-adv-x="856" d="M70 492q0 49 26 79l166 142q76 66 154 143q23 -2 42 -13.5t27 -25.5q-27 -27 -60 -64l-69 -77q-35 -39 -65.5 -77t-48.5 -64q10 -29 27.5 -70t37.5 -83l40 -80q19 -38 34 -62q-4 -23 -17.5 -41.5t-29.5 -28.5q-68 94 -136.5 176.5t-127.5 145.5zM418 492q0 49 26 79 l83 71l74 66l71 65l71 71q23 -2 42.5 -13.5t27.5 -25.5l-57 -65l-61 -72l-57 -72l-48 -61l24 -67q14 -38 31 -77l33 -77q16 -38 31 -64q-4 -23 -17.5 -41.5t-29.5 -28.5q-131 181 -244 312z" />
<glyph unicode="&#xac;" horiz-adv-x="1101" d="M96 606q-2 63 27 105h885l-80 -478q-23 -12 -54.5 -15t-60.5 3l66 391q-186 0 -391.5 -1t-391.5 -5z" />
<glyph unicode="&#xad;" horiz-adv-x="702" d="M68 473q4 47 11 79t23 60h560q-2 -45 -8.5 -74.5t-18.5 -58.5q-102 0 -245.5 -1t-321.5 -5z" />
<glyph unicode="&#xae;" horiz-adv-x="1015" d="M235.5 874.5q-16.5 75.5 0.5 161.5q35 162 148.5 255t277.5 93q90 0 158.5 -32.5t112.5 -90t59.5 -133t-3.5 -161.5q-33 -168 -145.5 -259.5t-278.5 -91.5q-88 0 -156.5 34t-112.5 91.5t-60.5 133zM307 904.5q12 -64.5 47 -113t91.5 -77t127.5 -28.5q131 0 225.5 76 t119.5 201q14 76 2.5 141t-46 113.5t-90 76t-129.5 27.5q-133 0 -227 -77t-119 -204q-14 -71 -2 -135.5zM410 786q0 10 2 22.5t6 20.5q29 4 39 17.5t18 60.5l37 215q4 29 -4 38t-35 14q-4 25 2 43q23 -2 44 -3h44q27 0 56.5 1.5t54.5 1.5q68 0 99.5 -31t21.5 -86 q-8 -41 -44 -72t-89 -43q12 -18 23 -39.5t28 -60.5q16 -41 39 -41q14 0 26 12q16 -12 17 -35q-31 -39 -80 -39t-74 80q-10 37 -22.5 63.5t-26.5 49.5l-31 2l-14 -78q-8 -43 -3 -54t27 -16q10 -18 7 -43q-25 2 -44 2h-40h-44q-22 0 -40 -2zM567 1018h25q53 0 85 18.5t40 59.5 q6 35 -10.5 57.5t-59.5 22.5q-29 0 -53 -7z" />
<glyph unicode="&#xaf;" horiz-adv-x="1105" d="M178 1198q0 12 4 44t15 50h712q0 -43 -18 -88q-209 0 -387.5 -1t-325.5 -5z" />
<glyph unicode="&#xb0;" horiz-adv-x="788" d="M270 1219q16 98 95 156.5t194 58.5q131 0 197.5 -73t44.5 -196q-18 -106 -97 -170.5t-192 -64.5q-133 0 -199 79t-43 210zM414 1223q-16 -96 14.5 -153.5t95.5 -57.5q47 0 84 42t49 109q16 86 -14.5 139.5t-95.5 53.5q-49 0 -86 -37t-47 -96z" />
<glyph unicode="&#xb1;" horiz-adv-x="929" d="M27 156q-4 70 26 112h774q-4 -61 -32 -106q-197 0 -378 -1t-390 -5zM104 643q-4 66 27 107h324l59 307q55 23 107 0q-16 -63 -33 -143l-33 -164h338q4 -59 -23 -101h-333l-28 -154q-13 -77 -24 -149q-27 -8 -55.5 -5t-48.5 19l55 287q-86 0 -170 -1t-162 -3z" />
<glyph unicode="&#xb2;" horiz-adv-x="649" d="M96 799l74 60l82 66l77 58l58 43q66 47 103.5 99.5t50.5 119.5q12 66 -9.5 100.5t-70.5 34.5t-81 -48t-65 -154q-25 -2 -52 1t-44 13q16 43 25.5 100.5t11.5 106.5q123 70 248 69q115 0 172 -52t35 -156q-10 -53 -49 -104.5t-125 -117.5l-42 -30l-55 -40l-59 -46l-57 -45 q20 2 40 2h39q41 0 61.5 -2.5t49.5 -2.5q35 0 66.5 29t46.5 88q18 4 37.5 2t35.5 -10q-6 -23 -10 -52l-8 -59q-4 -29 -5 -55t-1 -45q-20 -39 -88 -39q-43 0 -94.5 2t-126.5 2h-137q-71 0 -128 -4q-14 27 -6 66z" />
<glyph unicode="&#x2072;" horiz-adv-x="649" d="M96 799l74 60l82 66l77 58l58 43q66 47 103.5 99.5t50.5 119.5q12 66 -9.5 100.5t-70.5 34.5t-81 -48t-65 -154q-25 -2 -52 1t-44 13q16 43 25.5 100.5t11.5 106.5q123 70 248 69q115 0 172 -52t35 -156q-10 -53 -49 -104.5t-125 -117.5l-42 -30l-55 -40l-59 -46l-57 -45 q20 2 40 2h39q41 0 61.5 -2.5t49.5 -2.5q35 0 66.5 29t46.5 88q18 4 37.5 2t35.5 -10q-6 -23 -10 -52l-8 -59q-4 -29 -5 -55t-1 -45q-20 -39 -88 -39q-43 0 -94.5 2t-126.5 2h-137q-71 0 -128 -4q-14 27 -6 66z" />
<glyph unicode="&#xb3;" horiz-adv-x="638" d="M63 547q0 18 12.5 36.5t26.5 26.5q16 -10 52 -18t84 -8q102 0 172.5 53t89.5 147q20 88 -28 147.5t-173 59.5q-10 8 -14 23.5t0 32.5q113 37 164 89t67 124q10 51 -9.5 86.5t-70.5 35.5q-61 0 -97 -46t-69 -160q-25 -4 -51 0t-43 14q14 45 24.5 102.5t12.5 104.5 q47 35 111.5 53t130.5 18q119 0 182 -53t45 -151q-10 -55 -52 -99.5t-124 -85.5q92 -20 140 -92t24 -192q-14 -63 -53 -117.5t-96.5 -93.5t-131.5 -60.5t-158 -21.5q-49 0 -96 12.5t-72 32.5z" />
<glyph unicode="&#x2073;" horiz-adv-x="638" d="M63 547q0 18 12.5 36.5t26.5 26.5q16 -10 52 -18t84 -8q102 0 172.5 53t89.5 147q20 88 -28 147.5t-173 59.5q-10 8 -14 23.5t0 32.5q113 37 164 89t67 124q10 51 -9.5 86.5t-70.5 35.5q-61 0 -97 -46t-69 -160q-25 -4 -51 0t-43 14q14 45 24.5 102.5t12.5 104.5 q47 35 111.5 53t130.5 18q119 0 182 -53t45 -151q-10 -55 -52 -99.5t-124 -85.5q92 -20 140 -92t24 -192q-14 -63 -53 -117.5t-96.5 -93.5t-131.5 -60.5t-158 -21.5q-49 0 -96 12.5t-72 32.5z" />
<glyph unicode="&#xb4;" horiz-adv-x="552" d="M272 1108q68 106 117 199.5t74 158.5q61 16 116.5 12.5t94.5 -30.5q-78 -74 -164 -169t-164 -200q-45 4 -74 29z" />
<glyph unicode="&#xb5;" horiz-adv-x="1009" d="M-78 -410q4 23 11.5 43.5t16.5 52t21.5 80t26.5 125.5l201 1047h186l-80 -410q-39 -193 -10 -289t88 -96q31 0 70 32t76.5 93.5t71.5 152.5t56 208l60 309h186l-100 -508q-23 -109 -33 -170t-12 -92t6 -38t27 -7q23 0 44 14.5t56 48.5q14 -12 23.5 -29.5t15.5 -35.5 q-49 -57 -111.5 -98t-118.5 -41q-84 0 -107.5 54t-6.5 134q8 41 14 62.5t12 35.5h-2q-23 -63 -55.5 -115.5t-71.5 -90t-78.5 -59t-78.5 -21.5q-66 0 -97.5 33.5t-44.5 86.5h-2q2 -53 -4 -112.5t-16 -112.5q-12 -59 -17.5 -125.5t2.5 -113.5q-45 -18 -103 -56.5t-99 -77.5 q-35 23 -23 86z" />
<glyph unicode="&#x3bc;" horiz-adv-x="1009" d="M-78 -410q4 23 11.5 43.5t16.5 52t21.5 80t26.5 125.5l201 1047h186l-80 -410q-39 -193 -10 -289t88 -96q31 0 70 32t76.5 93.5t71.5 152.5t56 208l60 309h186l-100 -508q-23 -109 -33 -170t-12 -92t6 -38t27 -7q23 0 44 14.5t56 48.5q14 -12 23.5 -29.5t15.5 -35.5 q-49 -57 -111.5 -98t-118.5 -41q-84 0 -107.5 54t-6.5 134q8 41 14 62.5t12 35.5h-2q-23 -63 -55.5 -115.5t-71.5 -90t-78.5 -59t-78.5 -21.5q-66 0 -97.5 33.5t-44.5 86.5h-2q2 -53 -4 -112.5t-16 -112.5q-12 -59 -17.5 -125.5t2.5 -113.5q-45 -18 -103 -56.5t-99 -77.5 q-35 23 -23 86z" />
<glyph unicode="&#xb6;" horiz-adv-x="1136" d="M195 1047q12 74 53 136t111.5 108t174 72t242.5 26q94 0 164 -2.5t141 -2.5q37 0 70 1t78 6q-4 -49 -19 -88q-47 -6 -73.5 -15.5t-43 -28t-24.5 -48t-16 -74.5l-57 -298l-49 -267l-45 -250l-43 -253l-44 -271l-47 -302q-57 -10 -102 4l313 1796q-29 2 -57.5 3t-61.5 1 l-86 -455l-80 -443l-77 -445l-74 -465q-29 -4 -54.5 -1t-46.5 15l199 1145q-20 -4 -42 -4h-36q-209 0 -306 101.5t-62 298.5zM381 902.5q14 -62.5 51 -101.5t94.5 -56.5t128.5 -17.5l101 576q-96 0 -162 -13.5t-109 -42t-66.5 -76t-35.5 -114.5q-16 -92 -2 -154.5z" />
<glyph unicode="&#xb7;" horiz-adv-x="342" d="M84 580q8 41 40 68.5t75 27.5q47 0 76.5 -36t19.5 -91q-10 -47 -38 -73.5t-73 -26.5q-55 0 -83.5 36t-16.5 95z" />
<glyph unicode="&#xb8;" horiz-adv-x="1105" d="M377 -430q76 0 124 24.5t58 77.5q10 59 -21.5 90t-88.5 31q-14 12 -20.5 31.5t-0.5 46.5l133 162h113l-119 -146q76 -16 109.5 -66t15.5 -145q-18 -88 -101 -132t-200 -40q-8 27 -2 66z" />
<glyph unicode="&#xb9;" horiz-adv-x="524" d="M123 731q0 53 16 84q37 4 60.5 13.5t38 30t23.5 53t20 85.5l36 193q10 53 13.5 87t-4 55.5t-30 31.5t-60.5 14q-4 18 -5.5 36t2.5 42q41 -4 88.5 -5t112.5 -1q66 0 115 1t94 5q0 -39 -18 -78q-37 -6 -59.5 -18t-38 -33.5t-24.5 -54.5t-18 -82l-36 -193 q-10 -53 -13.5 -85.5t5 -52t30 -29t57.5 -15.5q10 -39 4 -84q-47 4 -96 5t-108 1t-113.5 -1t-91.5 -5z" />
<glyph unicode="&#x2071;" horiz-adv-x="524" d="M123 731q0 53 16 84q37 4 60.5 13.5t38 30t23.5 53t20 85.5l36 193q10 53 13.5 87t-4 55.5t-30 31.5t-60.5 14q-4 18 -5.5 36t2.5 42q41 -4 88.5 -5t112.5 -1q66 0 115 1t94 5q0 -39 -18 -78q-37 -6 -59.5 -18t-38 -33.5t-24.5 -54.5t-18 -82l-36 -193 q-10 -53 -13.5 -85.5t5 -52t30 -29t57.5 -15.5q10 -39 4 -84q-47 4 -96 5t-108 1t-113.5 -1t-91.5 -5z" />
<glyph unicode="&#xba;" horiz-adv-x="845" d="M242 1077q16 90 52 163t85 123t110.5 77.5t128.5 27.5q135 0 195.5 -97t32.5 -263q-16 -86 -51 -155.5t-85.5 -119t-112.5 -75t-130 -25.5q-135 0 -193.5 93t-31.5 251zM413.5 894q18.5 -75 67.5 -75q59 0 109.5 68.5t75.5 210.5q12 61 13 112.5t-7 90t-25.5 60 t-44.5 21.5q-61 0 -109.5 -68.5t-72.5 -207.5q-25 -137 -6.5 -212z" />
<glyph unicode="&#xbb;" horiz-adv-x="874" d="M90 272q55 55 111.5 118t101.5 118q-23 66 -58.5 151.5t-72.5 163.5q31 25 76 19q53 -78 98 -137.5t105 -129.5q18 -39 4 -79l-167 -145l-167 -156q-31 30 -31 77zM430 262l122 122q67 69 114 124l-30 74q-17 43 -39 88l-43 88l-40 76q31 25 76 18q53 -74 107.5 -141.5 t115.5 -135.5q18 -39 4 -79l-178 -152l-178 -160q-31 31 -31 78z" />
<glyph unicode="&#xbc;" horiz-adv-x="1540" d="M338 1157q10 49 11 79t-10 47t-39 22.5t-75 5.5q-10 47 15 82q82 10 144 27.5t128 47.5q29 -10 44 -39.5t5 -80.5l-104 -535q-8 -43 -10.5 -70.5t6 -45t28 -25.5t51.5 -13q6 -23 7.5 -44t-2.5 -44q-72 4 -114 5.5t-95 1.5t-97.5 -1.5t-107.5 -5.5q0 20 4 46t10 40 q37 4 58.5 12.5t36 26t22.5 44t16 69.5zM1401 1466q59 -31 70 -84l-292 -355l-272 -337l-271 -341l-285 -367q-25 12 -42.5 32.5t-21.5 46.5zM1440 340q29 0 49 -21q-6 -12 -12 -32l-12 -43q-6 -23 -10.5 -44.5t-6.5 -35.5h-106l-31 -164h-191l31 162q-121 -2 -204 -4 t-134 -4q-18 14 -31.5 51t-9.5 63l313 320l302 332q31 2 53.5 -3.5t38.5 -13.5l-105 -563h66zM1202 442q10 59 23.5 116.5t32.5 111.5h-2q-16 -25 -52 -69t-108 -122q-39 -43 -77 -78.5l-66 -60.5h231z" />
<glyph unicode="&#xbd;" horiz-adv-x="1744" d="M338 1157q10 49 11 79t-10 47t-39 22.5t-75 5.5q-10 47 15 82q82 10 144 27.5t128 47.5q29 -10 44 -39.5t5 -80.5l-104 -535q-8 -43 -10.5 -70.5t6 -45t28 -25.5t51.5 -13q6 -23 7.5 -44t-2.5 -44q-72 4 -114 5.5t-95 1.5t-97.5 -1.5t-107.5 -5.5q0 20 4 46t10 40 q37 4 58.5 12.5t36 26t22.5 44t16 69.5zM1401 1466q59 -31 70 -84l-292 -355l-272 -337l-271 -341l-285 -367q-25 12 -42.5 32.5t-21.5 46.5zM1679 682q-16 -86 -74.5 -151.5t-173.5 -147.5l-54 -40l-68 -51l-72 -59l-70 -57q29 4 54 4h57q49 0 80.5 -4t60.5 -4 q31 0 59.5 24.5t46.5 96.5q23 2 52.5 -2t42.5 -12q-12 -57 -17.5 -123t-3.5 -113q-10 -23 -30.5 -36t-57.5 -13q-49 0 -109.5 3t-156.5 3h-73q-32 0 -63 -1l-67 -2q-35 -1 -80 -3q-12 18 -17 47t-1 51l90 83l93 80l87 71l72 57q88 68 130 129t58 137q16 84 -3 133t-81 49 q-76 0 -114.5 -57t-71.5 -194q-25 -2 -55.5 2t-47.5 14q37 113 44 235q78 49 143 69t143 20q135 0 203 -62.5t45 -175.5z" />
<glyph unicode="&#xbe;" horiz-adv-x="1566" d="M1425 1466q59 -31 70 -84l-292 -355l-272 -337l-271 -341l-285 -367q-25 12 -42.5 32.5t-21.5 46.5zM1464 340q29 0 49 -21q-6 -12 -12 -32l-12 -43q-6 -23 -10.5 -44.5t-6.5 -35.5h-106l-31 -164h-191l31 162q-121 -2 -204 -4t-134 -4q-18 14 -31.5 51t-9.5 63l313 320 l302 332q31 2 53.5 -3.5t38.5 -13.5l-105 -563h66zM1226 442q10 59 23.5 116.5t32.5 111.5h-2q-16 -25 -52 -69t-108 -122q-39 -43 -77 -78.5l-66 -60.5h231zM702 1249q-12 -59 -63 -113.5t-123 -78.5q88 -18 139.5 -78.5t28.5 -171.5q-14 -61 -51 -108.5t-91.5 -78 t-122 -46t-140.5 -15.5q-94 0 -142.5 16.5t-77.5 38.5q0 23 12.5 48.5t28.5 35.5q25 -16 63 -28.5t97 -12.5q82 0 140.5 36t72.5 110q16 80 -25.5 125t-152.5 45q-10 23 -8 43t10 43q94 14 138 59t61 121q12 63 -7.5 101t-70.5 38q-49 0 -84 -48t-68 -171q-25 -4 -55.5 0 t-48.5 15q6 20 13 49.5t13.5 60.5t10.5 60.5t4 52.5q47 31 115.5 51t127.5 20q139 0 209 -51t47 -168z" />
<glyph unicode="&#xbf;" horiz-adv-x="919" d="M18 -227q12 66 45 117t74 95t88 86t88 88t73 101t46 127q6 25 9 68t-1 71q18 10 33.5 13.5t34.5 3.5q27 -23 41 -92.5t-2 -157.5q-20 -102 -70.5 -172t-105 -126t-101.5 -110.5t-59 -126.5q-16 -84 11.5 -141t107.5 -57q70 0 121 60.5t94 203.5q33 0 52 -4t38 -17 l-19 -66q-8 -30 -13 -56.5t-8 -54t-5 -62.5q-35 -31 -115 -59.5t-176 -28.5q-154 0 -231 81t-50 216zM449 854q10 47 37.5 73.5t72.5 26.5q55 0 84 -35.5t16 -95.5q-8 -41 -39.5 -68.5t-74.5 -27.5q-47 0 -76.5 36t-19.5 91z" />
<glyph unicode="&#xc0;" horiz-adv-x="1406" d="M-55 -6q0 23 3 45t13 43q29 8 51.5 22.5t45 40t49 65.5t61.5 99l309 536l303 539q18 8 41 10.5t39 2.5l154 -561q74 -281 141 -566q14 -57 26.5 -91t26 -53.5t29.5 -28.5t39 -15q6 -23 7 -44v-15q0 -15 -1 -29q-51 4 -115.5 5t-111.5 1q-53 0 -112.5 -1t-121.5 -5 q0 23 3 45t14 43q45 6 72.5 15t40 27.5t12.5 48.5t-13 77l-47 199q-129 0 -276.5 -2.5t-270.5 -6.5l-86 -147q-35 -59 -50 -97t-10 -61.5t27.5 -35t63.5 -17.5q7 -34 7 -70q0 -9 -1 -18q-49 4 -95 5t-93 1q-53 0 -91 -1t-83 -5zM416 543h463l-48 187l-51 185 q-16 59 -27.5 105.5t-21.5 109.5l-57 -113l-62 -116l-96 -179zM594 1888q41 16 93 18t99 -14q14 -86 34.5 -171t55.5 -177q-14 -6 -34.5 -5t-37.5 9q-39 78 -96 173t-114 167z" />
<glyph unicode="&#xc1;" horiz-adv-x="1406" d="M-55 -6q0 23 3 45t13 43q29 8 51.5 22.5t45 40t49 65.5t61.5 99l309 536l303 539q18 8 41 10.5t39 2.5l154 -561q74 -281 141 -566q14 -57 26.5 -91t26 -53.5t29.5 -28.5t39 -15q6 -23 7 -44v-15q0 -15 -1 -29q-51 4 -115.5 5t-111.5 1q-53 0 -112.5 -1t-121.5 -5 q0 23 3 45t14 43q45 6 72.5 15t40 27.5t12.5 48.5t-13 77l-47 199q-129 0 -276.5 -2.5t-270.5 -6.5l-86 -147q-35 -59 -50 -97t-10 -61.5t27.5 -35t63.5 -17.5q7 -34 7 -70q0 -9 -1 -18q-49 4 -95 5t-93 1q-53 0 -91 -1t-83 -5zM416 543h463l-48 187l-51 185 q-16 59 -27.5 105.5t-21.5 109.5l-57 -113l-62 -116l-96 -179zM764 1554q68 106 117 199.5t74 158.5q61 16 116.5 12.5t94.5 -30.5q-78 -74 -164 -169t-164 -200q-45 4 -74 29z" />
<glyph unicode="&#xc2;" horiz-adv-x="1406" d="M-55 -6q0 23 3 45t13 43q29 8 51.5 22.5t45 40t49 65.5t61.5 99l309 536l303 539q18 8 41 10.5t39 2.5l154 -561q74 -281 141 -566q14 -57 26.5 -91t26 -53.5t29.5 -28.5t39 -15q6 -23 7 -44v-15q0 -15 -1 -29q-51 4 -115.5 5t-111.5 1q-53 0 -112.5 -1t-121.5 -5 q0 23 3 45t14 43q45 6 72.5 15t40 27.5t12.5 48.5t-13 77l-47 199q-129 0 -276.5 -2.5t-270.5 -6.5l-86 -147q-35 -59 -50 -97t-10 -61.5t27.5 -35t63.5 -17.5q7 -34 7 -70q0 -9 -1 -18q-49 4 -95 5t-93 1q-53 0 -91 -1t-83 -5zM416 543h463l-48 187l-51 185 q-16 59 -27.5 105.5t-21.5 109.5l-57 -113l-62 -116l-96 -179zM573 1624q86 61 166 127.5t153 138.5q39 6 78 -14q47 -74 98.5 -143.5l106.5 -137.5q-6 -20 -23.5 -36.5t-37.5 -22.5q-57 47 -118 89t-124 76q-74 -37 -143.5 -78.5t-137.5 -91.5q-12 18 -17 44t-1 49z" />
<glyph unicode="&#xc3;" horiz-adv-x="1406" d="M-55 -6q0 23 3 45t13 43q29 8 51.5 22.5t45 40t49 65.5t61.5 99l309 536l303 539q18 8 41 10.5t39 2.5l154 -561q74 -281 141 -566q14 -57 26.5 -91t26 -53.5t29.5 -28.5t39 -15q6 -23 7 -44v-15q0 -15 -1 -29q-51 4 -115.5 5t-111.5 1q-53 0 -112.5 -1t-121.5 -5 q0 23 3 45t14 43q45 6 72.5 15t40 27.5t12.5 48.5t-13 77l-47 199q-129 0 -276.5 -2.5t-270.5 -6.5l-86 -147q-35 -59 -50 -97t-10 -61.5t27.5 -35t63.5 -17.5q7 -34 7 -70q0 -9 -1 -18q-49 4 -95 5t-93 1q-53 0 -91 -1t-83 -5zM416 543h463l-48 187l-51 185 q-16 59 -27.5 105.5t-21.5 109.5l-57 -113l-62 -116l-96 -179zM506 1558q78 100 140.5 136t109.5 36q37 0 69.5 -13.5t63.5 -29.5l58.5 -29.5t56.5 -13.5q41 0 78 19.5t71 54.5q25 -10 37 -41q-35 -53 -65.5 -88t-57 -55.5t-51 -27.5t-47.5 -7q-35 0 -67.5 13t-63.5 30.5 t-62.5 31t-64.5 13.5q-47 0 -89 -16.5t-95 -61.5q-25 16 -21 49z" />
<glyph unicode="&#xc4;" horiz-adv-x="1406" d="M-55 -6q0 23 3 45t13 43q29 8 51.5 22.5t45 40t49 65.5t61.5 99l309 536l303 539q18 8 41 10.5t39 2.5l154 -561q74 -281 141 -566q14 -57 26.5 -91t26 -53.5t29.5 -28.5t39 -15q6 -23 7 -44v-15q0 -15 -1 -29q-51 4 -115.5 5t-111.5 1q-53 0 -112.5 -1t-121.5 -5 q0 23 3 45t14 43q45 6 72.5 15t40 27.5t12.5 48.5t-13 77l-47 199q-129 0 -276.5 -2.5t-270.5 -6.5l-86 -147q-35 -59 -50 -97t-10 -61.5t27.5 -35t63.5 -17.5q7 -34 7 -70q0 -9 -1 -18q-49 4 -95 5t-93 1q-53 0 -91 -1t-83 -5zM416 543h463l-48 187l-51 185 q-16 59 -27.5 105.5t-21.5 109.5l-57 -113l-62 -116l-96 -179zM614 1667q16 90 113 90q53 0 76.5 -34t13.5 -87q-27 -100 -115 -100q-51 0 -75.5 36t-12.5 95zM930 1660q16 96 119 97q49 0 73.5 -31t14.5 -84q-10 -51 -40 -77.5t-77 -26.5q-51 0 -75.5 33.5t-14.5 88.5z" />
<glyph unicode="&#xc5;" horiz-adv-x="1406" d="M-55 -6q0 23 3 45t13 43q29 8 51.5 22.5t45 40t49 65.5t61.5 99l309 536l303 539q18 8 41 10.5t39 2.5l154 -561q74 -281 141 -566q14 -57 26.5 -91t26 -53.5t29.5 -28.5t39 -15q6 -23 7 -44v-15q0 -15 -1 -29q-51 4 -115.5 5t-111.5 1q-53 0 -112.5 -1t-121.5 -5 q0 23 3 45t14 43q45 6 72.5 15t40 27.5t12.5 48.5t-13 77l-47 199q-129 0 -276.5 -2.5t-270.5 -6.5l-86 -147q-35 -59 -50 -97t-10 -61.5t27.5 -35t63.5 -17.5q7 -34 7 -70q0 -9 -1 -18q-49 4 -95 5t-93 1q-53 0 -91 -1t-83 -5zM416 543h463l-48 187l-51 185 q-16 59 -27.5 105.5t-21.5 109.5l-57 -113l-62 -116l-96 -179zM680 1726q12 78 71.5 124t158.5 46q96 0 145 -57.5t33 -153.5q-10 -72 -69.5 -117t-158.5 -45q-98 0 -147 55.5t-33 147.5zM789 1716q-10 -53 14.5 -85t71.5 -32q39 0 65.5 23.5t32.5 64.5q12 63 -10.5 101 t-71.5 38q-37 0 -64.5 -30.5t-37.5 -79.5z" />
<glyph unicode="&#xc6;" horiz-adv-x="1732" d="M-55 -6q0 23 3 45t13 43q29 8 53.5 19.5t50 33t57.5 56t75 90.5l316 419l296 402q131 182 -66 201q-8 39 -2 88q63 -2 118 -3l109 -3q54 -1 113 -1h131q119 0 249 1t290 6q-10 -78 -14 -170.5t0 -163.5q-39 -16 -103 -15q-2 66 -11 113t-38 78t-86 45t-156 14h-147 l-100 -594h86q63 0 108 7.5t76 27t48.5 52t25.5 83.5q27 4 48 5t50 -3l-22.5 -99t-20.5 -128q-10 -74 -15 -129l-10 -106q-29 4 -52 9t-42 17q8 102 -35 139t-167 37h-95l-53 -317q-10 -66 -9 -106t17.5 -61.5t53 -27.5t96.5 -6q94 0 155.5 17.5t103.5 50.5t72.5 82 t61.5 110q29 -4 51.5 -14t40.5 -31q-35 -66 -63.5 -144.5t-46.5 -168.5q-92 4 -186.5 5t-209.5 1q-150 0 -271.5 -1t-244.5 -5q0 47 15 88q47 6 75.5 17.5t47 34t28.5 61t21 98.5l55 317q-86 0 -171 -1t-163 -5l-258 -354q-55 -76 -55 -114t59 -54q8 -43 6 -88q-49 4 -95 5 t-93 1q-53 0 -91 -1t-83 -5zM623 698h282l62 355q10 59 21 111.5t24 92.5h-2l-152 -227z" />
<glyph unicode="&#xc7;" horiz-adv-x="1259" d="M104 672q25 193 105 331t191.5 227t244.5 131t264 42q129 0 230.5 -30t203.5 -91q-27 -70 -42 -145.5t-25 -163.5q-51 -20 -111 -4q14 109 3 177t-43.5 106t-84 52.5t-116.5 14.5q-131 0 -236.5 -50t-181.5 -136t-123 -203t-61 -248q-12 -115 5 -219.5t67 -183t134 -126 t205 -47.5q113 0 215.5 32t194.5 87q29 -29 33 -78q-117 -84 -236 -122.5t-244 -42.5l-78 -95q76 -16 110 -66t15 -145q-18 -88 -101 -132t-200 -40q-8 27 -2 66q76 0 124 24.5t59 77.5q10 59 -22 90t-89 31q-14 12 -20.5 31.5t0.5 46.5l94 115q-135 16 -233.5 75.5 t-159 150.5t-83 209t-6.5 251z" />
<glyph unicode="&#xc8;" horiz-adv-x="1124" d="M474 1888q41 16 93 18t99 -14q14 -86 34.5 -171t55.5 -177q-14 -6 -34.5 -5t-37.5 9q-39 78 -96 173t-114 167zM39 -6q0 47 14 88q47 6 76 17.5t47.5 34t28.5 61t20 98.5l148 842q7 46 7 74q0 36 -13 56q-12 17 -38 24t-65 14q-4 20 -5 41.5t3 46.5q106 -4 196.5 -5.5 t145.5 -1.5q119 0 249 1t290 6q-10 -78 -15 -170q-2 -46 -2 -87t2 -77q-35 -15 -88 -15h-14q-2 66 -11 113t-38 78t-86 45t-156 14h-147l-92 -547h84q63 0 108 7.5t76 26t48 51t26 83.5q27 4 48 5.5t50 -3.5l-22.5 -99t-20.5 -128q-10 -74 -15.5 -129t-9.5 -106q-29 4 -52 9 t-42 17q1 16 1 31q0 77 -36 107q-43 36 -168 36h-92l-61 -360q-10 -66 -10 -104.5t16 -60.5t51 -29t92 -7h8q94 0 156 17.5t104 50.5t72.5 82t61.5 110q29 -4 51 -14t41 -31q-35 -66 -63.5 -144.5t-47.5 -168.5q-92 4 -186 5t-209 1q-150 0 -271.5 -1t-244.5 -5z" />
<glyph unicode="&#xc9;" horiz-adv-x="1124" d="M39 -6q0 47 14 88q47 6 76 17.5t47.5 34t28.5 61t20 98.5l148 842q7 46 7 74q0 36 -13 56q-12 17 -38 24t-65 14q-4 20 -5 41.5t3 46.5q106 -4 196.5 -5.5t145.5 -1.5q119 0 249 1t290 6q-10 -78 -15 -170q-2 -46 -2 -87t2 -77q-35 -15 -88 -15h-14q-2 66 -11 113t-38 78 t-86 45t-156 14h-147l-92 -547h84q63 0 108 7.5t76 26t48 51t26 83.5q27 4 48 5.5t50 -3.5l-22.5 -99t-20.5 -128q-10 -74 -15.5 -129t-9.5 -106q-29 4 -52 9t-42 17q1 16 1 31q0 77 -36 107q-43 36 -168 36h-92l-61 -360q-10 -66 -10 -104.5t16 -60.5t51 -29t92 -7h8 q94 0 156 17.5t104 50.5t72.5 82t61.5 110q29 -4 51 -14t41 -31q-35 -66 -63.5 -144.5t-47.5 -168.5q-92 4 -186 5t-209 1q-150 0 -271.5 -1t-244.5 -5zM643 1554q68 106 117 199.5t74 158.5q61 16 116.5 12.5t94.5 -30.5q-78 -74 -164 -169t-164 -200q-45 4 -74 29z" />
<glyph unicode="&#xca;" horiz-adv-x="1124" d="M453 1624q86 61 166 127.5t153 138.5q39 6 78 -14q47 -74 98.5 -143.5l106.5 -137.5q-6 -20 -23.5 -36.5t-37.5 -22.5q-57 47 -118 89t-124 76q-74 -37 -143.5 -78.5t-137.5 -91.5q-12 18 -17 44t-1 49zM39 -6q0 47 14 88q47 6 76 17.5t47.5 34t28.5 61t20 98.5l148 842 q7 46 7 74q0 36 -13 56q-12 17 -38 24t-65 14q-4 20 -5 41.5t3 46.5q106 -4 196.5 -5.5t145.5 -1.5q119 0 249 1t290 6q-10 -78 -15 -170q-2 -46 -2 -87t2 -77q-35 -15 -88 -15h-14q-2 66 -11 113t-38 78t-86 45t-156 14h-147l-92 -547h84q63 0 108 7.5t76 26t48 51t26 83.5 q27 4 48 5.5t50 -3.5l-22.5 -99t-20.5 -128q-10 -74 -15.5 -129t-9.5 -106q-29 4 -52 9t-42 17q1 16 1 31q0 77 -36 107q-43 36 -168 36h-92l-61 -360q-10 -66 -10 -104.5t16 -60.5t51 -29t92 -7h8q94 0 156 17.5t104 50.5t72.5 82t61.5 110q29 -4 51 -14t41 -31 q-35 -66 -63.5 -144.5t-47.5 -168.5q-92 4 -186 5t-209 1q-150 0 -271.5 -1t-244.5 -5z" />
<glyph unicode="&#xcb;" horiz-adv-x="1124" d="M493 1667q16 90 113 90q53 0 76.5 -34t13.5 -87q-27 -100 -115 -100q-51 0 -75.5 36t-12.5 95zM809 1660q16 96 119 97q49 0 73.5 -31t14.5 -84q-10 -51 -40 -77.5t-77 -26.5q-51 0 -75.5 33.5t-14.5 88.5zM39 -6q0 47 14 88q47 6 76 17.5t47.5 34t28.5 61t20 98.5 l148 842q7 46 7 74q0 36 -13 56q-12 17 -38 24t-65 14q-4 20 -5 41.5t3 46.5q106 -4 196.5 -5.5t145.5 -1.5q119 0 249 1t290 6q-10 -78 -15 -170q-2 -46 -2 -87t2 -77q-35 -15 -88 -15h-14q-2 66 -11 113t-38 78t-86 45t-156 14h-147l-92 -547h84q63 0 108 7.5t76 26t48 51 t26 83.5q27 4 48 5.5t50 -3.5l-22.5 -99t-20.5 -128q-10 -74 -15.5 -129t-9.5 -106q-29 4 -52 9t-42 17q1 16 1 31q0 77 -36 107q-43 36 -168 36h-92l-61 -360q-10 -66 -10 -104.5t16 -60.5t51 -29t92 -7h8q94 0 156 17.5t104 50.5t72.5 82t61.5 110q29 -4 51 -14t41 -31 q-35 -66 -63.5 -144.5t-47.5 -168.5q-92 4 -186 5t-209 1q-150 0 -271.5 -1t-244.5 -5z" />
<glyph unicode="&#xcc;" horiz-adv-x="731" d="M281 1888q41 16 93 18t99 -14q14 -86 34.5 -171t55.5 -177q-14 -6 -34.5 -5t-37.5 9q-39 78 -96 173t-114 167zM59 -6q0 51 17 88q41 4 68.5 13t45 28.5t27.5 52.5t21 84l149 864q7 41 7 70q0 7 -1 14q-2 33 -16.5 51.5t-42 27.5t-70.5 16q-4 20 -5 41.5t3 46.5 q113 -6 246 -7q127 0 250 7q-2 -25 -5 -46.5t-14 -41.5q-39 -6 -65.5 -16.5t-44 -30t-29.5 -51t-20 -81.5l-150 -864q-9 -47 -9 -78q0 -37 15 -57q14 -18 42 -27.5t73 -15.5q6 -26 6 -54q0 -17 -2 -34q-123 6 -248 6q-59 0 -127 -1t-121 -5z" />
<glyph unicode="&#xcd;" horiz-adv-x="731" d="M450 1554q68 106 117 199.5t74 158.5q61 16 116.5 12.5t94.5 -30.5q-78 -74 -164 -169t-164 -200q-45 4 -74 29zM59 -6q0 51 17 88q41 4 68.5 13t45 28.5t27.5 52.5t21 84l149 864q7 41 7 70q0 7 -1 14q-2 33 -16.5 51.5t-42 27.5t-70.5 16q-4 20 -5 41.5t3 46.5 q113 -6 246 -7q127 0 250 7q-2 -25 -5 -46.5t-14 -41.5q-39 -6 -65.5 -16.5t-44 -30t-29.5 -51t-20 -81.5l-150 -864q-9 -47 -9 -78q0 -37 15 -57q14 -18 42 -27.5t73 -15.5q6 -26 6 -54q0 -17 -2 -34q-123 6 -248 6q-59 0 -127 -1t-121 -5z" />
<glyph unicode="&#xce;" horiz-adv-x="731" d="M260 1624q86 61 166 127.5t153 138.5q39 6 78 -14q47 -74 98.5 -143.5l106.5 -137.5q-6 -20 -23.5 -36.5t-37.5 -22.5q-57 47 -118 89t-124 76q-74 -37 -143.5 -78.5t-137.5 -91.5q-12 18 -17 44t-1 49zM59 -6q0 51 17 88q41 4 68.5 13t45 28.5t27.5 52.5t21 84l149 864 q7 41 7 70q0 7 -1 14q-2 33 -16.5 51.5t-42 27.5t-70.5 16q-4 20 -5 41.5t3 46.5q113 -6 246 -7q127 0 250 7q-2 -25 -5 -46.5t-14 -41.5q-39 -6 -65.5 -16.5t-44 -30t-29.5 -51t-20 -81.5l-150 -864q-9 -47 -9 -78q0 -37 15 -57q14 -18 42 -27.5t73 -15.5q6 -26 6 -54 q0 -17 -2 -34q-123 6 -248 6q-59 0 -127 -1t-121 -5z" />
<glyph unicode="&#xcf;" horiz-adv-x="731" d="M303 1667q16 90 113 90q53 0 76.5 -34t13.5 -87q-27 -100 -115 -100q-51 0 -75.5 36t-12.5 95zM619 1660q16 96 119 97q49 0 73.5 -31t14.5 -84q-10 -51 -40 -77.5t-77 -26.5q-51 0 -75.5 33.5t-14.5 88.5zM59 -6q0 51 17 88q41 4 68.5 13t45 28.5t27.5 52.5t21 84 l149 864q7 41 7 70q0 7 -1 14q-2 33 -16.5 51.5t-42 27.5t-70.5 16q-4 20 -5 41.5t3 46.5q113 -6 246 -7q127 0 250 7q-2 -25 -5 -46.5t-14 -41.5q-39 -6 -65.5 -16.5t-44 -30t-29.5 -51t-20 -81.5l-150 -864q-9 -47 -9 -78q0 -37 15 -57q14 -18 42 -27.5t73 -15.5 q6 -26 6 -54q0 -17 -2 -34q-123 6 -248 6q-59 0 -127 -1t-121 -5z" />
<glyph unicode="&#xd0;" horiz-adv-x="1484" d="M51 -6q4 51 17 88q45 6 74.5 17.5t48 34t29.5 61t22 98.5l59 334q-41 0 -74.5 -1t-62.5 -3q2 55 22 92h129l74 420q8 51 5 82.5t-18.5 49t-43 25.5t-66.5 13q-6 23 -7 44t3 42q66 -4 142.5 -5.5t140.5 -1.5q66 0 131 3.5t127 3.5q92 0 184 -12.5t174 -43t149.5 -84 t110.5 -134.5t55.5 -193.5t-16.5 -261.5q-31 -170 -107.5 -294t-192.5 -206t-264 -122t-325 -40h-6h-121q-66 0 -133 -1l-134 -2q-67 -1 -126 -3zM422 180q0 -35 15.5 -54.5t49 -26.5t93.5 -7q125 0 234.5 31t195.5 97.5t147.5 171t89.5 253.5q37 190 9.5 316t-99.5 202 t-178.5 108t-226.5 32q-41 0 -76 -4.5t-70 -12.5l-98 -571h135q4 -47 -14 -86h-135l-62 -357q-10 -57 -10 -92z" />
<glyph unicode="&#xd1;" horiz-adv-x="1462" d="M49 -6q2 49 14 88q39 6 67 21.5t48.5 46t35.5 80t30 122.5l79 434l74 435l-6 10q-23 39 -49.5 53t-75.5 19q-6 23 -6 51q0 17 2 37q31 -4 59.5 -5.5t63.5 -1.5q88 0 141 7l324 -538l309 -544l123 713q12 80 14 131q0 7 1 13q0 42 -12 69q-13 31 -40.5 45t-73.5 23 q-4 20 -5 41.5t3 46.5q45 -4 95.5 -5.5t91.5 -1.5q47 0 102 1t96 6q0 -18 -4 -43t-12 -45q-35 -10 -58.5 -28t-41 -51.5t-30.5 -87t-26 -135.5l-84 -505l-90 -504q-16 -6 -38.5 -8t-45.5 -2l-316 556l-329 549l-60 -357l-67 -357q-16 -82 -18 -134v-15q0 -42 10 -70 q12 -33 42 -48.5t77 -23.5q6 -22 6 -51q0 -17 -2 -37q-61 4 -121.5 5t-101.5 1q-47 0 -87 -1t-108 -5zM559 1558q78 100 140.5 136t109.5 36q37 0 69.5 -13.5t63.5 -29.5l58.5 -29.5t56.5 -13.5q41 0 78 19.5t71 54.5q25 -10 37 -41q-35 -53 -65.5 -88t-57 -55.5t-51 -27.5 t-47.5 -7q-35 0 -67.5 13t-63.5 30.5t-62.5 31t-64.5 13.5q-47 0 -89 -16.5t-95 -61.5q-25 16 -21 49z" />
<glyph unicode="&#xd2;" horiz-adv-x="1476" d="M637 1888q41 16 93 18t99 -14q14 -86 34.5 -171t55.5 -177q-14 -6 -34.5 -5t-37.5 9q-39 78 -96 173t-114 167zM114 447q-12 64 -13 135q0 88 20 186q25 133 93.5 249t167.5 202t224 135t266 49q147 0 269.5 -52.5t201 -152.5t107.5 -250q13 -65 13 -139q0 -95 -21 -203 q-25 -129 -90.5 -242.5t-162.5 -198.5t-224 -134t-275 -49q-154 0 -274.5 57t-197 160.5t-104.5 247.5zM318 508q13 -129 63.5 -226.5t137.5 -153.5t208 -56q100 0 184 40t148.5 111.5t108.5 167.5t65 211q17 95 17 180q0 55 -7 107q-18 131 -73.5 225t-141.5 146.5 t-194 52.5q-92 0 -174 -42t-148 -115t-112 -169t-66 -205q-20 -99 -20 -191q0 -42 4 -83z" />
<glyph unicode="&#xd3;" horiz-adv-x="1476" d="M114 447q-12 64 -13 135q0 88 20 186q25 133 93.5 249t167.5 202t224 135t266 49q147 0 269.5 -52.5t201 -152.5t107.5 -250q13 -65 13 -139q0 -95 -21 -203q-25 -129 -90.5 -242.5t-162.5 -198.5t-224 -134t-275 -49q-154 0 -274.5 57t-197 160.5t-104.5 247.5zM318 508 q13 -129 63.5 -226.5t137.5 -153.5t208 -56q100 0 184 40t148.5 111.5t108.5 167.5t65 211q17 95 17 180q0 55 -7 107q-18 131 -73.5 225t-141.5 146.5t-194 52.5q-92 0 -174 -42t-148 -115t-112 -169t-66 -205q-20 -99 -20 -191q0 -42 4 -83zM807 1554q68 106 117 199.5 t74 158.5q61 16 116.5 12.5t94.5 -30.5q-78 -74 -164 -169t-164 -200q-45 4 -74 29z" />
<glyph unicode="&#xd4;" horiz-adv-x="1476" d="M114 447q-12 64 -13 135q0 88 20 186q25 133 93.5 249t167.5 202t224 135t266 49q147 0 269.5 -52.5t201 -152.5t107.5 -250q13 -65 13 -139q0 -95 -21 -203q-25 -129 -90.5 -242.5t-162.5 -198.5t-224 -134t-275 -49q-154 0 -274.5 57t-197 160.5t-104.5 247.5zM318 508 q13 -129 63.5 -226.5t137.5 -153.5t208 -56q100 0 184 40t148.5 111.5t108.5 167.5t65 211q17 95 17 180q0 55 -7 107q-18 131 -73.5 225t-141.5 146.5t-194 52.5q-92 0 -174 -42t-148 -115t-112 -169t-66 -205q-20 -99 -20 -191q0 -42 4 -83zM616 1624q86 61 166 127.5 t153 138.5q39 6 78 -14q47 -74 98.5 -143.5l106.5 -137.5q-6 -20 -23.5 -36.5t-37.5 -22.5q-57 47 -118 89t-124 76q-74 -37 -143.5 -78.5t-137.5 -91.5q-12 18 -17 44t-1 49z" />
<glyph unicode="&#xd5;" horiz-adv-x="1476" d="M549 1558q78 100 140.5 136t109.5 36q37 0 69.5 -13.5t63.5 -29.5l58.5 -29.5t56.5 -13.5q41 0 78 19.5t71 54.5q25 -10 37 -41q-35 -53 -65.5 -88t-57 -55.5t-51 -27.5t-47.5 -7q-35 0 -67.5 13t-63.5 30.5t-62.5 31t-64.5 13.5q-47 0 -89 -16.5t-95 -61.5 q-25 16 -21 49zM114 447q-12 64 -13 135q0 88 20 186q25 133 93.5 249t167.5 202t224 135t266 49q147 0 269.5 -52.5t201 -152.5t107.5 -250q13 -65 13 -139q0 -95 -21 -203q-25 -129 -90.5 -242.5t-162.5 -198.5t-224 -134t-275 -49q-154 0 -274.5 57t-197 160.5 t-104.5 247.5zM318 508q13 -129 63.5 -226.5t137.5 -153.5t208 -56q100 0 184 40t148.5 111.5t108.5 167.5t65 211q17 95 17 180q0 55 -7 107q-18 131 -73.5 225t-141.5 146.5t-194 52.5q-92 0 -174 -42t-148 -115t-112 -169t-66 -205q-20 -99 -20 -191q0 -42 4 -83z" />
<glyph unicode="&#xd6;" horiz-adv-x="1476" d="M114 447q-12 64 -13 135q0 88 20 186q25 133 93.5 249t167.5 202t224 135t266 49q147 0 269.5 -52.5t201 -152.5t107.5 -250q13 -65 13 -139q0 -95 -21 -203q-25 -129 -90.5 -242.5t-162.5 -198.5t-224 -134t-275 -49q-154 0 -274.5 57t-197 160.5t-104.5 247.5zM318 508 q13 -129 63.5 -226.5t137.5 -153.5t208 -56q100 0 184 40t148.5 111.5t108.5 167.5t65 211q17 95 17 180q0 55 -7 107q-18 131 -73.5 225t-141.5 146.5t-194 52.5q-92 0 -174 -42t-148 -115t-112 -169t-66 -205q-20 -99 -20 -191q0 -42 4 -83zM657 1667q16 90 113 90 q53 0 76.5 -34t13.5 -87q-27 -100 -115 -100q-51 0 -75.5 36t-12.5 95zM973 1660q16 96 119 97q49 0 73.5 -31t14.5 -84q-10 -51 -40 -77.5t-77 -26.5q-51 0 -75.5 33.5t-14.5 88.5z" />
<glyph unicode="&#xd7;" horiz-adv-x="1265" d="M-43 29l514 456l-197 222l-200 221q39 35 104 35l367 -412l487 434q31 -8 51.5 -23.5t36.5 -43.5l-227 -197l-279 -248l402 -450q-23 -23 -52.5 -30t-60.5 -3l-362 418l-253 -227l-227 -206q-33 4 -61.5 20t-42.5 34z" />
<glyph unicode="&#xd8;" horiz-adv-x="1476" d="M98 31l135 147q-86 104 -116.5 254t4.5 336q25 133 93.5 249t167.5 202t224 135t266 49q229 0 383 -119l109 119q33 0 59.5 -12.5t40.5 -30.5l-137 -143q88 -100 122 -253t-7 -358q-25 -129 -90.5 -242.5t-162.5 -198.5t-224 -134t-275 -49q-117 0 -214 32.5t-173 94.5 l-113 -127q-33 0 -57.5 13t-34.5 36zM316.5 531.5q7.5 -117.5 48.5 -212.5l774 840q-55 74 -133 114t-172 40q-92 0 -174 -42t-148 -115t-112 -169t-66 -205q-25 -133 -17.5 -250.5zM414 231q53 -76 131 -117.5t182 -41.5q100 0 184 40t148.5 111.5t108.5 167.5t65 211 q27 141 13.5 260t-56.5 211l-392 -420z" />
<glyph unicode="&#xd9;" horiz-adv-x="1300" d="M203 524l104 611q8 47 9 77.5t-8 49t-30.5 27.5t-54.5 14q-5 20 -4 45q0 19 2 43q72 -4 120 -5.5t108 -1.5q66 0 117.5 1t127.5 6q-2 -25 -5 -45.5t-13 -42.5q-47 -4 -78 -13.5t-50.5 -30t-30.5 -55.5t-21 -90l-101 -582q-14 -81 -14 -145q0 -29 3 -55q9 -84 45 -138.5 t94.5 -79t133.5 -24.5q152 0 251.5 107.5t133.5 306.5l97 549q12 66 12 107.5t-12.5 68t-40 43t-70.5 31.5q-5 22 -5 47q0 19 3 41q66 -4 113 -5.5t90 -1.5h46q22 0 45 1t51 2.5l63 3.5q0 -45 -19 -88q-43 -14 -71.5 -31t-47 -45.5t-32 -74.5t-25.5 -120l-90 -510 q-49 -279 -179 -409.5t-354 -130.5q-260 0 -359 143q-68 99 -68 250q0 69 14 149zM631 1888q41 16 93 18t99 -14q14 -86 34.5 -171t55.5 -177q-14 -6 -34.5 -5t-37.5 9q-39 78 -96 173t-114 167z" />
<glyph unicode="&#xda;" horiz-adv-x="1300" d="M203 524l104 611q8 47 9 77.5t-8 49t-30.5 27.5t-54.5 14q-5 20 -4 45q0 19 2 43q72 -4 120 -5.5t108 -1.5q66 0 117.5 1t127.5 6q-2 -25 -5 -45.5t-13 -42.5q-47 -4 -78 -13.5t-50.5 -30t-30.5 -55.5t-21 -90l-101 -582q-14 -81 -14 -145q0 -29 3 -55q9 -84 45 -138.5 t94.5 -79t133.5 -24.5q152 0 251.5 107.5t133.5 306.5l97 549q12 66 12 107.5t-12.5 68t-40 43t-70.5 31.5q-5 22 -5 47q0 19 3 41q66 -4 113 -5.5t90 -1.5h46q22 0 45 1t51 2.5l63 3.5q0 -45 -19 -88q-43 -14 -71.5 -31t-47 -45.5t-32 -74.5t-25.5 -120l-90 -510 q-49 -279 -179 -409.5t-354 -130.5q-260 0 -359 143q-68 99 -68 250q0 69 14 149zM800 1554q68 106 117 199.5t74 158.5q61 16 116.5 12.5t94.5 -30.5q-78 -74 -164 -169t-164 -200q-45 4 -74 29z" />
<glyph unicode="&#xdb;" horiz-adv-x="1300" d="M203 524l104 611q8 47 9 77.5t-8 49t-30.5 27.5t-54.5 14q-5 20 -4 45q0 19 2 43q72 -4 120 -5.5t108 -1.5q66 0 117.5 1t127.5 6q-2 -25 -5 -45.5t-13 -42.5q-47 -4 -78 -13.5t-50.5 -30t-30.5 -55.5t-21 -90l-101 -582q-14 -81 -14 -145q0 -29 3 -55q9 -84 45 -138.5 t94.5 -79t133.5 -24.5q152 0 251.5 107.5t133.5 306.5l97 549q12 66 12 107.5t-12.5 68t-40 43t-70.5 31.5q-5 22 -5 47q0 19 3 41q66 -4 113 -5.5t90 -1.5h46q22 0 45 1t51 2.5l63 3.5q0 -45 -19 -88q-43 -14 -71.5 -31t-47 -45.5t-32 -74.5t-25.5 -120l-90 -510 q-49 -279 -179 -409.5t-354 -130.5q-260 0 -359 143q-68 99 -68 250q0 69 14 149zM610 1624q86 61 166 127.5t153 138.5q39 6 78 -14q47 -74 98.5 -143.5l106.5 -137.5q-6 -20 -23.5 -36.5t-37.5 -22.5q-57 47 -118 89t-124 76q-74 -37 -143.5 -78.5t-137.5 -91.5 q-12 18 -17 44t-1 49z" />
<glyph unicode="&#xdc;" horiz-adv-x="1300" d="M651 1667q16 90 113 90q53 0 76.5 -34t13.5 -87q-27 -100 -115 -100q-51 0 -75.5 36t-12.5 95zM967 1660q16 96 119 97q49 0 73.5 -31t14.5 -84q-10 -51 -40 -77.5t-77 -26.5q-51 0 -75.5 33.5t-14.5 88.5zM203 524l104 611q8 47 9 77.5t-8 49t-30.5 27.5t-54.5 14 q-5 20 -4 45q0 19 2 43q72 -4 120 -5.5t108 -1.5q66 0 117.5 1t127.5 6q-2 -25 -5 -45.5t-13 -42.5q-47 -4 -78 -13.5t-50.5 -30t-30.5 -55.5t-21 -90l-101 -582q-14 -81 -14 -145q0 -29 3 -55q9 -84 45 -138.5t94.5 -79t133.5 -24.5q152 0 251.5 107.5t133.5 306.5l97 549 q12 66 12 107.5t-12.5 68t-40 43t-70.5 31.5q-5 22 -5 47q0 19 3 41q66 -4 113 -5.5t90 -1.5h46q22 0 45 1t51 2.5l63 3.5q0 -45 -19 -88q-43 -14 -71.5 -31t-47 -45.5t-32 -74.5t-25.5 -120l-90 -510q-49 -279 -179 -409.5t-354 -130.5q-260 0 -359 143q-68 99 -68 250 q0 69 14 149z" />
<glyph unicode="&#xdd;" horiz-adv-x="1193" d="M208 1355q0 16 3 36q57 -4 114.5 -5.5t112.5 -1.5q61 0 120.5 1t137.5 6q0 -25 -5 -46.5t-13 -44.5q-100 -14 -127 -48q-12 -15 -12 -38q0 -30 20 -75q41 -92 84 -204t82 -224l80 108l74 102l62 87l46 65q72 107 72 158v5q-4 50 -98 67q-5 22 -5 47q0 19 2 41 q51 -4 94.5 -5.5t102.5 -1.5q49 0 91 1t91 6q0 -45 -18 -88q-18 -6 -33.5 -17.5t-40 -37t-62.5 -75l-98 -133.5l-150 -206l-173 -228l-64 -356q-8 -43 -8 -71.5t14.5 -47t45 -30t86.5 -19.5q6 -27 6 -55q0 -17 -2 -33q-66 4 -133.5 5t-128.5 1q-68 0 -140.5 -1t-128.5 -5 q0 51 15 90q51 8 82.5 19.5t51 31t31 52t21.5 83.5l57 330l-111 285q-54 133 -96 223l-45 93t-33.5 56.5t-30.5 29.5t-38 18q-5 29 -5 50zM768 1554q68 106 117 199.5t74 158.5q61 16 116.5 12.5t94.5 -30.5q-78 -74 -164 -169t-164 -200q-45 4 -74 29z" />
<glyph unicode="&#xde;" horiz-adv-x="1179" d="M59 -6q0 51 17 88q41 4 68.5 13t45 28.5t27.5 52.5t21 84l149 864q8 51 6 84t-16.5 51.5t-42 27.5t-70.5 16q-4 20 -5 41.5t3 46.5q113 -6 246 -7q127 0 250 7q-2 -25 -5 -46.5t-14 -41.5q-41 -6 -67.5 -16.5t-44 -31t-28.5 -56.5t-24 -95q53 2 110 2h106 q115 0 192.5 -32t121.5 -87t58.5 -128t-0.5 -154q-12 -70 -53 -140.5t-107.5 -127t-158.5 -92.5t-207 -36q-47 0 -83 7.5t-56 23.5q-10 33 2 66q31 -18 106 -19q57 0 115.5 14.5t108 50t86 97t53.5 153.5q12 72 3 132.5t-44 103.5t-95.5 66.5t-150.5 23.5q-33 0 -57.5 -2 t-63.5 -12l-131 -754q-10 -51 -9 -84t15.5 -51.5t42 -27.5t72.5 -15q10 -41 4 -88q-123 6 -248 6q-59 0 -127 -1t-121 -5z" />
<glyph unicode="&#xdf;" horiz-adv-x="1075" d="M-297 -434q-2 33 2 64.5t12 58.5q68 -18 120 -25.5t110 -7.5q39 0 65.5 16.5t47 66.5t39 141t40.5 241q10 61 22 144l23 176q12 93 27 192l29 192q-74 12 -150 13q0 47 23 80h141v8q18 109 55 206t98.5 170.5t150.5 116.5t212 43q90 0 143.5 -25.5t80 -65.5t30.5 -89 t-4 -94q-14 -66 -41 -116t-60.5 -88t-69.5 -66l-68 -54q-32 -25 -53 -48t-28 -50q-10 -47 9.5 -85t53.5 -73t74 -71.5t71.5 -81.5t48 -102.5t4.5 -135.5q-20 -117 -102.5 -174t-203.5 -57q-88 0 -144 24.5t-97 61.5q43 109 53 227q23 6 44 10t42 2q-8 -123 23.5 -182 t113.5 -59q53 0 87 26.5t44 83.5q8 49 -12.5 91t-55 80t-75.5 77t-74 85t-50 100.5t-3 123.5q8 45 33.5 77t58.5 58.5t71 51t71.5 54.5t60 67.5t37.5 93.5q8 43 2 85t-28.5 74.5t-62.5 52t-98 19.5q-84 0 -140 -104.5t-103 -350.5l-36 -196l-32 -185l-26 -158 q-11 -71 -17 -114q-27 -170 -71 -311t-102 -242.5t-130 -159t-158 -57.5q-41 0 -87 18.5t-91 55.5z" />
<glyph unicode="&#xe0;" horiz-adv-x="989" d="M59 84q-21 50 -21 130q0 84 23 200q25 119 76 218t124 170.5t162 112.5t189 41q29 0 61 -5t54 -13q31 0 63.5 4t53.5 14q8 -4 15 -12t9 -28.5t-2 -57.5t-18 -98l-103 -459q-12 -59 -18 -94t-4 -53.5t11 -24.5t26 -6q23 0 47 13.5t65 47.5q14 -14 22.5 -29.5t14.5 -33.5 q-49 -57 -111.5 -98t-115.5 -41q-70 0 -101.5 33.5t-37.5 82.5q-2 16 -2 34q0 34 8 71q12 55 31 98h-2q-29 -57 -70 -113.5t-89 -102.5t-102.5 -74.5t-111.5 -28.5q-103 0 -146 102zM241 241q17 -93 78 -94q27 0 71 37t91 106.5t93.5 170t76.5 227.5l35 143q-53 20 -125 21 q-63 0 -112.5 -25.5t-86 -70.5t-62.5 -108.5t-40 -139.5q-25 -118 -25 -199q0 -38 6 -68zM365 1442q41 16 93 18t99 -14q14 -86 34.5 -171t55.5 -177q-14 -6 -34.5 -5t-37.5 9q-39 78 -96 173t-114 167z" />
<glyph unicode="&#xe1;" horiz-adv-x="989" d="M59 84q-21 50 -21 130q0 84 23 200q25 119 76 218t124 170.5t162 112.5t189 41q29 0 61 -5t54 -13q31 0 63.5 4t53.5 14q8 -4 15 -12t9 -28.5t-2 -57.5t-18 -98l-103 -459q-12 -59 -18 -94t-4 -53.5t11 -24.5t26 -6q23 0 47 13.5t65 47.5q14 -14 22.5 -29.5t14.5 -33.5 q-49 -57 -111.5 -98t-115.5 -41q-70 0 -101.5 33.5t-37.5 82.5q-2 16 -2 34q0 34 8 71q12 55 31 98h-2q-29 -57 -70 -113.5t-89 -102.5t-102.5 -74.5t-111.5 -28.5q-103 0 -146 102zM241 241q17 -93 78 -94q27 0 71 37t91 106.5t93.5 170t76.5 227.5l35 143q-53 20 -125 21 q-63 0 -112.5 -25.5t-86 -70.5t-62.5 -108.5t-40 -139.5q-25 -118 -25 -199q0 -38 6 -68zM534 1108q68 106 117 199.5t74 158.5q61 16 116.5 12.5t94.5 -30.5q-78 -74 -164 -169t-164 -200q-45 4 -74 29z" />
<glyph unicode="&#xe2;" horiz-adv-x="989" d="M59 84q-21 50 -21 130q0 84 23 200q25 119 76 218t124 170.5t162 112.5t189 41q29 0 61 -5t54 -13q31 0 63.5 4t53.5 14q8 -4 15 -12t9 -28.5t-2 -57.5t-18 -98l-103 -459q-12 -59 -18 -94t-4 -53.5t11 -24.5t26 -6q23 0 47 13.5t65 47.5q14 -14 22.5 -29.5t14.5 -33.5 q-49 -57 -111.5 -98t-115.5 -41q-70 0 -101.5 33.5t-37.5 82.5q-2 16 -2 34q0 34 8 71q12 55 31 98h-2q-29 -57 -70 -113.5t-89 -102.5t-102.5 -74.5t-111.5 -28.5q-103 0 -146 102zM241 241q17 -93 78 -94q27 0 71 37t91 106.5t93.5 170t76.5 227.5l35 143q-53 20 -125 21 q-63 0 -112.5 -25.5t-86 -70.5t-62.5 -108.5t-40 -139.5q-25 -118 -25 -199q0 -38 6 -68zM344 1178q86 61 166 127.5t153 138.5q39 6 78 -14q47 -74 98.5 -143.5l106.5 -137.5q-6 -20 -23.5 -36.5t-37.5 -22.5q-57 47 -118 89t-124 76q-74 -37 -143.5 -78.5t-137.5 -91.5 q-12 18 -17 44t-1 49z" />
<glyph unicode="&#xe3;" horiz-adv-x="989" d="M59 84q-21 50 -21 130q0 84 23 200q25 119 76 218t124 170.5t162 112.5t189 41q29 0 61 -5t54 -13q31 0 63.5 4t53.5 14q8 -4 15 -12t9 -28.5t-2 -57.5t-18 -98l-103 -459q-12 -59 -18 -94t-4 -53.5t11 -24.5t26 -6q23 0 47 13.5t65 47.5q14 -14 22.5 -29.5t14.5 -33.5 q-49 -57 -111.5 -98t-115.5 -41q-70 0 -101.5 33.5t-37.5 82.5q-2 16 -2 34q0 34 8 71q12 55 31 98h-2q-29 -57 -70 -113.5t-89 -102.5t-102.5 -74.5t-111.5 -28.5q-103 0 -146 102zM241 241q17 -93 78 -94q27 0 71 37t91 106.5t93.5 170t76.5 227.5l35 143q-53 20 -125 21 q-63 0 -112.5 -25.5t-86 -70.5t-62.5 -108.5t-40 -139.5q-25 -118 -25 -199q0 -38 6 -68zM276 1112q78 100 140.5 136t109.5 36q37 0 69.5 -13.5t63.5 -29.5l58.5 -29.5t56.5 -13.5q41 0 78 19.5t71 54.5q25 -10 37 -41q-35 -53 -65.5 -88t-57 -55.5t-51 -27.5t-47.5 -7 q-35 0 -67.5 13t-63.5 30.5t-62.5 31t-64.5 13.5q-47 0 -89 -16.5t-95 -61.5q-25 16 -21 49z" />
<glyph unicode="&#xe4;" horiz-adv-x="989" d="M59 84q-21 50 -21 130q0 84 23 200q25 119 76 218t124 170.5t162 112.5t189 41q29 0 61 -5t54 -13q31 0 63.5 4t53.5 14q8 -4 15 -12t9 -28.5t-2 -57.5t-18 -98l-103 -459q-12 -59 -18 -94t-4 -53.5t11 -24.5t26 -6q23 0 47 13.5t65 47.5q14 -14 22.5 -29.5t14.5 -33.5 q-49 -57 -111.5 -98t-115.5 -41q-70 0 -101.5 33.5t-37.5 82.5q-2 16 -2 34q0 34 8 71q12 55 31 98h-2q-29 -57 -70 -113.5t-89 -102.5t-102.5 -74.5t-111.5 -28.5q-103 0 -146 102zM241 241q17 -93 78 -94q27 0 71 37t91 106.5t93.5 170t76.5 227.5l35 143q-53 20 -125 21 q-63 0 -112.5 -25.5t-86 -70.5t-62.5 -108.5t-40 -139.5q-25 -118 -25 -199q0 -38 6 -68zM385 1221q16 90 113 90q53 0 76.5 -34t13.5 -87q-27 -100 -115 -100q-51 0 -75.5 36t-12.5 95zM701 1214q16 96 119 97q49 0 73.5 -31t14.5 -84q-10 -51 -40 -77.5t-77 -26.5 q-51 0 -75.5 33.5t-14.5 88.5z" />
<glyph unicode="&#xe5;" horiz-adv-x="989" d="M59 84q-21 50 -21 130q0 84 23 200q25 119 76 218t124 170.5t162 112.5t189 41q29 0 61 -5t54 -13q31 0 63.5 4t53.5 14q8 -4 15 -12t9 -28.5t-2 -57.5t-18 -98l-103 -459q-12 -59 -18 -94t-4 -53.5t11 -24.5t26 -6q23 0 47 13.5t65 47.5q14 -14 22.5 -29.5t14.5 -33.5 q-49 -57 -111.5 -98t-115.5 -41q-70 0 -101.5 33.5t-37.5 82.5q-2 16 -2 34q0 34 8 71q12 55 31 98h-2q-29 -57 -70 -113.5t-89 -102.5t-102.5 -74.5t-111.5 -28.5q-103 0 -146 102zM241 241q17 -93 78 -94q27 0 71 37t91 106.5t93.5 170t76.5 227.5l35 143q-53 20 -125 21 q-63 0 -112.5 -25.5t-86 -70.5t-62.5 -108.5t-40 -139.5q-25 -118 -25 -199q0 -38 6 -68zM450 1280q12 78 71.5 124t158.5 46q96 0 145 -57.5t33 -153.5q-10 -72 -69.5 -117t-158.5 -45q-98 0 -147 55.5t-33 147.5zM559 1270q-10 -53 14.5 -85t71.5 -32q39 0 65.5 23.5 t32.5 64.5q12 63 -10.5 101t-71.5 38q-37 0 -64.5 -30.5t-37.5 -79.5z" />
<glyph unicode="&#xe6;" horiz-adv-x="1263" d="M59 84q-43 102 2 330q25 119 76 218t124 170.5t162 112.5t189 41q29 0 61 -5t54 -13q31 0 63.5 4t53.5 14q12 -4 18 -16t4 -45q96 61 187 61q61 0 102 -19t62.5 -51t26.5 -73t-3 -84q-12 -61 -59 -113.5t-114 -91.5t-143.5 -62.5t-146.5 -27.5q-6 -57 -5 -111.5 t13.5 -95.5t39 -66.5t71.5 -25.5t102.5 27.5t102.5 81.5q31 -23 43 -60q-29 -37 -69 -73.5t-86 -65.5t-95 -46t-98 -17q-66 0 -110 26.5t-70.5 70.5t-35 102.5t-1.5 121.5h-2q-23 -49 -62 -106.5t-88 -104.5t-106.5 -78.5t-116.5 -31.5q-103 0 -146 102zM240.5 240.5 q17.5 -93.5 78.5 -93.5q27 0 71 37t91 107.5t93.5 170t76.5 226.5l35 143q-53 20 -125 21q-63 0 -112.5 -25.5t-86 -70.5t-62.5 -108.5t-40 -139.5q-37 -174 -19.5 -267.5zM786 510q115 8 194 57t95 135q4 25 2 49.5t-13 46t-30.5 35t-48.5 13.5q-59 0 -112.5 -78 t-79.5 -213z" />
<glyph unicode="&#xe7;" horiz-adv-x="765" d="M53 308q4 79 21 159q18 94 60 182t103.5 156.5t140.5 109.5t173 41q59 0 94 -10t68 -33q-47 -109 -58 -227q-16 -8 -39.5 -12t-48.5 -4q0 98 -27.5 138t-86.5 40q-31 0 -58.5 -21.5t-52.5 -59.5t-43 -88t-29 -106q-16 -82 -22 -160.5t2 -140t35.5 -99.5t79.5 -38 q59 0 115.5 32t94.5 75q27 -18 43 -58q-59 -78 -140 -129t-152 -67l-82 -101q76 -16 109.5 -66t15.5 -145q-18 -88 -101.5 -132t-199.5 -40q-8 27 -2 66q76 0 124 24.5t58 77.5q10 59 -21.5 90t-89.5 31q-14 12 -20 31.5t0 46.5l96 117q-66 14 -101.5 62t-49 113.5 t-9.5 144.5z" />
<glyph unicode="&#xe8;" horiz-adv-x="737" d="M50 285q3 84 20 168q23 119 71.5 213t111 158.5t134.5 98t139 33.5q61 0 102.5 -19t63 -51t26.5 -73q2 -16 2 -32q0 -26 -5 -52q-12 -63 -63.5 -116.5t-119 -92.5t-143.5 -61.5t-139 -24.5q-5 -46 -5 -91v-15q1 -53 13 -96.5t39 -70t74 -26.5q45 0 102 27.5t102 81.5 q31 -23 43 -60q-29 -37 -68.5 -73.5t-85.5 -65.5t-95.5 -46t-98.5 -17q-86 0 -134 42t-68 109q-18 59 -18 130v22zM258 510q51 2 100.5 15.5t89 38t66.5 59t35 79.5q3 16 3 33q0 8 -1 17q-2 25 -13.5 46t-31 34.5t-47.5 13.5q-59 0 -113.5 -78t-79.5 -213zM279 1442 q41 16 93 18t99 -14q14 -86 34.5 -171t55.5 -177q-14 -6 -34.5 -5t-37.5 9q-39 78 -96 173t-114 167z" />
<glyph unicode="&#xe9;" horiz-adv-x="737" d="M50 285q3 84 20 168q23 119 71.5 213t111 158.5t134.5 98t139 33.5q61 0 102.5 -19t63 -51t26.5 -73q2 -16 2 -32q0 -26 -5 -52q-12 -63 -63.5 -116.5t-119 -92.5t-143.5 -61.5t-139 -24.5q-5 -46 -5 -91v-15q1 -53 13 -96.5t39 -70t74 -26.5q45 0 102 27.5t102 81.5 q31 -23 43 -60q-29 -37 -68.5 -73.5t-85.5 -65.5t-95.5 -46t-98.5 -17q-86 0 -134 42t-68 109q-18 59 -18 130v22zM258 510q51 2 100.5 15.5t89 38t66.5 59t35 79.5q3 16 3 33q0 8 -1 17q-2 25 -13.5 46t-31 34.5t-47.5 13.5q-59 0 -113.5 -78t-79.5 -213zM446 1108 q68 106 117 199.5t74 158.5q61 16 116.5 12.5t94.5 -30.5q-78 -74 -164 -169t-164 -200q-45 4 -74 29z" />
<glyph unicode="&#xea;" horiz-adv-x="737" d="M50 285q3 84 20 168q23 119 71.5 213t111 158.5t134.5 98t139 33.5q61 0 102.5 -19t63 -51t26.5 -73q2 -16 2 -32q0 -26 -5 -52q-12 -63 -63.5 -116.5t-119 -92.5t-143.5 -61.5t-139 -24.5q-5 -46 -5 -91v-15q1 -53 13 -96.5t39 -70t74 -26.5q45 0 102 27.5t102 81.5 q31 -23 43 -60q-29 -37 -68.5 -73.5t-85.5 -65.5t-95.5 -46t-98.5 -17q-86 0 -134 42t-68 109q-18 59 -18 130v22zM258 510q51 2 100.5 15.5t89 38t66.5 59t35 79.5q3 16 3 33q0 8 -1 17q-2 25 -13.5 46t-31 34.5t-47.5 13.5q-59 0 -113.5 -78t-79.5 -213zM256 1178 q86 61 166 127.5t153 138.5q39 6 78 -14q47 -74 98.5 -143.5l106.5 -137.5q-6 -20 -23.5 -36.5t-37.5 -22.5q-57 47 -118 89t-124 76q-74 -37 -143.5 -78.5t-137.5 -91.5q-12 18 -17 44t-1 49z" />
<glyph unicode="&#xeb;" horiz-adv-x="737" d="M50 285q3 84 20 168q23 119 71.5 213t111 158.5t134.5 98t139 33.5q61 0 102.5 -19t63 -51t26.5 -73q2 -16 2 -32q0 -26 -5 -52q-12 -63 -63.5 -116.5t-119 -92.5t-143.5 -61.5t-139 -24.5q-5 -46 -5 -91v-15q1 -53 13 -96.5t39 -70t74 -26.5q45 0 102 27.5t102 81.5 q31 -23 43 -60q-29 -37 -68.5 -73.5t-85.5 -65.5t-95.5 -46t-98.5 -17q-86 0 -134 42t-68 109q-18 59 -18 130v22zM258 510q51 2 100.5 15.5t89 38t66.5 59t35 79.5q3 16 3 33q0 8 -1 17q-2 25 -13.5 46t-31 34.5t-47.5 13.5q-59 0 -113.5 -78t-79.5 -213zM299 1221 q16 90 113 90q53 0 76.5 -34t13.5 -87q-27 -100 -115 -100q-51 0 -75.5 36t-12.5 95zM615 1214q16 96 119 97q49 0 73.5 -31t14.5 -84q-10 -51 -40 -77.5t-77 -26.5q-51 0 -75.5 33.5t-14.5 88.5z" />
<glyph unicode="&#xec;" d="M164 571q23 78 32 122t0.5 66.5t-36 29t-78.5 6.5q-2 45 12 77q25 2 57.5 11.5t66.5 22t63.5 25.5t48.5 25q63 -27 76.5 -89t-21.5 -189l-113 -395q-14 -49 -20 -81t-4 -48.5t11 -22.5t24 -6q20 0 47.5 14.5t58.5 44.5q31 -20 37 -65q-59 -66 -117.5 -101.5t-115.5 -35.5 q-102 0 -126 80.5t13 213.5zM105 1442q41 16 93 18t99 -14q14 -86 34.5 -171t55.5 -177q-14 -6 -34.5 -5t-37.5 9q-39 78 -96 173t-114 167z" />
<glyph unicode="&#xed;" d="M164 571q23 78 32 122t0.5 66.5t-36 29t-78.5 6.5q-2 45 12 77q25 2 57.5 11.5t66.5 22t63.5 25.5t48.5 25q63 -27 76.5 -89t-21.5 -189l-113 -395q-14 -49 -20 -81t-4 -48.5t11 -22.5t24 -6q20 0 47.5 14.5t58.5 44.5q31 -20 37 -65q-59 -66 -117.5 -101.5t-115.5 -35.5 q-102 0 -126 80.5t13 213.5zM272 1108q68 106 117 199.5t74 158.5q61 16 116.5 12.5t94.5 -30.5q-78 -74 -164 -169t-164 -200q-45 4 -74 29z" />
<glyph unicode="&#xee;" d="M164 571q23 78 32 122t0.5 66.5t-36 29t-78.5 6.5q-2 45 12 77q25 2 57.5 11.5t66.5 22t63.5 25.5t48.5 25q63 -27 76.5 -89t-21.5 -189l-113 -395q-14 -49 -20 -81t-4 -48.5t11 -22.5t24 -6q20 0 47.5 14.5t58.5 44.5q31 -20 37 -65q-59 -66 -117.5 -101.5t-115.5 -35.5 q-102 0 -126 80.5t13 213.5zM84 1178q86 61 166 127.5t153 138.5q39 6 78 -14q47 -74 98.5 -143.5l106.5 -137.5q-6 -20 -23.5 -36.5t-37.5 -22.5q-57 47 -118 89t-124 76q-74 -37 -143.5 -78.5t-137.5 -91.5q-12 18 -17 44t-1 49z" />
<glyph unicode="&#xef;" d="M164 571q23 78 32 122t0.5 66.5t-36 29t-78.5 6.5q-2 45 12 77q25 2 57.5 11.5t66.5 22t63.5 25.5t48.5 25q63 -27 76.5 -89t-21.5 -189l-113 -395q-14 -49 -20 -81t-4 -48.5t11 -22.5t24 -6q20 0 47.5 14.5t58.5 44.5q31 -20 37 -65q-59 -66 -117.5 -101.5t-115.5 -35.5 q-102 0 -126 80.5t13 213.5zM125 1221q16 90 113 90q53 0 76.5 -34t13.5 -87q-27 -100 -115 -100q-51 0 -75.5 36t-12.5 95zM441 1214q16 96 119 97q49 0 73.5 -31t14.5 -84q-10 -51 -40 -77.5t-77 -26.5q-51 0 -75.5 33.5t-14.5 88.5z" />
<glyph unicode="&#xf0;" horiz-adv-x="894" d="M48 218q-9 81 13 196q25 119 76 218t124 170.5t162 112.5t189 41q16 0 36 -2t38 -6q-4 82 -24.5 155t-65.5 140l-129 -67l-135 -72q-10 29 -12.5 56.5t2.5 45.5l217 109q-66 78 -183 153q8 16 24.5 32t33.5 22q129 -76 221 -158l252 127q8 -29 10 -57.5t-2 -44.5l-92 -43 q-49 -23 -103 -52q68 -78 106 -159.5t53 -166.5t11 -173t-22 -181q-27 -135 -87.5 -251.5t-141 -200.5t-175 -132t-186.5 -48q-51 0 -97 24.5t-75 77.5t-38 134zM256 225.5q35 -102.5 121 -102.5q37 0 74.5 25.5t73.5 81t67 144.5t55 218q14 66 22.5 125t12.5 114 q-49 20 -121 21q-63 0 -112.5 -25.5t-86 -70.5t-62.5 -108.5t-40 -139.5q-39 -180 -4 -282.5z" />
<glyph unicode="&#xf1;" horiz-adv-x="1060" d="M74 0l112 596q12 72 16.5 112t-6 59t-38 23.5t-76.5 4.5q0 23 1 42t11 35q25 2 63 11.5t78.5 22t77.5 25.5t60 25q47 -16 47 -86q0 -21 -4 -47q-16 -88 -36 -146.5t-42 -109.5h2l33 70q25 49 69.5 105.5t101 104.5t117 78.5t113.5 30.5q33 0 66.5 -16t56.5 -59t26 -120 v-15q0 -73 -26 -183l-59 -250l-24.5 -108.5t-9.5 -57t6 -22.5t19 -4q23 0 57 19.5t58 43.5q29 -29 37 -65q-68 -70 -124 -103.5t-112 -33.5q-61 0 -89.5 22.5t-35.5 65.5q-3 18 -3 38q0 30 6 66q10 61 26 137l56 244q18 78 21 128q1 15 1 28q0 31 -5 51q-7 29 -24.5 40 t-40.5 11q-31 0 -81 -40t-101 -112.5t-96 -173t-68 -221.5l-51 -266h-186zM297 1112q78 100 140.5 136t109.5 36q37 0 69.5 -13.5t63.5 -29.5l58.5 -29.5t56.5 -13.5q41 0 78 19.5t71 54.5q25 -10 37 -41q-35 -53 -65.5 -88t-57 -55.5t-51 -27.5t-47.5 -7q-35 0 -67.5 13 t-63.5 30.5t-62.5 31t-64.5 13.5q-47 0 -89 -16.5t-95 -61.5q-25 16 -21 49z" />
<glyph unicode="&#xf2;" horiz-adv-x="931" d="M58 253q-4 30 -4 62q0 59 14 125q23 117 68.5 212.5t110 163t143.5 104t167 36.5t154.5 -33.5t106.5 -97t51 -151.5q4 -31 4 -65q0 -61 -13 -130q-20 -113 -66 -204t-111 -156.5t-145.5 -101t-170.5 -35.5q-88 0 -152.5 32.5t-105 93t-51.5 145.5zM254 184 q35 -106 127 -106q47 0 91 27.5t81 77.5t65.5 120t45.5 156q16 85 15 154q0 76 -19 133q-36 110 -130 110q-47 0 -89 -27.5t-78.5 -79t-64.5 -123t-44 -159.5q-17 -88 -17 -159t17 -124zM328 1442q41 16 93 18t99 -14q14 -86 34.5 -171t55.5 -177q-14 -6 -34.5 -5t-37.5 9 q-39 78 -96 173t-114 167z" />
<glyph unicode="&#xf3;" horiz-adv-x="931" d="M58 253q-4 30 -4 62q0 59 14 125q23 117 68.5 212.5t110 163t143.5 104t167 36.5t154.5 -33.5t106.5 -97t51 -151.5q4 -31 4 -65q0 -61 -13 -130q-20 -113 -66 -204t-111 -156.5t-145.5 -101t-170.5 -35.5q-88 0 -152.5 32.5t-105 93t-51.5 145.5zM254 184 q35 -106 127 -106q47 0 91 27.5t81 77.5t65.5 120t45.5 156q16 85 15 154q0 76 -19 133q-36 110 -130 110q-47 0 -89 -27.5t-78.5 -79t-64.5 -123t-44 -159.5q-17 -88 -17 -159t17 -124zM497 1108q68 106 117 199.5t74 158.5q61 16 116.5 12.5t94.5 -30.5q-78 -74 -164 -169 t-164 -200q-45 4 -74 29z" />
<glyph unicode="&#xf4;" horiz-adv-x="931" d="M58 253q-4 30 -4 62q0 59 14 125q23 117 68.5 212.5t110 163t143.5 104t167 36.5t154.5 -33.5t106.5 -97t51 -151.5q4 -31 4 -65q0 -61 -13 -130q-20 -113 -66 -204t-111 -156.5t-145.5 -101t-170.5 -35.5q-88 0 -152.5 32.5t-105 93t-51.5 145.5zM254 184 q35 -106 127 -106q47 0 91 27.5t81 77.5t65.5 120t45.5 156q16 85 15 154q0 76 -19 133q-36 110 -130 110q-47 0 -89 -27.5t-78.5 -79t-64.5 -123t-44 -159.5q-17 -88 -17 -159t17 -124zM307 1178q86 61 166 127.5t153 138.5q39 6 78 -14q47 -74 98.5 -143.5l106.5 -137.5 q-6 -20 -23.5 -36.5t-37.5 -22.5q-57 47 -118 89t-124 76q-74 -37 -143.5 -78.5t-137.5 -91.5q-12 18 -17 44t-1 49z" />
<glyph unicode="&#xf5;" horiz-adv-x="931" d="M58 253q-4 30 -4 62q0 59 14 125q23 117 68.5 212.5t110 163t143.5 104t167 36.5t154.5 -33.5t106.5 -97t51 -151.5q4 -31 4 -65q0 -61 -13 -130q-20 -113 -66 -204t-111 -156.5t-145.5 -101t-170.5 -35.5q-88 0 -152.5 32.5t-105 93t-51.5 145.5zM254 184 q35 -106 127 -106q47 0 91 27.5t81 77.5t65.5 120t45.5 156q16 85 15 154q0 76 -19 133q-36 110 -130 110q-47 0 -89 -27.5t-78.5 -79t-64.5 -123t-44 -159.5q-17 -88 -17 -159t17 -124zM239 1112q78 100 140.5 136t109.5 36q37 0 69.5 -13.5t63.5 -29.5l58.5 -29.5 t56.5 -13.5q41 0 78 19.5t71 54.5q25 -10 37 -41q-35 -53 -65.5 -88t-57 -55.5t-51 -27.5t-47.5 -7q-35 0 -67.5 13t-63.5 30.5t-62.5 31t-64.5 13.5q-47 0 -89 -16.5t-95 -61.5q-25 16 -21 49z" />
<glyph unicode="&#xf6;" horiz-adv-x="931" d="M58 253q-4 30 -4 62q0 59 14 125q23 117 68.5 212.5t110 163t143.5 104t167 36.5t154.5 -33.5t106.5 -97t51 -151.5q4 -31 4 -65q0 -61 -13 -130q-20 -113 -66 -204t-111 -156.5t-145.5 -101t-170.5 -35.5q-88 0 -152.5 32.5t-105 93t-51.5 145.5zM254 184 q35 -106 127 -106q47 0 91 27.5t81 77.5t65.5 120t45.5 156q16 85 15 154q0 76 -19 133q-36 110 -130 110q-47 0 -89 -27.5t-78.5 -79t-64.5 -123t-44 -159.5q-17 -88 -17 -159t17 -124zM350 1221q16 90 113 90q53 0 76.5 -34t13.5 -87q-27 -100 -115 -100q-51 0 -75.5 36 t-12.5 95zM666 1214q16 96 119 97q49 0 73.5 -31t14.5 -84q-10 -51 -40 -77.5t-77 -26.5q-51 0 -75.5 33.5t-14.5 88.5z" />
<glyph unicode="&#xf7;" horiz-adv-x="1024" d="M72 475q-4 70 26 113h885q-4 -61 -33 -107h-209q-111 0 -224 -1l-227 -2q-114 -1 -218 -3zM383 246q8 41 40 68.5t75 27.5q47 0 76.5 -36t19.5 -91q-10 -47 -38 -73.5t-73 -26.5q-55 0 -83.5 36t-16.5 95zM483 860q8 41 40 68.5t75 27.5q47 0 77 -35.5t19 -91.5 q-10 -47 -37.5 -73.5t-72.5 -26.5q-55 0 -84 36t-17 95z" />
<glyph unicode="&#xf8;" horiz-adv-x="954" d="M-20 -14l122 137q-70 123 -32 317q23 117 68.5 212.5t110 163t143.5 104t167 36.5q68 0 122 -20.5t95 -56.5l103 112q59 6 98 -26l-71 -74l-77 -82q70 -127 33 -330q-20 -113 -66 -204t-110.5 -156.5t-145.5 -101t-171 -35.5q-131 0 -209 71l-92 -108q-25 0 -49.5 11.5 t-38.5 29.5zM240 276l422 474q-35 106 -130 106q-47 0 -89 -27.5t-78.5 -79t-64.5 -123t-44 -159.5q-22 -111 -16 -191zM260 170q39 -92 123 -92q47 0 91 27.5t81 77.5t65.5 120t45.5 156q10 53 14 99t0 87l-213 -239z" />
<glyph unicode="&#xf9;" horiz-adv-x="1040" d="M82 835q2 22 12 37q23 2 61 11.5t78.5 22t76.5 25.5t57 25q23 -14 33 -30q9 -13 9 -46v-20q-3 -49 -25 -145l-62 -269q-32 -128 -32 -203q0 -110 66 -110q29 0 76 34t98.5 103.5t97.5 174t72 245.5l48 248h186l-100 -508q-23 -109 -33 -170t-12.5 -92t6 -38t26.5 -7 q23 0 44.5 14.5t56.5 48.5q14 -12 23 -29.5t16 -35.5q-49 -57 -112 -98t-118 -41q-94 0 -122 63q-16 36 -16 86q0 37 9 80q10 53 33 98h-4q-25 -51 -65 -108.5t-91 -106.5t-108.5 -80.5t-116.5 -31.5q-72 0 -104.5 44t-40.5 113q-3 26 -2 54q0 48 8 101q12 85 32 167 q31 123 44 190q9 46 9 76q0 14 -1 24q-6 32 -33 38t-78 6q-3 12 -3 26q0 7 1 14zM338 1442q41 16 93 18t99 -14q14 -86 34.5 -171t55.5 -177q-14 -6 -34.5 -5t-37.5 9q-39 78 -96 173t-114 167z" />
<glyph unicode="&#xfa;" horiz-adv-x="1040" d="M82 835q2 22 12 37q23 2 61 11.5t78.5 22t76.5 25.5t57 25q23 -14 33 -30q9 -13 9 -46v-20q-3 -49 -25 -145l-62 -269q-32 -128 -32 -203q0 -110 66 -110q29 0 76 34t98.5 103.5t97.5 174t72 245.5l48 248h186l-100 -508q-23 -109 -33 -170t-12.5 -92t6 -38t26.5 -7 q23 0 44.5 14.5t56.5 48.5q14 -12 23 -29.5t16 -35.5q-49 -57 -112 -98t-118 -41q-94 0 -122 63q-16 36 -16 86q0 37 9 80q10 53 33 98h-4q-25 -51 -65 -108.5t-91 -106.5t-108.5 -80.5t-116.5 -31.5q-72 0 -104.5 44t-40.5 113q-3 26 -2 54q0 48 8 101q12 85 32 167 q31 123 44 190q9 46 9 76q0 14 -1 24q-6 32 -33 38t-78 6q-3 12 -3 26q0 7 1 14zM508 1108q68 106 117 199.5t74 158.5q61 16 116.5 12.5t94.5 -30.5q-78 -74 -164 -169t-164 -200q-45 4 -74 29z" />
<glyph unicode="&#xfb;" horiz-adv-x="1040" d="M82 835q2 22 12 37q23 2 61 11.5t78.5 22t76.5 25.5t57 25q23 -14 33 -30q9 -13 9 -46v-20q-3 -49 -25 -145l-62 -269q-32 -128 -32 -203q0 -110 66 -110q29 0 76 34t98.5 103.5t97.5 174t72 245.5l48 248h186l-100 -508q-23 -109 -33 -170t-12.5 -92t6 -38t26.5 -7 q23 0 44.5 14.5t56.5 48.5q14 -12 23 -29.5t16 -35.5q-49 -57 -112 -98t-118 -41q-94 0 -122 63q-16 36 -16 86q0 37 9 80q10 53 33 98h-4q-25 -51 -65 -108.5t-91 -106.5t-108.5 -80.5t-116.5 -31.5q-72 0 -104.5 44t-40.5 113q-3 26 -2 54q0 48 8 101q12 85 32 167 q31 123 44 190q9 46 9 76q0 14 -1 24q-6 32 -33 38t-78 6q-3 12 -3 26q0 7 1 14zM317 1178q86 61 166 127.5t153 138.5q39 6 78 -14q47 -74 98.5 -143.5l106.5 -137.5q-6 -20 -23.5 -36.5t-37.5 -22.5q-57 47 -118 89t-124 76q-74 -37 -143.5 -78.5t-137.5 -91.5 q-12 18 -17 44t-1 49z" />
<glyph unicode="&#xfc;" horiz-adv-x="1040" d="M82 835q2 22 12 37q23 2 61 11.5t78.5 22t76.5 25.5t57 25q23 -14 33 -30q9 -13 9 -46v-20q-3 -49 -25 -145l-62 -269q-32 -128 -32 -203q0 -110 66 -110q29 0 76 34t98.5 103.5t97.5 174t72 245.5l48 248h186l-100 -508q-23 -109 -33 -170t-12.5 -92t6 -38t26.5 -7 q23 0 44.5 14.5t56.5 48.5q14 -12 23 -29.5t16 -35.5q-49 -57 -112 -98t-118 -41q-94 0 -122 63q-16 36 -16 86q0 37 9 80q10 53 33 98h-4q-25 -51 -65 -108.5t-91 -106.5t-108.5 -80.5t-116.5 -31.5q-72 0 -104.5 44t-40.5 113q-3 26 -2 54q0 48 8 101q12 85 32 167 q31 123 44 190q9 46 9 76q0 14 -1 24q-6 32 -33 38t-78 6q-3 12 -3 26q0 7 1 14zM358 1221q16 90 113 90q53 0 76.5 -34t13.5 -87q-27 -100 -115 -100q-51 0 -75.5 36t-12.5 95zM674 1214q16 96 119 97q49 0 73.5 -31t14.5 -84q-10 -51 -40 -77.5t-77 -26.5 q-51 0 -75.5 33.5t-14.5 88.5z" />
<glyph unicode="&#xfd;" horiz-adv-x="915" d="M405 1108q68 106 117 199.5t74 158.5q61 16 116.5 12.5t94.5 -30.5q-78 -74 -164 -169t-164 -200q-45 4 -74 29zM-254 -371q4 31 14 60q47 -16 102.5 -24.5t104.5 -8.5q31 0 62.5 9t67.5 34t79 71t100 119q-12 240 -39.5 445t-62.5 334q-10 37 -19.5 62.5t-24.5 40.5 t-39.5 20.5t-63.5 3.5q-1 10 -1 20q0 34 11 57q51 6 111.5 33t93.5 51q25 -8 41 -19t27.5 -31.5t20.5 -54.5t19 -89q35 -180 54.5 -336t25.5 -324q135 205 193.5 349.5t58.5 230.5q0 43 -23.5 71.5t-91.5 39.5q-13 28 -13 59q0 8 1 16q27 8 57.5 19.5t58 24t51 24.5t36.5 22 q57 -23 83.5 -65.5t26.5 -95.5q0 -129 -95 -311.5t-281 -450.5q-123 -178 -207 -285.5t-145.5 -164t-109.5 -75t-102 -18.5q-96 0 -182 74q-2 16 -2 32t2 31z" />
<glyph unicode="&#xfe;" horiz-adv-x="923" d="M-39 -502l281 1596q12 72 16 111.5t-7 59t-38 23.5t-76 4q0 23 1 42.5t12 35.5q25 2 62.5 11.5t77.5 21.5t76.5 25.5t59.5 25.5q61 -20 43 -131l-46 -254l-36 -189q-16 -83 -34 -152l-38 -142h4q25 61 67 126.5t94 120t112.5 90t124.5 35.5q102 0 145 -102t-2 -330 q-25 -119 -76 -218t-123.5 -172t-161.5 -112.5t-190 -39.5q-41 0 -88 10q2 -72 -12 -152l-62 -344h-186zM236 109q53 -20 124 -21q63 0 112.5 25.5t86.5 70.5t61.5 108.5t41.5 139.5q37 174 19.5 267.5t-79.5 93.5q-27 0 -71 -37t-92 -106.5t-94 -170t-75 -227.5z" />
<glyph unicode="&#xff;" horiz-adv-x="915" d="M258 1221q16 90 113 90q53 0 76.5 -34t13.5 -87q-27 -100 -115 -100q-51 0 -75.5 36t-12.5 95zM574 1214q16 96 119 97q49 0 73.5 -31t14.5 -84q-10 -51 -40 -77.5t-77 -26.5q-51 0 -75.5 33.5t-14.5 88.5zM-254 -371q4 31 14 60q47 -16 102.5 -24.5t104.5 -8.5 q31 0 62.5 9t67.5 34t79 71t100 119q-12 240 -39.5 445t-62.5 334q-10 37 -19.5 62.5t-24.5 40.5t-39.5 20.5t-63.5 3.5q-1 10 -1 20q0 34 11 57q51 6 111.5 33t93.5 51q25 -8 41 -19t27.5 -31.5t20.5 -54.5t19 -89q35 -180 54.5 -336t25.5 -324q135 205 193.5 349.5 t58.5 230.5q0 43 -23.5 71.5t-91.5 39.5q-13 28 -13 59q0 8 1 16q27 8 57.5 19.5t58 24t51 24.5t36.5 22q57 -23 83.5 -65.5t26.5 -95.5q0 -129 -95 -311.5t-281 -450.5q-123 -178 -207 -285.5t-145.5 -164t-109.5 -75t-102 -18.5q-96 0 -182 74q-2 16 -2 32t2 31z" />
<glyph unicode="&#x131;" d="M164 571q23 78 32 122t0.5 66.5t-36 29t-78.5 6.5q-2 45 12 77q25 2 57.5 11.5t66.5 22t63.5 25.5t48.5 25q63 -27 76.5 -89t-21.5 -189l-113 -395q-14 -49 -20 -81t-4 -48.5t11 -22.5t24 -6q20 0 47.5 14.5t58.5 44.5q31 -20 37 -65q-59 -66 -117.5 -101.5t-115.5 -35.5 q-102 0 -126 80.5t13 213.5z" />
<glyph unicode="&#x152;" horiz-adv-x="2600" d="M1516 -6q0 47 14 88q47 6 76 17.5t47.5 34t28.5 61t20 98.5l148 842q7 46 7 74q0 36 -13 56q-12 17 -38 24t-65 14q-4 20 -5 41.5t3 46.5q106 -4 196.5 -5.5t145.5 -1.5q119 0 249 1t290 6q-10 -78 -15 -170q-2 -46 -2 -87t2 -77q-35 -15 -88 -15h-14q-2 66 -11 113 t-38 78t-86 45t-156 14h-147l-92 -547h84q63 0 108 7.5t76 26t48 51t26 83.5q27 4 48 5.5t50 -3.5l-22.5 -99t-20.5 -128q-10 -74 -15.5 -129t-9.5 -106q-29 4 -52 9t-42 17q1 16 1 31q0 77 -36 107q-43 36 -168 36h-92l-61 -360q-10 -66 -10 -104.5t16 -60.5t51 -29t92 -7 h8q94 0 156 17.5t104 50.5t72.5 82t61.5 110q29 -4 51 -14t41 -31q-35 -66 -63.5 -144.5t-47.5 -168.5q-92 4 -186 5t-209 1q-150 0 -271.5 -1t-244.5 -5zM114 447q-12 64 -13 135q0 88 20 186q25 133 93.5 249t167.5 202t224 135t266 49q147 0 269.5 -52.5t201 -152.5 t107.5 -250q13 -65 13 -139q0 -95 -21 -203q-25 -129 -90.5 -242.5t-162.5 -198.5t-224 -134t-275 -49q-154 0 -274.5 57t-197 160.5t-104.5 247.5zM318 508q13 -129 63.5 -226.5t137.5 -153.5t208 -56q100 0 184 40t148.5 111.5t108.5 167.5t65 211q17 95 17 180 q0 55 -7 107q-18 131 -73.5 225t-141.5 146.5t-194 52.5q-92 0 -174 -42t-148 -115t-112 -169t-66 -205q-20 -99 -20 -191q0 -42 4 -83z" />
<glyph unicode="&#x153;" horiz-adv-x="1669" d="M982 285q3 84 20 168q23 119 71.5 213t111 158.5t134.5 98t139 33.5q61 0 102.5 -19t63 -51t26.5 -73q2 -16 2 -32q0 -26 -5 -52q-12 -63 -63.5 -116.5t-119 -92.5t-143.5 -61.5t-139 -24.5q-5 -46 -5 -91v-15q1 -53 13 -96.5t39 -70t74 -26.5q45 0 102 27.5t102 81.5 q31 -23 43 -60q-29 -37 -68.5 -73.5t-85.5 -65.5t-95.5 -46t-98.5 -17q-86 0 -134 42t-68 109q-18 59 -18 130v22zM1190 510q51 2 100.5 15.5t89 38t66.5 59t35 79.5q3 16 3 33q0 8 -1 17q-2 25 -13.5 46t-31 34.5t-47.5 13.5q-59 0 -113.5 -78t-79.5 -213zM58 253 q-4 30 -4 62q0 59 14 125q23 117 68.5 212.5t110 163t143.5 104t167 36.5t154.5 -33.5t106.5 -97t51 -151.5q4 -31 4 -65q0 -61 -13 -130q-20 -113 -66 -204t-111 -156.5t-145.5 -101t-170.5 -35.5q-88 0 -152.5 32.5t-105 93t-51.5 145.5zM254 184q35 -106 127 -106 q47 0 91 27.5t81 77.5t65.5 120t45.5 156q16 85 15 154q0 76 -19 133q-36 110 -130 110q-47 0 -89 -27.5t-78.5 -79t-64.5 -123t-44 -159.5q-17 -88 -17 -159t17 -124z" />
<glyph unicode="&#x178;" horiz-adv-x="1193" d="M557 1657q16 90 113 90q53 0 76.5 -34t13.5 -87q-27 -100 -115 -100q-51 0 -75.5 36t-12.5 95zM873 1650q16 96 119 97q49 0 73.5 -31t14.5 -84q-10 -51 -40 -77.5t-77 -26.5q-51 0 -75.5 33.5t-14.5 88.5zM208 1355q0 16 3 36q57 -4 114.5 -5.5t112.5 -1.5q61 0 120.5 1 t137.5 6q0 -25 -5 -46.5t-13 -44.5q-100 -14 -127 -48q-12 -15 -12 -38q0 -30 20 -75q41 -92 84 -204t82 -224l80 108l74 102l62 87l46 65q72 107 72 158v5q-4 50 -98 67q-5 22 -5 47q0 19 2 41q51 -4 94.5 -5.5t102.5 -1.5q49 0 91 1t91 6q0 -45 -18 -88 q-18 -6 -33.5 -17.5t-40 -37t-62.5 -75l-98 -133.5l-150 -206l-173 -228l-64 -356q-8 -43 -8 -71.5t14.5 -47t45 -30t86.5 -19.5q6 -27 6 -55q0 -17 -2 -33q-66 4 -133.5 5t-128.5 1q-68 0 -140.5 -1t-128.5 -5q0 51 15 90q51 8 82.5 19.5t51 31t31 52t21.5 83.5l57 330 l-111 285q-54 133 -96 223l-45 93t-33.5 56.5t-30.5 29.5t-38 18q-5 29 -5 50z" />
<glyph unicode="&#x2c6;" horiz-adv-x="1105" d="M127 1178q86 61 166 127.5t153 138.5q39 6 78 -14q47 -74 98.5 -143.5l106.5 -137.5q-6 -20 -23.5 -36.5t-37.5 -22.5q-57 47 -118 89t-124 76q-74 -37 -143.5 -78.5t-137.5 -91.5q-12 18 -17 44t-1 49z" />
<glyph unicode="&#x2da;" horiz-adv-x="1105" d="M391 1280q12 78 71.5 124t158.5 46q96 0 145 -57.5t33 -153.5q-10 -72 -69.5 -117t-158.5 -45q-98 0 -147 55.5t-33 147.5zM500 1270q-10 -53 14.5 -85t71.5 -32q39 0 65.5 23.5t32.5 64.5q12 63 -10.5 101t-71.5 38q-37 0 -64.5 -30.5t-37.5 -79.5z" />
<glyph unicode="&#x2dc;" horiz-adv-x="1105" d="M178 1112q78 100 140.5 136t109.5 36q37 0 69.5 -13.5t63.5 -29.5l58.5 -29.5t56.5 -13.5q41 0 78 19.5t71 54.5q25 -10 37 -41q-35 -53 -65.5 -88t-57 -55.5t-51 -27.5t-47.5 -7q-35 0 -67.5 13t-63.5 30.5t-62.5 31t-64.5 13.5q-47 0 -89 -16.5t-95 -61.5 q-25 16 -21 49z" />
<glyph unicode="&#x2000;" horiz-adv-x="962" />
<glyph unicode="&#x2001;" horiz-adv-x="1925" />
<glyph unicode="&#x2002;" horiz-adv-x="962" />
<glyph unicode="&#x2003;" horiz-adv-x="1925" />
<glyph unicode="&#x2004;" horiz-adv-x="641" />
<glyph unicode="&#x2005;" horiz-adv-x="481" />
<glyph unicode="&#x2006;" horiz-adv-x="319" />
<glyph unicode="&#x2007;" horiz-adv-x="319" />
<glyph unicode="&#x2008;" horiz-adv-x="239" />
<glyph unicode="&#x2009;" horiz-adv-x="385" />
<glyph unicode="&#x200a;" horiz-adv-x="106" />
<glyph unicode="&#x2010;" horiz-adv-x="702" d="M68 473q4 47 11 79t23 60h560q-2 -45 -8.5 -74.5t-18.5 -58.5q-102 0 -245.5 -1t-321.5 -5z" />
<glyph unicode="&#x2011;" horiz-adv-x="702" d="M68 473q4 47 11 79t23 60h560q-2 -45 -8.5 -74.5t-18.5 -58.5q-102 0 -245.5 -1t-321.5 -5z" />
<glyph unicode="&#x2012;" horiz-adv-x="702" d="M68 473q4 47 11 79t23 60h560q-2 -45 -8.5 -74.5t-18.5 -58.5q-102 0 -245.5 -1t-321.5 -5z" />
<glyph unicode="&#x2013;" horiz-adv-x="1024" d="M74 483q-4 70 26 113h885q-4 -61 -33 -107h-209q-111 0 -224 -1l-227 -2q-114 -1 -218 -3z" />
<glyph unicode="&#x2014;" horiz-adv-x="1972" d="M68 479q6 74 36 115h1829q-6 -66 -37 -109q-303 0 -753 -1t-1075 -5z" />
<glyph unicode="&#x2018;" horiz-adv-x="503" d="M246 1024q-4 57 8 113q14 74 61 157.5t152 173.5q25 0 42 -12t28 -31q-115 -115 -125.5 -192.5t92.5 -104.5q0 -31 -8.5 -68.5t-22.5 -60.5q-43 -4 -95 -20t-83 -37q-45 25 -49 82z" />
<glyph unicode="&#x2019;" d="M256 985q115 115 125 192.5t-92 104.5q0 31 8 69t22 60q43 4 95.5 20.5t83.5 36.5q45 -25 49 -82t-8 -112q-14 -74 -61.5 -158t-151.5 -174q-25 0 -42.5 12.5t-27.5 30.5z" />
<glyph unicode="&#x201a;" horiz-adv-x="389" d="M-20 -272q115 115 125 192.5t-93 104.5q0 31 8.5 68.5t22.5 60.5q43 4 95 20t83 37q45 -25 49 -82t-8 -113q-14 -74 -61 -157.5t-152 -173.5q-25 0 -42 12.5t-27 30.5z" />
<glyph unicode="&#x201c;" horiz-adv-x="811" d="M246 1024q-4 57 8 113q14 74 61 157.5t152 173.5q25 0 42 -12t28 -31q-106 -106 -120 -183t81 -114q0 -31 -8.5 -68.5t-22.5 -60.5q-43 -4 -92 -20t-80 -37q-45 25 -49 82zM559 1024q-4 57 8 113q16 78 57.5 157.5t141.5 165.5q25 0 42 -12t28 -31q-113 -113 -118 -188.5 t93 -100.5q0 -31 -8 -68.5t-23 -60.5q-43 -4 -92 -20t-80 -37q-45 25 -49 82z" />
<glyph unicode="&#x201d;" horiz-adv-x="813" d="M264 993q113 113 118 188.5t-93 100.5q0 31 8 69t22 60q43 4 92.5 20.5t80.5 36.5q45 -25 49 -82t-9 -112q-16 -78 -57 -158t-141 -166q-25 0 -42.5 12.5t-27.5 30.5zM563 985q106 106 119.5 183t-80.5 114q0 31 8 69t23 60q43 4 92 20.5t80 36.5q45 -25 49 -82t-8 -112 q-14 -74 -61.5 -158t-151.5 -174q-25 0 -42.5 12.5t-27.5 30.5z" />
<glyph unicode="&#x201e;" horiz-adv-x="659" d="M-12 -264q113 113 118 188.5t-94 100.5q0 31 8.5 68.5t22.5 60.5q43 4 92 20t80 37q45 -25 49 -82t-8 -113q-16 -78 -57 -157.5t-142 -165.5q-25 0 -42 12.5t-27 30.5zM287 -272q106 106 119.5 183t-80.5 114q0 31 8 68.5t22 60.5q43 4 92.5 20t79.5 37q45 -25 49.5 -82 t-8.5 -113q-14 -74 -61 -157.5t-152 -173.5q-25 0 -42 12.5t-27 30.5z" />
<glyph unicode="&#x2022;" horiz-adv-x="573" d="M92 538q-8 46 2 95q14 72 74.5 122t159.5 50q53 0 95 -20.5t67.5 -54.5t36 -77t1.5 -90q-16 -88 -75.5 -138t-153.5 -50q-59 0 -102 22.5t-70 58.5t-35 82z" />
<glyph unicode="&#x2026;" horiz-adv-x="1447" d="M14 115q8 41 40 68.5t75 27.5q47 0 77 -36t19 -91q-10 -47 -37.5 -73.5t-72.5 -26.5q-55 0 -84 36t-17 95zM547 115q8 41 39.5 68.5t75.5 27.5q47 0 76.5 -36t19.5 -91q-10 -47 -38 -73.5t-73 -26.5q-55 0 -83.5 36t-16.5 95zM1079 115q8 41 40 68.5t75 27.5 q47 0 76.5 -36t19.5 -91q-10 -47 -37.5 -73.5t-72.5 -26.5q-55 0 -84 36t-17 95z" />
<glyph unicode="&#x202f;" horiz-adv-x="385" />
<glyph unicode="&#x2039;" horiz-adv-x="483" d="M70 492q0 49 26 79l166 142q76 66 154 143q23 -2 42 -13.5t27 -25.5q-27 -27 -60 -64l-69 -77q-35 -39 -65.5 -77t-48.5 -64q10 -29 27.5 -70t37.5 -83l40 -80q19 -38 34 -62q-4 -23 -17.5 -41.5t-29.5 -28.5q-68 94 -136.5 176.5t-127.5 145.5z" />
<glyph unicode="&#x203a;" d="M61 262l122 122q67 69 114 124l-30 74q-17 43 -39 88l-43 88l-40 76q31 25 76 18q53 -74 107.5 -141.5t115.5 -135.5q18 -39 5 -79l-179 -152l-178 -160q-31 31 -31 78z" />
<glyph unicode="&#x2044;" horiz-adv-x="925" d="M1034 1466q59 -31 70 -84l-292 -355l-272 -337l-271 -341l-285 -367q-25 12 -42.5 32.5t-21.5 46.5z" />
<glyph unicode="&#x205f;" horiz-adv-x="481" />
<glyph unicode="&#x20ac;" horiz-adv-x="1392" d="M98 471q-4 29 0 59.5t19 53.5h114q0 35 5.5 73.5t9.5 63.5h-127q-4 70 26 113h127q45 150 127 257t186.5 176.5t222.5 102.5t234 33q129 0 230.5 -30t204.5 -91q-27 -70 -42.5 -145.5t-25.5 -163.5q-51 -20 -111 -4q14 109 3 177t-43.5 106t-84 52.5t-116.5 14.5 q-111 0 -204 -37t-165 -101.5t-124 -153.5t-81 -193h547q-4 -61 -33 -107h-258q-137 0 -278 -2q-4 -29 -8 -65.5t-2 -75.5h540q-4 -61 -33 -107h-243q-127 0 -256 -2q12 -80 41.5 -147.5t80 -116.5t122 -77t163.5 -28q113 0 215.5 32t194.5 87q29 -29 33 -78 q-121 -86 -244 -125.5t-254 -39.5q-129 0 -231.5 36.5t-174 101t-114.5 155t-55 196.5h-138z" />
<glyph unicode="&#x2122;" horiz-adv-x="2924" d="M1061 -6q0 20 3 42.5t13 45.5q41 10 69.5 27.5t50 51.5t42 88t45.5 140q53 180 101 361.5t91 367.5q12 55 13.5 89t-11 53.5t-38 28.5t-66.5 14q-4 25 -5 45t3 43q47 -4 85 -5.5t73 -1.5q41 0 74.5 1t72.5 6q90 -289 168 -574t148 -571l324 565l312 580q45 -4 74 -5.5 t60 -1.5t70.5 1t78.5 6q0 -47 -14 -88q-41 -4 -67.5 -15.5t-43 -36t-26 -64.5t-13.5 -102q-25 -440 -55 -751q-7 -61 -7 -102q0 -10 1 -20q2 -46 14 -71.5t36 -38t58 -20.5q4 -20 5.5 -43t-1.5 -45q-47 4 -114.5 5t-134.5 1q-74 0 -134.5 -1t-111.5 -5q0 45 16 88 q49 8 81 21.5t51.5 41t28.5 71.5t15 112q16 166 29.5 344t24.5 370l-295 -531l-310 -519q-20 -8 -40.5 -9t-43.5 -1q-66 270 -139.5 538t-159.5 543q-43 -182 -88 -352l-82 -305q-27 -96 -34 -155q-4 -27 -4 -50q0 -25 5 -42q9 -34 38.5 -50.5t80.5 -26.5q4 -23 5.5 -44.5 t-0.5 -43.5q-63 4 -116.5 5t-94.5 1q-47 0 -93 -1t-118 -5zM129 1073l21.5 73t20.5 82l17.5 84t14.5 79q86 -4 223 -5.5t291 -1.5q160 0 302 1t228 6q-12 -72 -19 -155t-7 -169q-23 -12 -46.5 -15t-52.5 -1q0 70 -9 119t-32.5 78.5t-64.5 43t-105 13.5h-102l-184 -1055 q-8 -43 -8.5 -73t14 -48t45.5 -29.5t86 -17.5q6 -27 6 -55q0 -17 -2 -33q-66 4 -133.5 5t-128.5 1q-68 0 -140.5 -1t-127.5 -5q0 51 14 90q49 6 82 16.5t52 31t30.5 54t21.5 84.5l180 1035h-120q-55 0 -96.5 -14.5t-73 -46.5t-55 -81t-46.5 -119q-31 0 -55.5 5.5t-40.5 23.5 z" />
<glyph unicode="&#xe000;" horiz-adv-x="955" d="M0 955h955v-955h-955v955z" />
<glyph unicode="&#xfb01;" horiz-adv-x="1089" d="M-295 -370.5q4 30.5 14 59.5q47 -16 104.5 -24.5t123.5 -8.5q35 0 60.5 11t46 57.5t41 139.5t44.5 257q23 152 43.5 321.5t55.5 382.5l-73 9q-38 4 -73 4q0 47 23 80h137q29 154 82 258t121.5 167.5t148.5 91t164 27.5q119 0 197.5 -19.5t138.5 -58.5q-18 -49 -27.5 -96 t-13.5 -96q-31 -16 -84 -21.5t-94 3.5q-4 104 -40 153t-110 49q-55 0 -94 -19.5t-69.5 -71.5t-57.5 -141t-59 -226h106q84 0 142.5 3t98.5 7t66.5 11t44.5 17q63 -27 77 -89t-21 -189l-113 -395q-14 -49 -20.5 -81t-4 -48.5t11.5 -22.5t23 -6q20 0 48 14.5t59 44.5 q31 -20 37 -65q-59 -66 -117.5 -101.5t-116.5 -35.5q-102 0 -125.5 80.5t13.5 213.5l84 295q23 80 31.5 132.5t-2.5 82t-43 41t-91 11.5q-61 0 -111.5 -5.5t-95.5 -11.5q-35 -199 -58.5 -348l-37.5 -231q-29 -164 -71 -302.5t-99 -237.5t-128 -154.5t-155 -55.5 q-96 0 -182 74q-4 33 0 63.5z" />
<glyph unicode="&#xfb02;" horiz-adv-x="1138" d="M-295 -370.5q4 30.5 14 59.5q47 -16 104.5 -24.5t123.5 -8.5q35 0 60.5 11t46 57.5t41 139.5t44.5 257q23 152 43.5 321.5t55.5 382.5l-73 9q-38 4 -73 4q0 47 23 80h137q27 145 78 248.5t117.5 169t146.5 96t166 30.5q66 0 114 -11t78 -28q45 12 72 31q61 -20 43 -131 q-41 -233 -83 -449l-83 -415q-23 -109 -31 -175.5t-7 -101.5t11.5 -46t26.5 -11q20 0 45 13.5t60 45.5q27 -25 36 -61q-49 -59 -111.5 -100t-119.5 -41q-145 0 -139 165q0 25 2 53.5t9 71.5l18 109q11 66 30 164l46 237l67 330q25 119 0 190.5t-125 71.5q-45 0 -83 -19.5 t-69.5 -69.5t-59.5 -139t-52 -228h202q0 -23 -3 -43.5t-11 -36.5q-57 0 -111.5 -5.5t-95.5 -11.5q-35 -199 -58.5 -348l-37.5 -231q-29 -164 -71 -302.5t-99 -237.5t-128 -154.5t-155 -55.5q-96 0 -182 74q-4 33 0 63.5z" />
<glyph unicode="&#xfb03;" horiz-adv-x="1687" d="M-295 -370.5q4 30.5 14 59.5q47 -16 104.5 -24.5t123.5 -8.5q35 0 60.5 11t46 57.5t41 139.5t44.5 257l48 321l61 383l-73 9q-38 4 -73 4q0 47 23 80h137q25 121 78 212t122.5 151t150.5 90t163 30q86 0 150.5 -24.5t105.5 -53.5q72 76 157 107.5t177 31.5 q119 0 197.5 -19.5t138.5 -58.5q-18 -49 -27.5 -96t-13.5 -96q-31 -16 -84 -21.5t-94 3.5q-4 104 -40 153t-110 49q-55 0 -94 -19.5t-69.5 -71.5t-57.5 -141t-59 -226h106q84 0 142.5 3t98.5 7t66.5 11t44.5 17q63 -27 77 -89t-21 -189l-113 -395q-14 -49 -20.5 -81 t-4 -48.5t11.5 -22.5t23 -6q20 0 48 14.5t59 44.5q31 -20 37 -65q-59 -66 -117.5 -101.5t-116.5 -35.5q-102 0 -125.5 80.5t13.5 213.5l84 295q23 80 31.5 132.5t-2.5 82t-43 41t-91 11.5q-61 0 -111.5 -5.5t-95.5 -11.5l-43 -258q-18 -106 -34.5 -187t-33 -144.5 t-36.5 -127.5q-31 -102 -85 -198t-126 -171t-159 -120t-185 -45q-72 0 -117 21.5t-84 52.5q-51 -72 -111.5 -112t-132.5 -40q-96 0 -182 74q-4 33 0 63.5zM193 -252q63 -29 163 -29q72 0 124 12.5t91 43t66 83t47 130.5l37.5 156.5t34 171l36 217l44.5 292.5l-82 8.5 t-99 4.5q-59 0 -111 -5.5t-98 -11.5l-50 -272l-56 -307q-25 -147 -62.5 -271.5t-84.5 -222.5zM465 918h385q31 156 84 262q-31 59 -79 93t-114 34q-104 0 -172.5 -99.5t-103.5 -289.5z" />
<glyph unicode="&#xfb04;" horiz-adv-x="1738" d="M-295 -370.5q4 30.5 14 59.5q47 -16 104.5 -24.5t123.5 -8.5q35 0 60.5 11t46 57.5t41 139.5t44.5 257l48 321l61 383l-73 9q-38 4 -73 4q0 47 23 80h137q25 121 78 212t122.5 151t150.5 90t163 30q88 0 152.5 -25.5t105.5 -54.5q68 74 151 107.5t175 33.5q66 0 114 -11 t78 -28q45 12 72 31q61 -20 43 -131q-41 -233 -83 -449l-83 -415q-23 -109 -31 -175.5t-7 -101.5t11.5 -46t26.5 -11q20 0 45 13.5t60 45.5q27 -25 36 -61q-49 -59 -111.5 -100t-119.5 -41q-145 0 -139 165q0 25 2 53.5t9 71.5l19 109q11 66 29 164l46 237l67 330 q25 119 0 190.5t-125 71.5q-45 0 -83 -19.5t-69.5 -69.5t-59.5 -139t-52 -228h202q0 -23 -3 -43.5t-11 -36.5q-53 0 -110.5 -5.5t-98.5 -11.5l-43 -258q-18 -106 -34.5 -187t-33 -144.5t-36.5 -127.5q-31 -102 -85 -198t-126 -171t-159 -120t-185 -45q-72 0 -117 21.5 t-84 52.5q-51 -72 -111.5 -112t-132.5 -40q-96 0 -182 74q-4 33 0 63.5zM193 -252q63 -29 163 -29q72 0 124 12.5t91 43t66 83t47 130.5l37.5 156.5t34 171l36 217l44.5 292.5l-82 8.5t-99 4.5q-59 0 -111 -5.5t-98 -11.5l-50 -272l-56 -307q-25 -147 -62.5 -271.5 t-84.5 -222.5zM465 918h387q16 78 36.5 142t47.5 118q-31 59 -80 94t-115 35q-104 0 -172.5 -99.5t-103.5 -289.5z" />
<glyph horiz-adv-x="749" d="M684 682q-16 -86 -74.5 -151.5t-173.5 -147.5l-54 -40l-68 -51l-72 -59l-70 -57q29 4 54 4h57q49 0 80.5 -4t60.5 -4q31 0 59.5 24.5t46.5 96.5q23 2 52.5 -2t42.5 -12q-12 -57 -17.5 -123t-3.5 -113q-10 -23 -30.5 -36t-57.5 -13q-49 0 -109.5 3t-156.5 3h-73 q-32 0 -63 -1l-67 -2q-35 -1 -80 -3q-12 18 -17 47t-1 51l90 83l93 80l87 71l72 57q88 68 130 129t58 137q16 84 -3 133t-81 49q-76 0 -114.5 -57t-71.5 -194q-25 -2 -55.5 2t-47.5 14q37 113 44 235q78 49 143 69t143 20q135 0 203 -62.5t45 -175.5z" />
<glyph horiz-adv-x="739" d="M639 340q29 0 49 -21q-6 -12 -12 -32l-12 -43q-6 -23 -10.5 -44.5t-6.5 -35.5h-106l-31 -164h-191l31 162q-121 -2 -204 -4t-134 -4q-18 14 -31.5 51t-9.5 63l313 320l302 332q31 2 53.5 -3.5t38.5 -13.5l-105 -563h66zM401 442q10 59 23.5 116.5t32.5 111.5h-2 q-16 -25 -52 -69t-108 -122q-39 -43 -77 -78.5l-66 -60.5h231z" />
<glyph horiz-adv-x="569" d="M338 1157q10 49 11 79t-10 47t-39 22.5t-75 5.5q-10 47 15 82q82 10 144 27.5t128 47.5q29 -10 44 -39.5t5 -80.5l-104 -535q-8 -43 -10.5 -70.5t6 -45t28 -25.5t51.5 -13q6 -23 7.5 -44t-2.5 -44q-72 4 -114 5.5t-95 1.5t-97.5 -1.5t-107.5 -5.5q0 20 4 46t10 40 q37 4 58.5 12.5t36 26t22.5 44t16 69.5z" />
<glyph horiz-adv-x="638" d="M702 1249q-12 -59 -63 -113.5t-123 -78.5q88 -18 139.5 -78.5t28.5 -171.5q-14 -61 -51 -108.5t-91.5 -78t-122 -46t-140.5 -15.5q-94 0 -142.5 16.5t-77.5 38.5q0 23 12.5 48.5t28.5 35.5q25 -16 63 -28.5t97 -12.5q82 0 140.5 36t72.5 110q16 80 -25.5 125t-152.5 45 q-10 23 -8 43t10 43q94 14 138 59t61 121q12 63 -7.5 101t-70.5 38q-49 0 -84 -48t-68 -171q-25 -4 -55.5 0t-48.5 15q6 20 13 49.5t13.5 60.5t10.5 60.5t4 52.5q47 31 115.5 51t127.5 20q139 0 209 -51t47 -168z" />
</font>
</defs>
</svg>
