<?xml version="1.0" standalone="no"?>
<!DOCTYPE svg PUBLIC "-//W3C//DTD SVG 1.1//EN" "http://www.w3.org/Graphics/SVG/1.1/DTD/svg11.dtd" >
<svg xmlns="http://www.w3.org/2000/svg">
<metadata>
This is a custom SVG webfont generated by Font Squirrel.
Copyright   : Copyright c 2010 Friedrich Althausen httpfriedrichalthausende All rights reservedThis Font Software is licensed under the SIL Open Font License Version 11This license is available with a FAQ at httpscriptssilorgOFL
Designer    : Friedrich Althausen
Foundry     : Friedrich Althausen
Foundry URL : httpfriedrichalthausende
</metadata>
<defs>
<font id="webfontksAiltW2" horiz-adv-x="1519" >
<font-face units-per-em="2048" ascent="1536" descent="-512" />
<missing-glyph horiz-adv-x="409" />
<glyph unicode=" "  horiz-adv-x="409" />
<glyph unicode="&#x09;" horiz-adv-x="409" />
<glyph unicode="&#xa0;" horiz-adv-x="409" />
<glyph unicode="!" horiz-adv-x="731" d="M104 233q16 82 74 126t162 44q43 0 84 -16t69.5 -48t42 -78t1.5 -107q-16 -80 -69.5 -126t-152.5 -46q-115 0 -175.5 64t-35.5 187zM272 528q20 217 29.5 430t9.5 424q86 10 177.5 32t162.5 54q47 -14 60.5 -56t-17.5 -136q-20 -61 -46 -152l-55 -193q-30 -103 -58 -214 l-56 -215q-55 -4 -110.5 1t-96.5 25z" />
<glyph unicode="&#x22;" horiz-adv-x="825" d="M242 872q23 137 34 277.5t11 257.5q61 6 116.5 21.5t100.5 39.5q37 -16 44 -60t-20 -108q-31 -74 -65.5 -192.5t-69.5 -265.5q-41 0 -79.5 7t-71.5 23zM590 872q23 137 34 277.5t11 257.5q61 6 116.5 21.5t100.5 39.5q37 -16 44 -60t-19 -108q-31 -74 -66 -192.5 t-70 -265.5q-41 0 -79.5 7t-71.5 23z" />
<glyph unicode="#" horiz-adv-x="1187" d="M53 379q0 45 8.5 81t28.5 79h232l67 313q-68 0 -125 -1t-102 -3q0 49 8 86t29 74h223l96 454q43 -2 81 -12t67 -33l-86 -409h268l96 454q41 -2 80 -10t70 -31l-88 -413h211q0 -51 -8.5 -86t-28.5 -68h-205l-68 -315h223q0 -47 -8 -83t-28 -71h-220l-83 -401q-47 0 -85 10 t-67 35l76 354h-269l-84 -399q-100 0 -147 53l74 346q-70 -2 -128.5 -2t-107.5 -2zM479 539h269l67 315h-268z" />
<glyph unicode="$" horiz-adv-x="1091" d="M-14 127q57 152 77 319q59 10 121 12.5t121 -9.5q-18 -209 76 -271l65 342q-59 37 -117.5 82t-99.5 108.5t-59 149.5t4 205q29 150 150.5 233.5t291.5 100.5l31 153q49 0 91 -6t85 -24l-24 -123q96 -10 166.5 -36t111.5 -60q-10 -80 -17 -169.5t-5 -148.5 q-102 -33 -228 -20q-2 154 -71 225l-31 -155q-14 -75 -31 -148q66 -37 132.5 -80t116.5 -101.5t73.5 -139.5t5.5 -191q-14 -82 -57 -148.5t-107.5 -117t-149.5 -82t-182 -41.5l-28 -160q-47 0 -93.5 8t-85.5 31l23 119q-59 4 -106.5 15t-89.5 28.5t-79.5 42t-80.5 57.5z M481 1143q-10 -47 6.5 -84t51.5 -68l47 246q-41 -8 -69 -30.5t-36 -63.5zM557 160q41 14 71.5 41.5t37.5 66.5q8 47 -9.5 82t-52.5 64z" />
<glyph unicode="%" horiz-adv-x="1495" d="M155.5 956.5q-12.5 69.5 6.5 153.5q29 125 127 200.5t231 75.5q80 0 139.5 -26.5t96.5 -74.5t48 -116.5t-7 -152.5q-14 -63 -47 -114.5t-78 -88.5t-100.5 -57.5t-116.5 -20.5q-84 0 -147.5 26.5t-101.5 76t-50.5 119zM219 121l1045 1282q47 -18 77.5 -55t40.5 -84 l-193 -233l-171 -207l-159 -193l-158 -196l-170 -212l-191 -241q-43 14 -79 55t-42 84zM377 1112q-18 -100 6.5 -160.5t83.5 -60.5q41 0 72.5 32.5t42.5 86.5q18 100 -4.5 160.5t-81.5 60.5q-43 0 -76 -33t-43 -86zM770 202.5q-12 69.5 6 153.5q29 125 127 201t232 76 q80 0 139 -26.5t96 -75t48.5 -117t-7.5 -152.5q-14 -63 -47 -114.5t-78 -88t-100.5 -57t-116.5 -20.5q-84 0 -147.5 26.5t-101.5 75.5t-50 118.5zM991 358q-18 -100 6.5 -160.5t83.5 -60.5q41 0 73 33t42 86q18 100 -4.5 160.5t-81.5 60.5q-43 0 -76 -33t-43 -86z" />
<glyph unicode="&#x26;" horiz-adv-x="1675" d="M14 432q14 78 52 134.5t92.5 98.5t120 70.5t137.5 50.5q-47 76 -73 134.5t-38 108.5t-12 94t8 91q8 49 39 95.5t93.5 82t160.5 56t242 20.5q242 0 352 -87t80 -242q-16 -80 -53 -135.5t-89.5 -94.5t-116 -66.5t-128.5 -51.5l60 -79l69 -89l129 -160q55 -66 98 -111 q63 78 82 168q20 104 -37 150.5t-176 46.5q0 88 24 155q41 2 94.5 11.5t106.5 22t102.5 25.5t79.5 25q70 -23 102 -97.5t5 -213.5q-20 -109 -86 -209t-168 -186q31 -14 58.5 -17.5t62.5 -3.5q66 0 131 37q12 -10 23.5 -26.5t21.5 -36t16.5 -38t6.5 -32.5 q-18 -25 -55.5 -51.5t-86.5 -49t-106.5 -36.5t-116.5 -14q-96 0 -165 12t-140 61q-98 -35 -207 -54t-225 -19q-152 0 -267.5 25.5t-190.5 80.5t-105 140t-7 204zM430 412q-12 -68 3.5 -119t50 -87t87 -53.5t111.5 -17.5q109 0 213 25q-51 53 -111 125l-135 170l-61 83 l-56 74q-37 -37 -63.5 -85.5t-38.5 -114.5zM686 1214q-10 -55 11.5 -120.5t90.5 -171.5q61 35 103.5 84t56.5 120q16 78 -18.5 133.5t-114.5 55.5q-53 0 -87 -28t-42 -73z" />
<glyph unicode="'" horiz-adv-x="477" d="M242 872q23 137 34 277.5t11 257.5q61 6 116.5 21.5t100.5 39.5q37 -16 44 -60t-20 -108q-31 -74 -65.5 -192.5t-69.5 -265.5q-41 0 -79.5 7t-71.5 23z" />
<glyph unicode="(" horiz-adv-x="710" d="M80 255q-4 151 20 298q27 150 67 276.5t103.5 242.5t155.5 225.5t223 220.5q47 4 90 -9.5t68 -35.5q-80 -90 -141.5 -184.5t-108.5 -201t-82 -229.5t-61 -272q-55 -322 -38 -607.5t99 -500.5q-31 -18 -69.5 -25.5t-79.5 -7.5q-74 111 -128.5 243t-84 274t-33.5 293z" />
<glyph unicode=")" horiz-adv-x="686" d="M-123 -516q88 119 154.5 232.5t116 230t85 242.5t60.5 270q55 317 42 563t-97 451q31 23 70.5 34t74.5 11q164 -242 218 -490t7 -526q-29 -162 -74 -301.5t-114.5 -266.5t-163.5 -246.5t-221 -242.5q-41 0 -83 8t-75 31z" />
<glyph unicode="*" horiz-adv-x="1034" d="M223 1071q8 76 44 139.5t100 102.5q51 -68 96 -117t112 -111q0 80 -4 153t-14 159q82 10 155.5 -5.5t127.5 -56.5q-43 -61 -82 -128.5t-72 -135.5q82 25 153.5 52.5t139.5 60.5q41 -72 47 -143.5t-16 -159.5q-88 27 -159 43t-157 28q53 -66 102.5 -120t112.5 -115 q-49 -57 -121.5 -91t-162.5 -32q-2 86 -9.5 157.5t-23.5 157.5l-86 -125t-84 -139q-150 53 -180 219q78 31 142.5 61.5t133.5 69.5q-72 27 -138.5 43.5t-156.5 32.5z" />
<glyph unicode="+" horiz-adv-x="1095" d="M53 446q2 49 13.5 94.5t37.5 84.5h383l78 407q47 8 91 5t87 -21q-23 -98 -42 -196l-37 -195h403q-2 -47 -12.5 -91.5t-36.5 -78.5h-387q-43 -227 -80 -455q-51 -4 -97 2t-81 31l82 420q-94 -2 -192.5 -2.5t-209.5 -4.5z" />
<glyph unicode="," horiz-adv-x="555" d="M-33 -301q74 70 119 134.5t53 114.5t-23.5 85t-109.5 45q0 125 64 225q82 4 157.5 24.5t128.5 51.5q39 -16 61.5 -71.5t0.5 -174.5q-29 -162 -116 -292t-208 -218q-92 13 -127 76z" />
<glyph unicode="-" horiz-adv-x="671" d="M55 463q8 72 19.5 119t31.5 86h543q-2 -59 -11 -105.5t-32 -93.5q-102 0 -237.5 -1t-313.5 -5z" />
<glyph unicode="." horiz-adv-x="591" d="M27 233q16 82 73.5 126t161.5 44q43 0 84 -16t69.5 -48t42 -78t1.5 -107q-16 -80 -69.5 -126t-151.5 -46q-115 0 -175.5 64t-35.5 187z" />
<glyph unicode="/" horiz-adv-x="618" d="M-57 63l673 1405q100 -2 164 -61l-133 -267l-111 -228l-101 -210l-99 -212l-108 -233l-124 -275q-51 6 -91.5 26t-69.5 55z" />
<glyph unicode="0" horiz-adv-x="1169" d="M51.5 350.5q-18.5 114.5 7.5 255.5q41 211 197 323.5t406 112.5q141 0 241.5 -43t160.5 -122.5t77.5 -191.5t-8.5 -247q-41 -221 -194 -338.5t-394 -117.5q-145 0 -248.5 45t-165 127t-80 196.5zM431 447.5q-1 -95.5 14.5 -164t47 -105.5t78.5 -37q53 0 97.5 57.5 t62.5 153.5q23 119 25 216.5t-13.5 167t-49.5 107.5t-83 38q-53 0 -97 -60.5t-60 -161.5q-21 -116 -22 -211.5z" />
<glyph unicode="1" horiz-adv-x="835" d="M8 -6q4 45 13.5 82t25.5 78q37 6 61.5 14t40 29.5t26.5 60.5t24 104l55 304q10 59 12 97t-8 59.5t-35.5 31.5t-68.5 16q-6 35 -7.5 77t5.5 83q76 -4 160.5 -5t183.5 -1q80 0 170 1t182 5q0 -82 -29 -160q-43 -4 -67.5 -14t-41 -35.5t-27.5 -72t-26 -123.5l-49 -256 q-12 -68 -14 -107t8 -60.5t33.5 -31.5t60.5 -16q6 -41 7.5 -79t-3.5 -81q-88 4 -160.5 5t-172.5 1q-113 0 -200 -1t-159 -5z" />
<glyph unicode="2" horiz-adv-x="995" d="M2 188q31 37 71 75l81 74q41 36 83 68.5l76 57.5q115 82 170.5 144.5t67.5 125.5q14 74 -13.5 114t-84.5 40q-25 0 -42.5 -12.5t-31.5 -43t-28.5 -82t-31.5 -126.5q-59 0 -116.5 10t-98.5 29q20 63 29.5 136.5t9.5 139.5q92 53 202 78.5t245 25.5q186 0 284.5 -74.5 t75.5 -197.5q-6 -39 -24.5 -71.5t-53 -65.5t-89 -68t-130.5 -78q-74 -41 -136 -80.5t-122 -84.5q29 4 52 4h49q41 0 74.5 -3.5t56.5 -3.5q35 0 52 24t34 89q43 8 100 0t94 -26q-20 -78 -28.5 -169.5t-1.5 -158.5q-14 -39 -47 -61.5t-76 -22.5q-53 0 -125 3t-178 3 q-94 0 -202 -1t-212 -5q-20 35 -29.5 90t-5.5 104z" />
<glyph unicode="3" horiz-adv-x="968" d="M-68 -289q0 14 8.5 35t18.5 41t21.5 36.5t21.5 22.5q68 -33 174 -32q256 0 301 209q27 125 -36.5 196.5t-188.5 63.5q-20 29 -26.5 78t3.5 88q129 29 216 85t106 162q16 86 -13.5 138.5t-95.5 52.5q-25 0 -43 -12.5t-32.5 -42t-28.5 -81t-31 -128.5q-14 -2 -45 2 t-65.5 10t-64.5 14t-40 13q18 59 28.5 134.5t12.5 141.5q90 53 189.5 78.5t226.5 25.5q227 0 318 -84t65 -227q-14 -72 -73.5 -134t-184.5 -118q121 -55 174 -158.5t18 -263.5q-23 -98 -83 -174t-152 -128t-211 -78.5t-256 -26.5q-72 0 -134.5 16t-97.5 45z" />
<glyph unicode="4" horiz-adv-x="1157" d="M-18 209l416 416l407 422q147 0 244 -46l-134 -696h76q68 0 90 -67q-23 -47 -40 -107.5t-31 -130.5h-154l-59 -313q-96 10 -175 0.5t-151 -37.5q-70 35 -55 112l45 236q-141 -2 -251 -3t-185 -5q-25 47 -36 104.5t-7 114.5zM283 305h239l10 57q20 98 35 159t31 108 q-31 -41 -64.5 -80t-74.5 -80l-86 -82z" />
<glyph unicode="5" horiz-adv-x="935" d="M-86 -303q16 88 68 143q41 -14 81.5 -19t83.5 -5q111 0 179.5 50t85.5 136q25 125 -55.5 189.5t-286.5 91.5q-23 33 -32 65.5t-5 73.5l182 608q117 -4 213 -5t190 -1q100 0 119 113q47 8 104.5 5t100.5 -20q-27 -88 -40 -180t-21 -178q-25 -61 -107 -62h-298 q-120 0 -202 -4l-30 -108q332 -43 470 -168t91 -359q-18 -96 -75.5 -171.5t-143.5 -130t-195.5 -83t-232.5 -28.5q-78 0 -143.5 12t-100.5 35z" />
<glyph unicode="6" horiz-adv-x="1153" d="M68 596q63 319 318 503.5t669 207.5q33 -49 4 -150q-205 -41 -346.5 -141.5t-212.5 -249.5q72 23 131 33t125 10q94 0 166.5 -29.5t116.5 -85t59.5 -132.5t-2.5 -171q-39 -199 -191.5 -304t-400.5 -105q-270 0 -382.5 158.5t-53.5 455.5zM428.5 269.5 q20.5 -115.5 95.5 -115.5q66 0 109 50t61 142q27 135 -12 216t-129 81q-53 0 -98 -14l-6 -27q-41 -217 -20.5 -332.5z" />
<glyph unicode="7" horiz-adv-x="923" d="M63 575q39 111 65 232t36 223q88 -4 186.5 -5t202.5 -1h85q48 0 98 1l101 2q50 1 91 3q23 -39 34 -83t7 -85l-161 -211q-65 -88 -107 -155.5t-68.5 -122t-48.5 -109.5q-29 -74 -46.5 -185.5t-17.5 -297.5q-80 -16 -162 -50t-145 -79q-37 14 -59.5 51t-22.5 90 q0 45 11.5 102.5t62.5 157t157.5 254t296.5 391.5h-208q-74 0 -119 -32.5t-84 -118.5q-43 -4 -95.5 3t-89.5 25z" />
<glyph unicode="8" horiz-adv-x="1116" d="M31 356q10 55 38.5 102.5t67.5 87.5t86 70.5t96 53.5q-82 72 -114.5 162t-9.5 194q27 129 162 204t343 75q248 0 346.5 -80t73.5 -217q-33 -168 -268 -263q133 -100 174 -206.5t14 -247.5q-12 -68 -53 -124t-109.5 -97t-162.5 -64.5t-215 -23.5q-268 0 -387 90.5 t-82 283.5zM416 301q2 -47 15 -82t38 -56.5t57 -21.5q47 0 79 35t42 90q16 80 -18.5 145.5t-143.5 143.5q-20 -29 -35.5 -66.5t-25.5 -87.5q-10 -53 -8 -100zM571 1077q-14 -66 10.5 -119t106.5 -108q68 63 82 156q14 72 -10.5 115.5t-79.5 43.5q-43 0 -72 -26.5t-37 -61.5z " />
<glyph unicode="9" horiz-adv-x="1144" d="M10 -284q-2 40 13 87q129 27 228 69t173 97.5t126 122t87 139.5q-51 -20 -111.5 -31.5t-124.5 -11.5q-186 0 -276 118t-49 335q35 180 187.5 287.5t414.5 107.5q119 0 210 -37.5t147.5 -112.5t73.5 -185.5t-11 -258.5q-35 -172 -124 -311t-227.5 -239.5t-320.5 -162 t-399 -75.5q-15 22 -17 62zM459 552q0 -58 16.5 -102t48 -70t84.5 -26q45 0 82 15q10 29 17 59l12 59q18 104 20 176t-10 116t-36.5 64.5t-57.5 20.5q-63 0 -105.5 -54t-58.5 -132q-12 -68 -12 -126z" />
<glyph unicode=":" horiz-adv-x="593" d="M31 250q16 82 73.5 126t161.5 44q43 0 84 -16.5t70 -48t42 -78t1 -107.5q-16 -80 -69.5 -126t-151.5 -46q-115 0 -175.5 64.5t-35.5 187.5zM135 786q16 82 73.5 126t162.5 44q43 0 84 -16t69.5 -48t42 -78t0.5 -107q-16 -80 -69.5 -126t-151.5 -46q-115 0 -175.5 64 t-35.5 187z" />
<glyph unicode=";" horiz-adv-x="591" d="M-16 -301q74 70 118.5 134.5t53 114.5t-23.5 85t-109 45q0 125 63 225q82 4 157.5 24.5t129.5 51.5q39 -16 61.5 -71.5t-0.5 -174.5q-29 -162 -116 -292t-207 -218q-92 13 -127 76zM133 786q16 82 73.5 126t162.5 44q43 0 84 -16t69.5 -48t42 -78t0.5 -107 q-16 -80 -69.5 -126t-151.5 -46q-115 0 -175.5 64t-35.5 187z" />
<glyph unicode="&#x3c;" horiz-adv-x="1019" d="M61 469q-4 43 9.5 95t38.5 93l675 459q96 -12 148 -94l-709 -481l506 -437q2 -55 -11 -107t-38 -77l-332 304z" />
<glyph unicode="=" horiz-adv-x="1085" d="M20 238q2 49 16.5 98t41.5 88h942q-2 -47 -15.5 -95t-39.5 -83h-225q-110 0 -222 -1t-234.5 -3t-263.5 -4zM84 612q2 49 16.5 98.5t40.5 88.5h942q-2 -47 -15 -95.5t-40 -82.5h-224q-110 0 -222.5 -1.5t-234.5 -3.5t-263 -4z" />
<glyph unicode="&#x3e;" horiz-adv-x="1257" d="M10 9q-8 44 2 91l707 422l-580 549q31 29 77 44t95 13l547 -522q31 -84 2 -190l-206 -115l-197 -117l-199 -123l-209 -133q-31 37 -39 81z" />
<glyph unicode="?" horiz-adv-x="1091" d="M254 1083q27 86 40 153t17 140q84 45 179.5 68.5t189.5 23.5q227 0 334.5 -77.5t79.5 -223.5q-12 -68 -48 -115.5t-82 -86.5t-98.5 -73t-98.5 -72t-82 -87t-50 -119q-4 -31 -4 -57.5t4 -60.5q-35 -23 -86 -33t-98 -6q-45 31 -67 105.5t-5 156.5q18 94 63 150.5t95.5 99.5 t94.5 88t58 119t-8.5 104.5t-58.5 30.5q-20 0 -40 -11.5t-39.5 -42t-42 -84t-48.5 -137.5q-68 0 -113 11t-86 36zM264 231q16 82 73.5 126t162.5 44q43 0 84 -16t69.5 -48t42 -78t0.5 -107q-16 -80 -69.5 -126t-151.5 -46q-115 0 -175.5 64t-35.5 187z" />
<glyph unicode="@" horiz-adv-x="1826" d="M65.5 134q-40.5 177 0.5 407q33 182 121.5 331.5t222 256t305.5 165t368 58.5q203 0 351.5 -52.5t239.5 -150.5t122 -241.5t0 -325.5q-23 -123 -76 -232.5t-128.5 -190.5t-168 -129t-192.5 -48q-66 0 -109 19t-66.5 53t-29.5 78t0 93h-2q-84 -119 -186.5 -181t-210.5 -62 q-98 0 -156.5 50t-84.5 124.5t-27 160.5t14 158q18 94 61 181t118 154t184.5 106.5t256.5 39.5q72 0 130.5 -9t105.5 -25q59 6 114.5 14t108.5 20q43 -35 55.5 -75.5t-2.5 -104.5l-92 -399q-12 -53 -16 -85t-1 -49.5t11 -23.5t18 -6q53 0 102.5 84t82.5 242 q55 319 -94.5 490t-485.5 171q-147 0 -276 -45t-229.5 -129t-168 -202.5t-92.5 -266.5q-68 -391 104.5 -601t559.5 -210q147 0 288.5 50t258.5 132q33 -12 52 -40.5t25 -57.5q-117 -111 -284.5 -177.5t-374.5 -66.5q-223 0 -395 63.5t-282 185.5t-150.5 299zM774 327.5 q8 -73.5 68 -73.5q25 0 56.5 20.5t64 69.5t63.5 133t55 211l23 94q-25 10 -62.5 16.5t-62.5 6.5q-39 0 -68.5 -20.5t-52 -55.5t-38 -84t-27.5 -104q-27 -140 -19 -213.5z" />
<glyph unicode="A" horiz-adv-x="1454" d="M-74 -6q2 47 8.5 84t22.5 76q25 4 47.5 15t45 33.5t51 60.5t65.5 97l87 139l121 199l170 286l234 400q41 10 76 11.5t82 1.5l90 -293l79 -273l64 -239q29 -111 48 -193q18 -80 32.5 -127t29.5 -72.5t30.5 -34.5t38.5 -11q6 -29 7 -71v-12q0 -37 -5 -77q-31 2 -76 3l-93 2 q-48 1 -90 1h-67h-73q-48 0 -102 -1l-106 -2q-51 -1 -81 -3q2 96 28 160q86 16 105 51q10 18 9 46q0 25 -7 58l-9 31q-113 0 -229.5 -4t-239.5 -17l-6 -8q-25 -41 -25 -76q0 -13 4 -26q13 -45 79 -55q5 -47 5 -84t-9 -76q-16 2 -48 3t-69 2t-74 1h-61q-51 0 -103.5 -1 t-85.5 -5zM410 473h346l-33 124q-16 62 -35 124q-12 41 -21.5 95t-15.5 114l-55 -112l-47 -93l-70 -126z" />
<glyph unicode="B" horiz-adv-x="1458" d="M18 -6q4 45 14.5 84t26.5 76q39 2 63.5 11t41 34.5t28 74t25.5 129.5l109 623q10 61 11 98t-11.5 58.5t-38 32t-64.5 16.5q-9 29 -8 63v14q2 42 6 83q47 -4 110.5 -5.5t117.5 -1.5q82 0 207.5 3.5t254.5 3.5q168 0 277.5 -25t170 -71t77.5 -112q9 -35 8 -77q0 -36 -6 -76 q-16 -104 -109.5 -178t-263.5 -98q104 -6 174 -36t110 -82t50 -123q4 -29 4 -62q0 -45 -8 -95q-14 -82 -59.5 -147.5t-128.5 -111.5t-208 -71.5t-299 -25.5q-188 0 -364.5 -1t-317.5 -5zM607 238q3 -39 16.5 -58.5t36 -23.5t47.5 -4q82 0 153.5 70.5t93.5 193.5q5 33 6 60 q0 24 -5 44q-9 41 -37.5 64.5t-76.5 33t-116 9.5h-59l-50 -283q-10 -54 -9 -90q-1 -8 0 -16zM694 797h66q100 0 176 67.5t98 192.5q4 22 4 40q0 57 -32 90q-43 44 -123 44q-37 0 -63.5 -9.5t-55.5 -21.5z" />
<glyph unicode="C" horiz-adv-x="1275" d="M102 434q-13 67 -12 141q0 79 14 166q29 166 108 290t189.5 207t240.5 124t263 41q125 0 236.5 -23.5t210.5 -85.5q-49 -145 -68 -317q-41 -16 -92 -21q-15 -1 -29 -1l-73 8q5 45 5 81q0 33 -4 59q-9 54 -34 86t-63 44t-85 12q-80 0 -144.5 -45t-113.5 -119.5t-81.5 -171 t-51.5 -198.5q-16 -92 -16 -173q0 -20 1 -40q5 -98 41 -170t103.5 -113t171.5 -41q66 0 140.5 17.5t162.5 60.5q25 -27 36 -62.5t16 -78.5q-98 -63 -213 -96t-259 -33q-168 0 -293.5 56t-202.5 156.5t-104 239.5z" />
<glyph unicode="D" horiz-adv-x="1501" d="M20 -6q2 41 10.5 80t26.5 80q39 2 64.5 12t42 36.5t28 75t23.5 125.5l107 623q10 61 11 99t-10.5 59.5t-37 32t-64.5 14.5q-8 41 -8 85t8 75q35 -2 83 -3.5t103.5 -2.5t113.5 -1h114q47 0 102.5 2.5t122.5 2.5q154 0 285 -29t221 -106.5t126 -214.5q18 -67 18 -154 q0 -89 -19 -199q-29 -160 -89.5 -273.5t-139 -190.5t-167.5 -121t-175 -66.5t-162 -28.5t-127 -6h-4h-142q-86 0 -176 -1t-169 -2t-120 -3zM603 252q0 -39 12 -59q13 -23 41 -31t75 -8q25 0 70 18t97 77.5t102.5 174.5t84.5 307q20 119 21 205q0 26 -2 49q-8 98 -41 153.5 t-85 76t-112 20.5q-29 0 -55.5 -5t-54.5 -20l-140 -837q-13 -78 -13 -121z" />
<glyph unicode="E" horiz-adv-x="1306" d="M20 -6q2 41 10.5 80t28.5 82q39 2 65 12t42 35.5t27.5 74t25.5 125.5l109 623q10 61 10 98t-12.5 58.5t-39 32t-65.5 16.5q-7 46 -7 84q0 34 7 76q47 -2 118 -3.5t148.5 -2.5t153.5 -1h135h201q88 0 155.5 1t120 2.5t95.5 3.5q-14 -86 -21 -184q-3 -42 -3 -82 q0 -54 5 -107q-96 -25 -201 -25q-4 53 -14 97.5t-36.5 75t-74 48t-122.5 17.5h-115l-76 -449h12q45 0 77 5.5t51.5 20.5t29.5 42t17 70q62 13 127 12q29 0 59 -2q-14 -57 -26.5 -122t-22.5 -142q-8 -55 -13.5 -113.5t-7.5 -112.5q-49 2 -92 8.5t-84 22.5q0 31 -4 58.5 t-18.5 50t-41 36t-71.5 13.5h-16l-43 -256q-12 -72 -12.5 -115t13 -65.5t43 -30.5t76.5 -8h29q104 0 174 64.5t121 227.5q63 -10 108.5 -26.5t90.5 -50.5q-25 -72 -50.5 -172.5t-37.5 -202.5q-47 2 -113 3t-139.5 2t-149.5 1h-141h-138q-85 0 -174 -1l-171 -2 q-83 -1 -132 -3z" />
<glyph unicode="F" horiz-adv-x="1241" d="M12 -6q10 92 39 160q39 2 65.5 12t44 36.5t31 75t25.5 125.5l109 623q10 61 11 98t-11.5 58.5t-38 32t-64.5 16.5q-6 35 -6 76t4 84q68 -2 143 -3l148 -3q74 -1 141 -1h121h201q88 0 155.5 1t120 2.5t95.5 3.5q-14 -86 -21 -184q-3 -42 -3 -82q0 -54 5 -107 q-96 -25 -201 -25q-4 53 -14 97.5t-36.5 75t-74 48t-122.5 17.5h-115l-90 -537h33q45 0 76.5 5.5t51 20.5t29.5 41.5t17 69.5q62 13 127 13q29 0 59 -2q-14 -57 -26.5 -122t-22.5 -142q-8 -55 -13.5 -118t-7.5 -116q-49 2 -92 8t-84 23v12q0 67 -21 109q-24 45 -114 45h-37 l-26 -158q-13 -71 -14 -110q0 -37 16 -60q16 -25 56 -37t110 -22q6 -35 7 -77v-17q0 -33 -3 -66q-86 4 -185.5 5t-206.5 1q-102 0 -203.5 -1t-187.5 -5z" />
<glyph unicode="G" horiz-adv-x="1378" d="M102 436q-13 67 -12 141q0 79 14 166q29 168 108 292t190.5 206t246.5 122t277 40q139 0 254.5 -25.5t199.5 -79.5q-20 -63 -37.5 -150t-27.5 -165q-47 -20 -101 -26q-20 -2 -40 -2q-32 0 -64 6q3 33 3 62q0 109 -37 158q-46 62 -158 62q-84 0 -152 -45t-118 -119.5 t-83 -171t-51 -196.5q-19 -106 -19 -197q0 -17 1 -33q4 -104 30.5 -179t76.5 -116t122 -41q35 0 54.5 4.5t35.5 14.5q25 14 38 46t26 107q9 54 9 91q0 43 -16 66q-14 22 -42.5 32t-71.5 16q-6 35 -7 77q0 6 -1 12q0 36 6 71q76 -4 157.5 -5t149.5 -1q80 0 154.5 1t166.5 5 q0 -82 -28 -160q-29 -4 -47.5 -10t-31.5 -29.5t-25.5 -72t-26.5 -134.5q-5 -38 -5 -67q0 -10 1 -18q2 -34 12 -80q-102 -55 -241.5 -92t-289.5 -37q-168 0 -293.5 56t-202.5 157.5t-104 240.5z" />
<glyph unicode="H" horiz-adv-x="1658" d="M20 -6q4 45 13.5 82t25.5 78q37 6 61.5 15t41 30.5t27 59.5t22.5 103l113 664q10 59 12 97t-8.5 59.5t-36 32t-68.5 16.5q-6 35 -7 77v12q0 36 5 71q76 -4 161 -5.5t183 -1.5q80 0 170 1t183 6q0 -82 -29 -160q-43 -4 -67.5 -14.5t-41 -36t-28 -71.5t-25.5 -124l-37 -213 h402l43 254q10 59 12 97t-8.5 59.5t-36 32t-68.5 16.5q-6 35 -7 77v12q0 36 5 71q76 -4 161 -5.5t183 -1.5q80 0 170 1t183 6q0 -82 -29 -160q-43 -4 -67.5 -14.5t-41 -36t-28 -71.5t-25.5 -124l-106 -616q-12 -66 -13.5 -105t8 -61.5t33 -32.5t60.5 -16q6 -41 7 -79v-16 q0 -31 -3 -65q-88 4 -161 5t-173 1q-113 0 -200 -1t-159 -5q4 45 13.5 82t25.5 78q37 6 61.5 15t41 30.5t27 59.5t22.5 103l41 244l-204 -4q-103 -2 -200 -8l-38 -225q-12 -66 -13.5 -105t8 -61.5t33 -32.5t60.5 -16q6 -41 7 -79v-16q0 -31 -3 -65q-88 4 -161 5t-173 1 q-113 0 -200 -1t-159 -5z" />
<glyph unicode="I" horiz-adv-x="847" d="M20 -6q4 45 13.5 82t25.5 78q37 6 61.5 15t41 30.5t27 59.5t22.5 103l113 664q10 59 12 97t-8.5 59.5t-36 32t-68.5 16.5q-6 35 -7 77v12q0 36 5 71q76 -4 161 -5.5t183 -1.5q80 0 170 1t183 6q0 -82 -29 -160q-43 -4 -67.5 -14.5t-41 -36t-28 -71.5t-25.5 -124 l-106 -616q-12 -66 -13.5 -105t8 -61.5t33 -32.5t60.5 -16q6 -41 7 -79v-16q0 -31 -3 -65q-88 4 -161 5t-173 1q-113 0 -200 -1t-159 -5z" />
<glyph unicode="J" horiz-adv-x="847" d="M-113 -326q61 31 108.5 68t83.5 91t62.5 130t44.5 184l152 873q12 63 14 103t-8 62.5t-34.5 32t-67.5 13.5q-9 35 -9.5 71t5.5 89q74 -4 166 -5.5t186 -1.5q92 0 184 1t160 6q-4 -90 -25 -160q-41 -4 -66.5 -12.5t-43 -33t-30.5 -73.5t-28 -133l-127 -723 q-25 -141 -63.5 -256t-111 -207t-190.5 -165.5t-298 -131.5q-39 33 -51.5 79t-12.5 99z" />
<glyph unicode="K" horiz-adv-x="1615" d="M20 -6q4 45 13.5 82t25.5 78q45 2 71 15t41 42t24.5 75t21.5 117l107 623q10 59 12 97t-8.5 59.5t-36 32t-68.5 16.5q-6 35 -7 77v12q0 36 5 71q76 -4 161 -5.5t183 -1.5q80 0 170 1t183 6q0 -82 -29 -160q-43 -4 -67.5 -14.5t-41 -36t-28 -71.5t-25.5 -124l-35 -203 l320 275q55 47 84.5 77.5t39 49t-1 29t-36.5 18.5q-6 35 -6 77t4 83q59 -4 131.5 -5.5t126.5 -1.5h73q41 0 81 1t74 2.5t52 3.5q0 -39 -6 -79t-22 -83q-43 -4 -75 -10.5t-66.5 -23.5t-76.5 -49l-104 -83l-313 -260q86 -84 154.5 -188.5t127.5 -241.5q29 -72 56.5 -97.5 t66.5 -25.5q27 0 53.5 6t47.5 18q23 -23 41 -62.5t22 -74.5q-72 -76 -166 -115.5t-200 -39.5q-133 0 -209 56t-121 195q-35 115 -78 205t-102 183l-46 -259q-10 -63 -12 -101t6.5 -60.5t26.5 -31.5t49 -15q6 -41 7 -79q0 -8 1 -16q0 -31 -4 -65q-43 2 -79 3l-71 2 q-36 1 -75 1h-88q-113 0 -200 -1t-159 -5z" />
<glyph unicode="L" horiz-adv-x="1310" d="M20 -6q4 43 13.5 81t25.5 79q41 4 66 14t41 35.5t26.5 74t24.5 125.5l109 623q10 59 12 97t-9.5 59.5t-37 32t-68.5 16.5q-8 35 -8 77t6 83q76 -4 161 -5.5t193 -1.5h88q48 0 99 1l101 3q50 1 95 3q0 -39 -6 -79t-22 -81q-55 -6 -89 -16.5t-54.5 -36t-34 -71.5 t-25.5 -122l-106 -612q-13 -78 -14 -121q0 -39 13 -59q13 -23 40.5 -31t74.5 -8h35q104 0 173 77.5t118 229.5q127 -27 209 -94q-12 -31 -26.5 -74t-27 -92t-23.5 -102.5t-17 -104.5q-53 2 -120 3l-137 2q-71 1 -143 1h-133h-148q-91 0 -185.5 -1t-174.5 -2t-115 -3z" />
<glyph unicode="M" horiz-adv-x="1996" d="M-74 -6q0 41 7.5 83t23.5 77q33 10 56.5 27.5t45 50t42 83t44.5 127.5l51 163q24 77 43 149.5t36 145.5l36 153q12 53 14.5 85.5t-7 51t-34 27t-65.5 14.5q-8 35 -8 77t6 83q27 -2 66 -3l77 -3q39 -1 74 -1h58q55 0 132.5 1t153.5 6q63 -213 119.5 -426t103.5 -430 l243 426l226 430q86 -4 164 -5.5t121 -1.5q55 0 111.5 1t132.5 6q0 -84 -27 -160q-41 -8 -66.5 -23.5t-41 -45t-22.5 -76t-11 -113.5l-15.5 -280.5t-19.5 -280.5q-7 -87 -7 -131q0 -42 9 -68q10 -29 31.5 -42t60.5 -17q8 -35 8 -77t-6 -83q-76 4 -160.5 5t-193.5 1 q-80 0 -175 -1t-187 -5q0 39 6 79t22 81q53 6 85 19t50.5 44t27.5 82t17 131q16 135 25 270l16 273l-265 -493l-283 -486q-47 -10 -84 -11t-72 -1q-59 258 -126 509.5t-144 499.5l-34 -143l-35 -145l-35 -136l-32 -121q-20 -78 -28 -129q-4 -27 -5 -49q0 -19 4 -35 q7 -33 31.5 -51t71.5 -28q6 -37 6 -78t-4 -82q-41 4 -96 5t-115 1q-72 0 -140.5 -1t-113.5 -5z" />
<glyph unicode="N" horiz-adv-x="1458" d="M12 -6q2 41 10.5 85t20.5 75q45 14 76 31.5t53.5 49t38.5 82t33 129.5q35 174 66.5 350.5t60.5 356.5l-13 21q-18 31 -43.5 42t-91.5 15q-8 37 -8 74.5t6 85.5q63 -4 132 -5.5t128 -1.5q57 0 121 1t117 6q121 -190 233.5 -390t212.5 -403q14 86 26 171l21 169 q8 80 11 131v14q0 42 -11 69q-12 32 -41.5 49.5t-85.5 29.5q-6 37 -6 78t4 82q70 -4 133.5 -5.5t110.5 -1.5q59 0 127 1t133 6q-2 -41 -10 -85t-21 -75q-43 -14 -72.5 -31.5t-50 -48.5t-34 -82t-25.5 -131q-35 -236 -73.5 -468t-88.5 -468q-43 -12 -87 -16t-101 -4l-259 488 l-273 480q-43 -256 -93 -504q-16 -80 -20 -131q-1 -13 -1 -24q0 -35 9 -59q12 -32 42 -49t85 -29q6 -37 6 -78t-4 -82q-70 4 -133.5 5t-110.5 1q-59 0 -126.5 -1t-133.5 -5z" />
<glyph unicode="O" d="M95 424q-12 61 -11 128q0 80 16 167q31 164 105 291t179 215t239.5 133t285.5 45q164 0 290 -51.5t205 -145.5t107 -227q14 -64 14 -135q0 -76 -16 -160q-31 -158 -101.5 -287t-177 -221t-241.5 -143t-295 -51q-170 0 -295 55t-201.5 153.5t-102.5 233.5zM494 498 q0 -9 -1 -18q0 -96 21 -169q23 -80 72 -125t127 -45q68 0 126 42t107 118t87 183.5t63 238.5q17 92 17 174q0 16 -1 32q-4 95 -29.5 166.5t-75 112.5t-118.5 41q-131 0 -226.5 -140t-142.5 -382q-24 -123 -26 -229z" />
<glyph unicode="P" horiz-adv-x="1359" d="M25 -6q4 37 12 79t24 83q39 2 64 12t41 35.5t27.5 74t25.5 125.5l109 623q10 61 11 98t-11.5 58.5t-38 32t-64.5 16.5q-6 33 -7 75v16q0 34 3 69q94 -4 181 -5.5t173 -1.5q98 0 203 3.5t244 3.5q229 0 328 -136q69 -95 69 -244q0 -62 -12 -134q-16 -96 -64.5 -176 t-123 -138.5t-176 -90.5t-226.5 -32q-29 0 -54.5 4.5t-45.5 14.5q0 14 1 34.5t5 41t9 40t11 33.5q4 -2 11.5 -3t23.5 -1q35 0 73 18.5t70.5 53.5t58.5 88t38 121q12 62 11 115q0 77 -24 135q-42 96 -155 96q-43 0 -82 -17l-143 -831q-12 -66 -12.5 -106.5t18 -65.5t57.5 -37 t105 -20q8 -39 8 -79t-4 -81q-86 4 -182.5 5t-188.5 1q-117 0 -216 -1t-185 -5z" />
<glyph unicode="Q" horiz-adv-x="1521" d="M93 431q-10 57 -10 119q0 81 17 169q31 164 105 291t179 215t239.5 133t285.5 45q164 0 290 -51.5t205 -145.5t107 -227q14 -64 14 -135q0 -76 -16 -160q-23 -121 -69.5 -224.5t-115.5 -188.5t-157 -146.5t-192 -97.5q33 -6 60.5 -17.5t59 -31t69.5 -50.5l89 -75 q37 -33 61.5 -43.5t53.5 -10.5q51 0 96 39q23 -23 43.5 -61.5t24.5 -73.5q-141 -152 -358 -152q-119 0 -190 54.5t-107 171.5q-31 98 -80 145t-142 60q-160 6 -277.5 64t-189 155.5t-95.5 229.5zM494 498q0 -9 -1 -18q0 -96 21 -169q23 -80 72 -125t127 -45q68 0 126 42 t107 118t87 183.5t63 238.5q17 92 17 174q0 16 -1 32q-4 95 -29.5 166.5t-75 112.5t-118.5 41q-131 0 -226.5 -140t-142.5 -382q-24 -123 -26 -229z" />
<glyph unicode="R" horiz-adv-x="1568" d="M20 -6q4 45 13.5 82t25.5 78q37 2 61.5 12t41 36.5t30 75t25.5 125.5l107 623q10 59 12 97t-8.5 59.5t-36 32t-68.5 16.5q-6 35 -7 77v12q0 36 5 71q76 -4 168 -5.5t191 -1.5q59 0 174.5 5.5t242.5 5.5q135 0 230.5 -35t151 -93.5t74.5 -134.5q11 -44 11 -92 q0 -35 -6 -71q-12 -78 -50 -143.5t-92 -116t-123 -85t-142 -51.5q49 -31 90 -87t80 -148q23 -59 47 -77.5t59 -18.5q27 0 49.5 8t38.5 18q23 -23 43.5 -61.5t24.5 -73.5q-72 -76 -172.5 -113.5t-206.5 -37.5q-61 0 -106.5 15t-82 51t-66.5 94.5t-58 146.5q-33 94 -57.5 146 t-59.5 95h-27l-29 -168q-10 -63 -13 -101t3 -60.5t23.5 -31.5t48.5 -15q6 -41 7 -79v-16q0 -31 -3 -65q-43 2 -78 3l-68 2q-34 1 -72 1h-87q-113 0 -200 -1t-159 -5zM680 713q12 -2 23 -2h22q47 0 95 18.5t90 55t73 91t43 125.5q8 40 8 74q0 63 -28 102q-43 58 -134 58 q-29 0 -54 -6t-52 -17z" />
<glyph unicode="S" horiz-adv-x="1091" d="M-14 127q57 152 77 319q59 10 121 13h18q52 0 103 -10q-3 -33 -3 -63q0 -236 190 -236q61 0 112 32.5t62 85.5q2 14 2 27q0 49 -31 84q-39 45 -102 86l-138 87q-74 46 -132 112.5t-88 162.5q-16 51 -16 114q0 57 13 124q14 84 62.5 147.5t119 105.5t159.5 63.5t187 21.5 q133 0 228.5 -30t146.5 -70q-10 -80 -17 -169q-6 -69 -6 -121q0 -15 1 -28q-74 -24 -161 -24q-32 0 -67 4q-4 133 -54 203.5t-148 70.5q-57 0 -95 -22.5t-49 -73.5q-3 -17 -3 -33q0 -33 15 -60q22 -40 62.5 -74t95.5 -65l113 -65q57 -35 111.5 -76t92.5 -97.5t54 -128.5 q8 -36 8 -78.5t-8 -90.5q-16 -90 -66.5 -163t-128 -124t-178 -78.5t-213.5 -27.5q-84 0 -146.5 8t-112.5 25.5t-96 45t-95 66.5z" />
<glyph unicode="T" horiz-adv-x="1312" d="M127 1010q14 37 28.5 85t27 99t21.5 102.5t13 94.5q61 -2 121.5 -3.5t128.5 -2.5t149 -1h189h173q75 0 142 1l134 3q67 1 145 3q-10 -86 -14 -195q-1 -25 0 -50q0 -82 8 -157q-45 -14 -98 -19q-29 -3 -59 -3q-24 0 -48 2q-10 145 -52 203.5t-128 58.5h-2l-148 -848 q-11 -68 -11 -106q0 -37 15 -61q16 -26 55 -39t107 -23q8 -39 9 -81v-17q0 -33 -3 -62q-68 4 -172 5t-229 1q-137 0 -254 -1t-201 -5q4 45 14.5 87t22.5 73q68 8 108.5 19t66.5 38t40 72t27 120l143 828h-2q-82 0 -152.5 -65.5t-119.5 -198.5q-59 0 -106.5 9t-88.5 34z" />
<glyph unicode="U" horiz-adv-x="1386" d="M206 1308v12q0 36 5 71q76 -4 161 -5.5t183 -1.5q80 0 170 1t182 6q0 -82 -28 -160q-43 -4 -68 -14.5t-41 -36t-27.5 -71.5t-25.5 -124l-80 -440q-18 -100 -18 -174q0 -80 21 -129q40 -94 148 -95q68 0 117 29t86 82t61.5 126t41.5 163l75 430q14 80 20 127q2 20 2 35 q0 22 -4 37q-7 25 -29.5 35t-63.5 20q-6 37 -8 75v11q0 34 6 74q66 -4 124 -5.5t97 -1.5q66 0 111.5 1t101.5 6q-2 -41 -9.5 -83t-19.5 -77q-43 -6 -68.5 -14.5t-42 -36t-28.5 -79.5t-29 -147l-67 -387q-29 -158 -72 -269.5t-109.5 -182t-162 -102t-228.5 -31.5 q-150 0 -250 35.5t-155.5 104t-69.5 171.5q-5 38 -5 80q0 72 15 157l88 496q10 59 12.5 97t-8 59.5t-36 32t-68.5 16.5q-6 35 -7 77z" />
<glyph unicode="V" horiz-adv-x="1413" d="M185 1302v12q0 37 5 77q39 -2 86 -3l93 -3q45 -1 83 -1h60h70q43 0 92 1l101 3q52 1 102 3q-2 -49 -10.5 -90t-18.5 -70q-88 -10 -103 -62q-5 -17 -4 -40q0 -46 19 -117q39 -141 68.5 -274.5t56.5 -288.5q104 174 172.5 306t113.5 238q29 68 38 111q5 24 6 43q0 15 -4 27 q-7 27 -29.5 39t-57.5 18q-8 39 -7 82q0 37 5 78q51 -4 123 -5.5t117 -1.5q57 0 101 1t110 6q-4 -86 -29 -160q-27 -6 -47 -19.5t-41.5 -41t-45.5 -71.5t-56 -112l-122 -241l-130 -241l-140 -248l-153 -257q-41 -12 -91 -15t-95 -3l-138 527l-145 515q-18 63 -33.5 101 t-31 59.5t-35 31t-47.5 15.5q-7 29 -8 71z" />
<glyph unicode="W" horiz-adv-x="2002" d="M185 1302v12q0 37 5 77q39 -2 86 -3l93 -3q45 -1 83 -1h60h70q43 0 92 1l101 3q52 1 102 3q-2 -49 -10.5 -90t-18.5 -70q-102 -12 -126 -83q-13 -38 -13 -91q0 -46 10 -103q12 -80 28.5 -176t30.5 -219l216 410l206 415q61 14 123 14l41 -1q63 -225 113.5 -430t91.5 -422 q51 104 96 206.5t86 206.5q46 116 46 178q0 13 -2 23q-11 61 -81 72q-8 39 -8 82q0 37 6 78q51 -4 123 -5.5t117 -1.5q57 0 101 1t110 6q-4 -86 -29 -160q-27 -6 -51.5 -21.5t-51 -50.5t-56 -93t-68.5 -148l-203 -462l-219 -462q-16 -4 -43 -5t-57.5 0t-61.5 6t-55 11 l-43 210l-42 197l-46 194l-54 204q-98 -209 -203 -412l-216 -407q-20 -4 -50 -5q-7 0 -14 -1q-22 0 -44 3q-30 3 -56.5 8t-44.5 13q-35 270 -72 522t-76 461q-14 74 -23.5 117t-21.5 67.5t-27.5 36t-41.5 17.5q-7 29 -8 71z" />
<glyph unicode="X" horiz-adv-x="1400" d="M-74 -6q4 86 29 160q49 6 89 19t74 32.5t65.5 48.5t66.5 70l163 190q79 96 132 174l-80 172l-90 180q-29 55 -49.5 89t-41 54.5t-41 31t-48.5 16.5q-6 29 -8 71v12q0 37 6 77q39 -2 89 -3l98 -3q48 -1 89 -1h63h70q43 0 92 1l102 3q52 1 101 3q-2 -49 -10 -90t-19 -70 q-43 -6 -67.5 -17.5t-29.5 -35t6 -61.5t40 -97l34 -76l34 -78l64 79l61 75q49 61 69.5 100t21.5 61.5t-14.5 34t-37.5 15.5q-8 39 -8 82q0 37 6 78q51 -4 122.5 -5.5t116.5 -1.5q57 0 114.5 1t123.5 6q-4 -86 -29 -160q-35 -6 -63.5 -15.5t-56 -27t-56.5 -47t-66 -76.5 l-161 -205q-70 -86 -136 -158l61 -145l48 -117q35 -86 60.5 -138t50 -82t52 -44t66.5 -22q6 -29 8 -71v-12q0 -37 -6 -77q-39 2 -89 3l-98 2q-48 1 -90 1h-63h-70q-42 0 -91 -1l-102 -2q-52 -1 -101 -3q2 49 10 90t19 70q76 8 86 54q2 9 1 20q0 49 -36 147l-56 149l-73 -92 l-80 -94q-76 -85 -76 -134q0 -41 43 -50q8 -39 8 -82q0 -37 -6 -78q-51 4 -122.5 5t-116.5 1q-57 0 -129 -1t-138 -5z" />
<glyph unicode="Y" horiz-adv-x="1241" d="M176 -6q4 45 14.5 87t22.5 73q68 8 108.5 19t66.5 38t40 72t27 120l32 195l-31 101q-15 48 -34 100l-39 105l-45 120q-25 63 -42 101t-33.5 59.5t-33 31t-36.5 15.5q-6 29 -8 71v12q0 37 5 77q39 -2 86 -3l93 -3q45 -1 83 -1h60h70q43 0 92 1l101 3q52 1 102 3 q-2 -49 -10.5 -90t-18.5 -70q-88 -10 -106 -51q-7 -16 -6 -38q0 -32 16 -75q23 -59 46 -136t44 -163q51 82 92 155.5t78 153.5q26 53 25 87q0 12 -3 21q-12 36 -82 46q-8 39 -7 82q0 37 5 78q51 -4 123 -5.5t117 -1.5q57 0 101 1t110 6q-4 -86 -29 -160q-16 -4 -30.5 -10.5 t-33 -25.5t-44 -55t-64.5 -100l-161 -249l-146 -220l-33 -188q-11 -68 -11 -106q0 -37 15 -61q16 -26 55 -39t107 -23q8 -39 9 -81v-17q0 -33 -3 -62q-68 4 -172 5t-229 1q-137 0 -254 -1t-201 -5z" />
<glyph unicode="Z" horiz-adv-x="1144" d="M-29 160l211 276l194 262l184 260l188 273h-86q-47 0 -85 -14.5t-71 -49t-63.5 -94t-63.5 -149.5q-139 6 -217 63q18 43 36.5 95.5t34 106.5t26.5 106.5l20 95.5q39 -2 98 -3l124 -3q65 -1 129 -1h111h116q62 0 125 1l120 3q57 1 102 3q23 -33 32 -71q6 -26 6 -60 q0 -15 -1 -31l-187 -274l-184 -263l-187 -264l-202 -274h49q68 0 118 14t90 49t74 92.5t69 143.5q66 -10 116 -30t97 -54q-16 -39 -34 -87.5t-33 -98.5t-27.5 -99t-18.5 -90q-57 2 -125 3l-135 2q-68 1 -133 1h-121q-129 0 -247 -1t-208 -5q-20 31 -31 73q-10 36 -10 77v16z " />
<glyph unicode="[" horiz-adv-x="671" d="M-78 -549l365 2069q223 -10 444 0q12 -39 10 -82t-14 -88q-68 -6 -111 -14.5t-68.5 -27t-38.5 -50t-22 -80.5l-243 -1375q-10 -53 -8 -86.5t18 -53t52 -29t95 -11.5q14 -84 -14 -172q-43 2 -102.5 3t-123 1t-126 -1t-113.5 -3z" />
<glyph unicode="\" horiz-adv-x="624" d="M193 1438q82 45 176 22l163 -1460q-35 -16 -84 -22.5t-96 4.5q-29 352 -69.5 728t-89.5 728z" />
<glyph unicode="]" horiz-adv-x="667" d="M-80 -551q-2 41 8.5 90t32.5 84q61 2 100 11.5t65 29t39 53t23 86.5l244 1375q8 49 7 80.5t-18.5 50t-56 26.5t-104.5 15q0 47 11.5 93t33.5 77q109 -4 214.5 -4t232.5 4l-365 -2071q-53 2 -113.5 4t-122 2t-121 -2t-110.5 -4z" />
<glyph unicode="^" horiz-adv-x="1024" d="M219 877l459 540q31 14 77 16.5t81 -8.5l51 -140l60 -156l63 -155q31 -77 59 -140q-12 -8 -31.5 -14.5t-43 -10.5t-46 -5t-41.5 3l-174 448l-206 -243l-183 -228q-47 4 -79 29t-46 64z" />
<glyph unicode="_" horiz-adv-x="1077" d="M-98 -328q2 49 16 98.5t41 88.5h942q-2 -47 -15.5 -95.5t-39.5 -82.5h-224q-110 0 -222.5 -1.5t-234.5 -3.5t-263 -4z" />
<glyph unicode="`" horiz-adv-x="544" d="M219 1425q74 20 160 27.5t172 -8.5q14 -76 37.5 -166t52.5 -168q-43 -12 -97.5 -12t-94.5 14q-47 80 -100.5 151.5t-129.5 161.5z" />
<glyph unicode="a" horiz-adv-x="1249" d="M9 317v12q0 79 14 146q18 94 61 181t117.5 154t184.5 106.5t257 39.5q72 0 130 -9t106 -25q59 6 114.5 14t108.5 20q43 -35 55 -75q6 -19 6 -43q0 -28 -8 -62l-92 -399q-12 -53 -17.5 -85t-4.5 -49.5t7.5 -23.5t16.5 -6q14 0 28.5 6t41.5 23q20 -20 40.5 -60.5 t24.5 -75.5q-68 -66 -145.5 -95t-173.5 -29q-66 0 -109 19t-66.5 53t-29.5 78q-3 22 -3 45.5t3 47.5h-2q-84 -119 -186.5 -181t-211.5 -62q-98 0 -156.5 50t-84 124.5t-26.5 160.5zM424 328q8 -74 68 -74q25 0 56.5 20.5t64 69.5t63.5 133t55 211l23 94q-25 10 -63 16.5 t-62 6.5q-39 0 -69 -20.5t-52.5 -55.5t-37.5 -84t-28 -104q-20 -106 -20 -175q0 -21 2 -38z" />
<glyph unicode="b" horiz-adv-x="1191" d="M12 164q27 43 50.5 104.5t43.5 175.5l105 592q8 55 11 90t-7 54.5t-36.5 28t-76.5 8.5q0 37 6.5 77.5t20.5 75.5q127 4 246 23.5t221 60.5q20 -18 33.5 -33.5t19.5 -35t6 -46t-6 -65.5l-45 -248q-10 -55 -20.5 -98t-21.5 -81t-24.5 -73l-29.5 -74h2q86 125 190.5 190.5 t214.5 65.5q98 0 156.5 -50t84.5 -124.5t27 -160.5v-12q0 -79 -14 -146q-18 -96 -62 -183t-119 -153t-185.5 -105.5t-259.5 -39.5q-166 0 -305.5 48t-225.5 134zM442 156q29 -14 56.5 -18.5t54.5 -4.5q84 0 129 76t68 188q20 106 20 175q0 21 -2 38q-8 74 -68 74 q-25 0 -56.5 -20.5t-64 -69.5t-63.5 -133t-55 -211z" />
<glyph unicode="c" horiz-adv-x="923" d="M14 291q-3 28 -2 56q0 64 13 132q14 76 52 160t109.5 154.5t182 116.5t272.5 46q86 0 163 -21.5t122 -51.5q-41 -119 -41 -224q-52 -19 -109 -19q-34 0 -69 7q1 12 0 24q0 50 -14 86q-17 44 -72 44q-51 0 -100.5 -55.5t-74.5 -190.5q-16 -74 -19 -139q-1 -12 -1 -23 q0 -51 12 -90q14 -47 51 -74.5t103 -27.5q68 0 127 20.5t102 42.5q23 -39 31 -78q5 -26 5 -57q0 -16 -1 -33q-47 -33 -93 -54.5t-97.5 -34.5t-109.5 -19t-130 -6q-139 0 -226 40.5t-132.5 109.5t-53.5 159z" />
<glyph unicode="d" horiz-adv-x="1263" d="M9 317v12q0 79 14 146q18 94 61 181t117.5 154t184.5 106.5t257 39.5q35 0 63.5 -2t57.5 -6q0 27 2 49.5t4 38.5q8 55 11 90t-7 54.5t-36.5 28t-75.5 8.5q0 37 6 77.5t20 75.5q127 4 246 23.5t221 60.5q20 -18 33.5 -33.5t19.5 -35t6 -46t-6 -65.5l-159 -901 q-8 -49 -12.5 -81t-4.5 -49.5t6 -23.5t17 -6q14 0 28.5 6t40.5 23q20 -20 41 -60.5t25 -75.5q-68 -66 -145.5 -95t-170.5 -29q-66 0 -106.5 21.5t-64 55t-28.5 77.5q-2 17 -2 35q0 28 5 56h-2q-86 -121 -188.5 -183t-211.5 -62q-98 0 -156.5 50t-84 124.5t-26.5 160.5z M424 328q8 -74 68 -74q25 0 56.5 20.5t64 69.5t63.5 133t55 211l23 94q-23 10 -62 16.5t-63 6.5q-39 0 -69 -20.5t-52.5 -55.5t-37.5 -84t-28 -104q-20 -106 -20 -175q0 -21 2 -38z" />
<glyph unicode="e" horiz-adv-x="1024" d="M14 291q-3 28 -2 56q0 64 13 132q20 106 73.5 194.5t133 152t183 97t226.5 33.5q188 0 279 -75q73 -62 73 -151q0 -20 -4 -42q-10 -53 -52 -108.5t-112.5 -103.5t-170 -82t-226.5 -40q6 -72 43 -112.5t121 -40.5q68 0 127 20.5t102 42.5q23 -39 31 -78q5 -26 5 -57 q0 -16 -1 -33q-47 -33 -93 -54.5t-97.5 -34.5t-109.5 -19t-130 -6q-139 0 -226 40.5t-132.5 109.5t-53.5 159zM438 512q121 10 197 56t88 114q4 23 4 42q0 85 -90 85q-59 0 -111.5 -59.5t-79.5 -194.5z" />
<glyph unicode="f" horiz-adv-x="847" d="M-322 -408q0 47 12.5 108.5t35.5 104.5q49 -25 104 -35t115 -10q49 0 82.5 11.5t55 44t35 94t23.5 162.5q10 111 29.5 280.5t50.5 374.5q-51 16 -93 22.5t-73 6.5q0 43 6.5 88t22.5 74h166l2 12q25 125 60.5 224t103 168t176 104.5t276.5 35.5q86 0 156 -10t102 -27 q-10 -31 -19 -73.5t-17.5 -88.5t-12.5 -89.5t-4 -73.5q-12 -6 -37.5 -11.5t-54.5 -8.5t-59.5 -5t-55.5 -2v76q0 41 -4 77t-16 59.5t-37 23.5q-29 0 -49.5 -17.5t-37.5 -62.5t-34.5 -120t-38.5 -191h189q0 -49 -4.5 -96.5t-16.5 -73.5q-55 0 -102 -5.5t-103 -21.5l-30 -189 l-31 -190q-25 -166 -81 -319.5t-139 -271.5t-190.5 -188.5t-236.5 -70.5q-66 0 -122.5 23.5t-103.5 76.5z" />
<glyph unicode="g" horiz-adv-x="1169" d="M-33 -455q10 31 19.5 72t16.5 84t11 83t4 71q12 6 38 11t54.5 8t59.5 5t55 2q6 -238 144 -237q90 0 141 61.5t74 190.5l12 65q6 39 14 72t17.5 63.5t23.5 64.5l33 77h-2q-86 -125 -190.5 -190.5t-215.5 -65.5q-98 0 -156.5 50t-84 124.5t-26.5 160.5v12q0 79 14 146 q18 94 61 181t117.5 154t184.5 106.5t257 39.5q74 0 133.5 -9t106.5 -25q133 12 198 34q43 -35 55 -73q6 -20 6 -48q0 -25 -5 -55l-133 -757q-49 -274 -222.5 -404.5t-443.5 -130.5q-117 0 -212.5 14t-158.5 43zM424 328q8 -74 68 -74q25 0 56.5 20.5t64 69.5t63.5 133 t55 211l23 94q-23 10 -62 16.5t-63 6.5q-39 0 -69 -20.5t-52.5 -55.5t-37.5 -84t-28 -104q-20 -106 -20 -175q0 -21 2 -38z" />
<glyph unicode="h" horiz-adv-x="1353" d="M29 0l182 1036q8 55 11 90t-7 54.5t-36.5 28t-76.5 8.5q0 37 6.5 77.5t20.5 75.5q127 4 246 23.5t221 60.5q20 -18 33.5 -33.5t19.5 -35t6 -46t-6 -65.5l-53 -281l-40 -196q-17 -82 -32.5 -141.5t-34.5 -112.5h3l45 94q33 68 83 126t113.5 101t136 67.5t150.5 24.5 q63 0 111.5 -18t73.5 -67q27 -50 27 -137q0 -83 -30 -208l-35 -149q-12 -53 -17 -85t-4 -49.5t7 -23.5t16 -6q14 0 28.5 6t41.5 23q20 -20 40.5 -60.5t25.5 -75.5q-68 -66 -155 -95t-179 -29q-88 0 -139.5 26.5t-73.5 75.5q-20 43 -20 101v16q3 68 22 151l8 37q16 72 20 118 q2 18 2 33q0 23 -4 39q-6 26 -22 36t-39 10q-31 0 -70 -28t-77.5 -89.5t-74.5 -160.5t-61 -243l-18 -104h-395z" />
<glyph unicode="i" horiz-adv-x="694" d="M37 719q0 37 6 78t20 75q248 6 447 84q45 -25 67 -67q12 -24 12 -63q0 -29 -7 -66l-74 -383q-19 -95 -19 -128q0 -36 25 -36q12 0 27.5 6t38.5 23q20 -20 40.5 -60.5t24.5 -75.5q-68 -66 -155 -95t-179 -29q-88 0 -137 26.5t-71 75.5q-20 45 -19 105v12q2 68 20 151 l39 185q12 55 15.5 91t-8 55t-38 27.5t-75.5 8.5zM213 1231q12 84 78.5 128t177.5 44q88 0 140 -54q40 -41 40 -105q0 -20 -4 -42q-29 -168 -256 -168q-92 0 -140 53q-38 42 -39 109q1 17 3 35z" />
<glyph unicode="j" horiz-adv-x="632" d="M-201 -342q53 27 99.5 65.5t84 92t65.5 125t44 165.5l74 433q8 55 11 90t-7 54t-37 27.5t-76 8.5q0 37 6.5 78t20.5 75q127 4 246 23.5t221 60.5q20 -18 33.5 -33.5t19.5 -35t6 -46t-6 -65.5l-92 -520q-31 -174 -81 -297t-127 -209t-185.5 -145.5t-255.5 -108.5 q-64 56 -64 162zM250 1231q12 84 78.5 128t177.5 44q88 0 140 -54q40 -41 40 -105q0 -20 -4 -42q-29 -168 -256 -168q-92 0 -140 53q-38 42 -39 109q1 17 3 35z" />
<glyph unicode="k" horiz-adv-x="1251" d="M29 0l182 1036q8 55 11 90t-7 54.5t-36.5 28t-76.5 8.5q0 37 6.5 77.5t20.5 75.5q127 4 246 23.5t221 60.5q20 -18 33.5 -33.5t19.5 -35t6 -46t-6 -65.5l-44 -241.5t-36.5 -177.5t-36 -140.5t-40.5 -128.5h2q33 80 82 147.5t110.5 116.5t134 77.5t152.5 28.5 q117 0 172 -66q41 -50 41 -118q0 -23 -4 -47q-23 -106 -99.5 -174t-205.5 -109q29 -35 47 -62.5t41 -72.5q23 -47 40 -64.5t42 -17.5t47 17q23 -23 43 -62t22 -74q-68 -66 -143.5 -95t-161.5 -29q-92 0 -154.5 36.5t-97.5 135.5q-20 57 -46 110t-56 101q-4 -14 -7.5 -28.5 l-7.5 -31.5l-61 -305h-395zM537 469q111 6 186.5 39t87.5 98q3 11 3 21q0 20 -11 38q-16 26 -51 25q-59 0 -116.5 -61.5t-98.5 -159.5z" />
<glyph unicode="l" horiz-adv-x="706" d="M68 190q0 29 4 69t19 128l43 242l77 407q10 55 13 90t-8 54.5t-37.5 28t-76.5 8.5q0 37 6.5 77.5t20.5 75.5q127 4 246 23.5t221 60.5q20 -18 33.5 -33.5t19.5 -35t6 -46t-6 -65.5l-166 -897q-10 -53 -13 -85t0 -49.5t10 -23.5t18 -6q14 0 28.5 6t40.5 23 q20 -20 41 -60.5t25 -75.5q-68 -66 -155 -95t-179 -29q-68 0 -113 16t-70.5 44t-36.5 65.5t-11 82.5z" />
<glyph unicode="m" horiz-adv-x="1988" d="M37 719q0 37 6 78t20 75q127 4 246 23.5t221 60.5q41 -23 56 -56q10 -24 10 -52q0 -12 -2 -25q-8 -61 -25.5 -119.5t-52.5 -134.5h2l33 68q33 70 84 128t111.5 101t129 66.5t136.5 23.5q104 0 146 -53t42 -145q0 -104 -29 -189h3l24 56q35 82 87 142t113.5 100t127 58.5 t129.5 18.5q80 0 126 -27.5t64 -80.5q15 -44 15 -103v-27q-4 -77 -25 -178l-33 -151q-22 -100 -21 -132q0 -32 23 -32q14 0 28.5 6t41.5 23q20 -20 40.5 -60.5t24.5 -75.5q-68 -66 -154.5 -95t-178.5 -29q-88 0 -139.5 26.5t-74.5 75.5q-21 43 -21 101v16q3 68 24 151l6 25 q16 72 23 118q5 29 5 50q0 12 -2 21q-4 26 -17 36t-38 10q-27 0 -62.5 -25.5t-72.5 -86t-72 -156.5t-59 -238l-19 -106h-385l74 389q12 70 18 116q3 23 2.5 41t-2.5 32q-5 27 -19.5 37t-41.5 10q-29 0 -65.5 -28t-74.5 -89.5t-74 -161.5t-62 -244l-19 -102h-395l100 537 q10 55 13.5 91t-7 55t-37 27.5t-75.5 8.5z" />
<glyph unicode="n" horiz-adv-x="1368" d="M37 719q0 37 6 78t20 75q127 4 246 23.5t221 60.5q41 -23 56 -56q10 -24 10 -52q0 -12 -2 -25q-10 -66 -28.5 -124t-53.5 -136h2l37 74q33 68 84 126t114.5 101t135 67.5t149.5 24.5q63 0 111.5 -18t74.5 -67q27 -50 26 -137q0 -83 -29 -208l-35 -149q-12 -53 -17.5 -85 t-4.5 -49.5t7.5 -23.5t16.5 -6q14 0 28.5 6t40.5 23q20 -20 41 -60.5t25 -75.5q-68 -66 -155 -95t-179 -29q-88 0 -139 26.5t-74 75.5q-20 43 -20 101q0 8 1 16q3 68 21 151l8 37q16 72 21 118q2 18 1 33q0 23 -3 39q-6 26 -22.5 36t-39.5 10q-31 0 -69.5 -28t-76.5 -89.5 t-74 -161.5t-62 -244l-19 -102h-395l100 537q10 55 13.5 91t-7 55t-37 27.5t-75.5 8.5z" />
<glyph unicode="o" horiz-adv-x="1167" d="M27 283q-11 47 -11.5 99t11.5 110q47 233 201.5 348.5t435.5 115.5q129 0 228 -35.5t161.5 -102t86.5 -161.5q12 -48 12 -102q0 -52 -11 -111q-45 -231 -202 -346.5t-441 -115.5q-129 0 -226.5 36.5t-159.5 103.5t-85 161zM425 360q0 -61 12 -108q13 -51 42 -82t74 -31 q31 0 58.5 21.5t51 61.5t41 95.5t27.5 120.5q14 83 14 148q0 80 -21 131q-38 92 -106 92q-66 0 -112.5 -85t-67.5 -216q-13 -78 -13 -148z" />
<glyph unicode="p" horiz-adv-x="1204" d="M-37 -498l182 1037q8 55 11.5 90t-7 54t-37 27.5t-75.5 8.5q0 37 6 78t20 75q127 4 230.5 23.5t206.5 60.5q41 -37 51 -74q6 -21 6 -43q0 -18 -4 -36q-6 -33 -20.5 -65.5t-38.5 -75.5h2q88 143 200.5 218.5t231.5 75.5q98 0 156.5 -50t84 -124.5t26.5 -160.5v-12 q0 -79 -13 -146q-18 -94 -61.5 -181t-118 -154t-184 -106.5t-257.5 -39.5q-39 0 -72.5 3t-64.5 7q2 -20 2 -43.5t-2 -48.5q-4 -51 -16 -125l-50 -273h-395zM451 156q25 -10 62.5 -16.5t61.5 -6.5q76 0 120 76t67 188q20 106 20 175q0 21 -2 38q-8 74 -67 74 q-25 0 -56.5 -20.5t-64.5 -69.5t-63.5 -133t-55.5 -211z" />
<glyph unicode="q" horiz-adv-x="1200" d="M9 317v12q0 79 14 146q18 98 60 184t116.5 150.5t183.5 103.5t260 43q174 0 314.5 -48t222.5 -134q-29 -43 -51.5 -104.5t-43.5 -175.5l-174 -990h-395l80 457q6 39 14 72t17.5 63.5t23.5 64.5l33 77h-2q-86 -125 -190.5 -190.5t-215.5 -65.5q-98 0 -156.5 50t-84 124.5 t-26.5 160.5zM424 328q8 -74 68 -74q25 0 56.5 20.5t64 69.5t63.5 133t55 211l23 94q-23 10 -62 16.5t-63 6.5q-39 0 -69 -20.5t-52.5 -55.5t-37.5 -84t-28 -104q-20 -106 -20 -175q0 -21 2 -38z" />
<glyph unicode="r" horiz-adv-x="1019" d="M37 719q0 37 6 78t20 75q127 4 246 23.5t221 60.5q63 -33 63 -113q0 -19 -3 -40q-10 -70 -35 -149t-57 -150h2l59 133q31 68 75 126t97 101t113.5 67.5t124.5 24.5q63 0 110 -24q-33 -90 -53 -206t-22 -216q-47 -23 -106 -31q-39 -5 -77 -5q-19 0 -39 1q2 10 3 19 q0 23 -15 43q-20 27 -49 26q-27 0 -62.5 -19.5t-76.5 -78.5q-35 -53 -68 -140t-57 -223l-19 -102h-395l100 537q10 55 13.5 91t-7 55t-37 27.5t-75.5 8.5z" />
<glyph unicode="s" horiz-adv-x="937" d="M-41 63q47 121 49 281q66 22 148 22q33 0 67 -4q2 -221 142 -221q35 0 53 13.5t22 35.5q2 8 2 16q0 26 -21 51q-28 32 -72 66l-96 71q-52 38 -95 85t-66 107q-14 36 -14 78q0 27 6 57q14 72 56 118t106.5 71.5t149.5 35.5t186 10q49 0 99 -6t99 -16t92 -23.5t76 -29.5 q-37 -119 -39 -285q-47 -23 -101 -28q-25 -2 -49 -2q-29 0 -59 3q-4 104 -37.5 172t-103.5 68q-29 0 -49.5 -10.5t-26.5 -44.5q-2 -10 -2 -20q0 -32 22 -60q28 -37 74 -72t101 -72.5t99 -83t69 -102.5q16 -36 15 -80q0 -25 -5 -53q-12 -70 -47 -114t-96.5 -69.5 t-150.5 -35.5t-212 -10q-264 -1 -391 81z" />
<glyph unicode="t" horiz-adv-x="780" d="M37 756q0 43 6 88t23 74h157l4 20q23 92 32 151.5t13 102.5q84 8 169 29.5t139 48.5q39 -10 56 -40t19 -74q0 -7 1 -15q0 -38 -9 -85q-10 -56 -24 -118l-5 -20h181q0 -49 -4 -96.5t-17 -73.5q-55 0 -103 -5.5t-104 -21.5l-51 -223q-20 -90 -26 -145q-3 -27 -3.5 -48 t3.5 -37q6 -31 22 -41t39 -10t47.5 10.5t46.5 32.5q20 -29 34.5 -71t18.5 -80q-25 -29 -63.5 -51.5t-85.5 -40t-96 -26.5t-95 -9q-96 0 -156.5 35.5t-89.5 101.5q-29 63 -29 149q0 92 28 205l63 262q-82 21 -141 21z" />
<glyph unicode="u" horiz-adv-x="1372" d="M37 719q0 37 6 78t20 75q127 4 246 23.5t221 60.5q31 -18 46.5 -38.5t17.5 -57.5v-12q0 -35 -9 -88q-11 -63 -34 -170q-18 -88 -25 -143q-3 -30 -3 -51q0 -19 2 -32q5 -30 20.5 -40.5t40.5 -10.5q31 0 68.5 28t76.5 89.5t75 160.5t62 245l19 102h395l-90 -518 q-12 -68 -17.5 -109t-4.5 -62.5t8.5 -28.5t19.5 -7q20 0 59 29q23 -18 43.5 -58.5t22.5 -77.5q-68 -66 -155 -95t-179 -29q-82 0 -131 20.5t-74.5 53t-30.5 75.5q-2 14 -2 29q0 30 7 61q4 23 11 47.5t19 50.5h-2q-78 -160 -209 -248.5t-286 -88.5q-59 0 -104.5 18t-69.5 66 q-26 49 -26 136q0 83 30 210q25 109 35 169q6 34 5 57q0 19 -3 33q-8 30 -38 37t-83 11z" />
<glyph unicode="v" horiz-adv-x="1159" d="M8 717q0 88 25 155q41 2 94 11.5t106.5 22t102.5 25.5t80 25q41 -12 59.5 -34.5t34.5 -79.5q43 -150 73.5 -293t53.5 -285q88 92 119.5 164t31.5 141q0 74 -43 113q-39 35 -108 35h-14q0 88 24 155q41 2 94.5 11.5t106.5 22t102 25.5t80 25q59 -18 87 -66t28 -140 q0 -84 -32 -169t-106.5 -177.5t-197.5 -196t-305 -225.5q-47 0 -102.5 9t-88.5 32q-35 186 -69.5 331.5t-65.5 243.5q-23 70 -56 96q-29 23 -93 23q-10 1 -21 0z" />
<glyph unicode="w" horiz-adv-x="1710" d="M8 717q0 88 25 155q41 2 94 11.5t106.5 22t102.5 25.5t80 25q41 -12 59.5 -34.5t34.5 -79.5q41 -147 72.5 -287.5t54.5 -280.5q51 68 76.5 131.5t30.5 132.5l2 39q0 52 -10 110q-13 81 -44 185q78 12 139.5 33t116.5 51q41 -12 59.5 -34.5t41.5 -79.5q51 -150 90 -292 t67 -284q76 84 104.5 151.5t28.5 127.5q0 92 -46 134q-42 38 -112 38h-14q0 45 3.5 83t15.5 72q41 2 93 11.5t104.5 22t100.5 25.5t79 25q59 -18 93 -70t34 -167q0 -74 -31 -155t-98.5 -172t-175 -193.5t-259.5 -216.5q-47 0 -99 9t-85 32q-16 102 -33.5 185t-50.5 177 q-39 -115 -129 -215t-225 -188q-47 0 -102.5 9t-88.5 32q-35 186 -69.5 331.5t-65.5 243.5q-23 70 -56 96q-29 23 -93 23q-10 1 -21 0z" />
<glyph unicode="x" horiz-adv-x="1091" d="M-51 6q12 37 21.5 84t16.5 95t11 95.5t4 84.5q47 23 101 28q33 4 67 4q22 0 45 -2q-1 -8 -1 -15q0 -29 13 -46q16 -23 39 -23q16 0 30.5 9.5t29.5 33.5q-10 59 -27.5 122t-38.5 122q-12 37 -27.5 61.5t-36 38t-48.5 17.5q-18 3 -41 2h-25l-2 31q0 26 5 51q7 39 19 73 q41 2 93.5 10.5t105.5 20.5t101.5 25.5t78.5 27.5q35 -6 61.5 -27.5t41.5 -80.5q16 -66 24 -120t8 -89q86 176 180.5 246.5t211.5 70.5q63 0 110 -24q-33 -90 -53 -185.5t-23 -195.5q-47 -23 -95 -31q-32 -5 -68 -5q-18 0 -37 1q1 7 1 14q0 30 -16 49q-18 24 -47 23 q-41 0 -69 -74q12 -53 35.5 -115.5t50.5 -115.5q23 -43 46 -57.5t54 -14.5t47 17q29 -29 44.5 -63t19.5 -73q-25 -29 -61 -51t-75.5 -38.5t-80.5 -25.5t-78 -9q-82 0 -143.5 28.5t-94.5 79.5q-27 41 -43 80t-22 72q-78 -141 -167 -200.5t-194 -59.5q-63 -1 -102 24z" />
<glyph unicode="y" horiz-adv-x="1204" d="M-240 -408q0 47 12.5 108.5t34.5 104.5q49 -25 104.5 -35t115.5 -10q51 0 93 5.5t81 18.5t76.5 37.5t78.5 61.5q-14 104 -29.5 196.5t-34 178.5t-41 170t-48.5 170q-23 70 -57 96q-29 23 -93 23h-20q0 88 24 155q41 2 94.5 11.5t106.5 22t102.5 25.5t79.5 25 q41 -12 59.5 -34.5t35.5 -79.5q45 -156 71.5 -308.5t42.5 -304.5q51 70 84 120t50.5 90t23.5 73t6 63q0 70 -43 108q-39 34 -108 34h-15q0 88 25 155q41 2 94 11.5t106.5 22t102.5 25.5t80 25q115 -37 114 -188q0 -45 -12 -94t-55 -123t-128 -184.5t-233 -278.5 q-166 -193 -276.5 -310.5t-190 -181t-142 -84t-134.5 -20.5q-74 0 -132.5 23.5t-105.5 76.5z" />
<glyph unicode="z" horiz-adv-x="942" d="M-31 150q174 119 309.5 227t241.5 213q-29 6 -54.5 8t-45.5 2q-53 0 -86 -26.5t-55 -79.5q-57 0 -120 15t-98 44q49 96 79 187t46 190q53 14 151.5 20t233.5 6q117 0 192 -5t140 -15q45 -68 45 -145q-92 -113 -207.5 -227.5t-244.5 -221.5q10 2 21 2h26q18 0 37.5 -3 t48.5 -3q18 0 36.5 13.5t41.5 60.5q53 0 107 -11.5t95 -29.5q-29 -61 -42 -150.5t-15 -163.5q-10 -31 -37 -48t-61 -17q-51 0 -92 1t-81 3t-82 3t-93 1h-128q-56 0 -103.5 -1t-88.5 -3l-84 -4q-23 29 -32 73q-5 23 -5 45q0 21 4 40z" />
<glyph unicode="{" horiz-adv-x="786" d="M57 465q-2 31 6.5 66.5t26.5 60.5q100 23 151.5 71t73 111.5t25.5 138t11 151.5t27.5 151.5t77 139t158 114t269.5 75.5q23 -23 30 -66.5t-2 -80.5q-94 -23 -142 -70t-68.5 -109.5t-21.5 -135.5l-2 -146q-1 -74 -8 -143.5t-41 -125t-101.5 -92t-188.5 -45.5 q111 -25 163 -72.5t66.5 -113t-1 -141.5t-40.5 -155l-48 -154q-24 -76 -26.5 -141.5t25 -115t105.5 -73.5q4 -39 -8.5 -77t-41.5 -67q-156 29 -237.5 80t-115.5 118t-30.5 145.5t20.5 159.5t36.5 162t16.5 152.5t-38 131t-127 96.5z" />
<glyph unicode="|" horiz-adv-x="430" d="M-43 -473l375 1939q49 0 91 -6t85 -24l-193 -968l-180 -980q-47 0 -93 8t-85 31z" />
<glyph unicode="}" horiz-adv-x="776" d="M-147.5 -503q2.5 38 22.5 77q96 10 146.5 50t71 101.5t22.5 137.5t2 156.5t8 160.5t42 148.5t102.5 120t189.5 75.5q-119 27 -177.5 72t-76 100.5t-4 120t38.5 130.5l49 133q25 67 31 128.5t-17.5 113.5t-95.5 91q4 37 21.5 73t47.5 58q137 -45 210 -99t102.5 -114.5 t27.5 -126t-16 -132.5l-30 -132q-15 -66 -10 -127t40 -116.5t121 -100.5q12 -31 11 -64.5t-11 -62.5q-98 -33 -149.5 -94.5t-77 -138t-34.5 -164.5t-22.5 -176.5t-40 -171t-87 -147t-165 -106.5t-272.5 -51q-23 39 -20.5 77z" />
<glyph unicode="~" horiz-adv-x="1210" d="M57 500q61 80 116.5 132t104 81.5t89.5 41t73 11.5q68 0 121 -26.5t101.5 -58.5t93.5 -58.5t98 -26.5q57 0 109.5 30.5t115.5 108.5q41 -18 70 -56t35 -81q-92 -127 -176 -186.5t-170 -59.5q-72 0 -125.5 28t-99.5 61.5t-93 61t-106 27.5q-133 0 -254 -155q-41 14 -69 46 t-34 79z" />
<glyph unicode="&#xa1;" horiz-adv-x="731" d="M19.5 -474q-13.5 42 17.5 136q20 61 46 152l55 193q30 103 59 214l55 215q55 4 110.5 -1t96.5 -25q-20 -217 -29.5 -430t-9.5 -424q-86 -10 -177 -32t-163 -54q-47 14 -60.5 56zM195 784q16 80 69 126t152 46q115 0 175 -64.5t36 -186.5q-16 -82 -73.5 -126t-162.5 -44 q-43 0 -84 16t-69.5 48t-41.5 78t-1 107z" />
<glyph unicode="&#xa2;" horiz-adv-x="923" d="M13 306q-5 83 12 173q12 63 41.5 136t83 137.5t133 116t194.5 73.5l58 301q49 0 91 -6t85 -25l-54 -256q82 -4 154 -24.5t115 -48.5q-41 -119 -41 -224q-84 -31 -178 -12q4 66 -13.5 110t-72.5 44q-51 0 -100.5 -55.5t-74.5 -190.5q-16 -74 -19 -139.5t11.5 -112.5 t51 -74.5t102.5 -27.5q68 0 127 20.5t102 42.5q23 -39 31 -78t4 -90q-78 -53 -158 -79.5t-186 -32.5l-45 -260q-47 0 -93 8t-85 30l45 226q-111 14 -178.5 59t-102.5 110.5t-40 148.5z" />
<glyph unicode="&#xa3;" horiz-adv-x="1308" d="M-10 152q61 37 104 70.5t73 70.5t46 79t27 93q12 66 6 121q-57 0 -105.5 -1t-81.5 -3q-4 49 8.5 98t36.5 88h113q-14 66 -22.5 134.5t6.5 150.5q29 154 187.5 252t438.5 98q123 0 226.5 -26.5t163.5 -63.5q-23 -72 -37.5 -149t-16.5 -148q-41 -20 -103.5 -26.5 t-115.5 -2.5q8 133 -46 193.5t-132 60.5q-53 0 -89 -36t-46 -99q-10 -51 -3 -92t19 -79l25 -78q12 -40 16 -89h254q4 -47 -8 -95t-35 -83h-233q-12 -35 -28.5 -65.5t-42.5 -61.5t-62.5 -66t-90.5 -78q55 33 97.5 53.5t78 32t66.5 15.5t66 4q31 0 55 -7t47 -16l44 -15 q22 -7 46 -7q31 0 56.5 19.5t39.5 58.5q41 -6 84 -25.5t68 -42.5q-14 -84 -42 -157.5t-71 -129t-102.5 -88t-134.5 -32.5q-86 0 -143.5 15t-107.5 32.5t-103.5 33t-129.5 15.5q-41 0 -74.5 -5t-66.5 -16.5t-65.5 -29t-71.5 -43.5q-39 25 -61.5 72t-26.5 96z" />
<glyph unicode="&#xa4;" horiz-adv-x="1105" d="M-20 174l174 152q-31 55 -41.5 124.5t4.5 145.5q14 86 65 152l-135 145q23 23 66 37t80 14l94 -104q90 53 207 53q137 0 229 -70l139 123q35 -8 69 -30.5t52 -51.5l-176 -137q27 -49 35 -107.5t-4 -123.5q-18 -106 -82 -187l145 -153q-20 -25 -63 -40.5t-82 -19.5 l-107 121q-90 -53 -205 -53q-59 0 -109 15.5t-91 43.5l-127 -121q-39 2 -76.5 22.5t-60.5 49.5zM277.5 467q9.5 -47 33 -82t62.5 -55.5t88 -20.5q82 0 140 49.5t73 128.5q18 111 -37 186t-160 75q-76 0 -129 -49.5t-69 -131.5q-11 -53 -1.5 -100z" />
<glyph unicode="&#xa5;" horiz-adv-x="1241" d="M176 -6q4 45 14.5 87t22.5 73q59 8 99 18t64.5 27.5t39 48.5t24.5 84l2 10q-59 0 -122.5 -1t-133.5 -3q-2 47 9.5 97t37.5 89h242l12 74l-18 59q-74 0 -131 -1t-115 -5q0 49 14.5 98.5t43.5 88.5h127l-33 87l-37 99q-25 63 -42 101t-33.5 59.5t-33 31t-36.5 15.5 q-6 29 -7.5 70.5t4.5 89.5q39 -2 86 -3l93 -3q45 -1 83 -1h60h70q43 0 92 1l101 3q52 1 102 3q-2 -49 -10.5 -90t-18.5 -70q-88 -10 -105.5 -51t9.5 -113q23 -59 46 -136t44 -163q51 82 92 155.5t78 153.5q35 72 22.5 108t-82.5 46q-14 72 -2 160q51 -4 123 -5.5t117 -1.5 q57 0 101 1t110 6q-4 -86 -29 -160q-16 -4 -30.5 -10.5t-33 -25.5t-44 -55t-64.5 -100l-66 -105l-63 -97h148q2 -47 -8.5 -95.5t-36.5 -83.5h-222l-59 -88l-8 -47h291q4 -47 -8.5 -94t-39.5 -84h-274l-2 -16q-6 -45 -3 -75t21.5 -49.5t56.5 -31.5t99 -20q8 -39 9 -81t-3 -79 q-68 4 -172 5t-229 1q-137 0 -254 -1t-201 -5z" />
<glyph unicode="&#xa6;" horiz-adv-x="428" d="M-43 -473l164 835q49 0 91 -6t85 -24q-45 -209 -86 -419t-76 -425q-47 0 -93 8t-85 31zM172 647l160 819q49 0 91 -6t85 -24q-45 -205 -84 -411t-74 -417q-47 0 -93 8t-85 31z" />
<glyph unicode="&#xa7;" horiz-adv-x="1091" d="M18 449q12 72 45 127t77 97t95.5 70.5t102.5 49.5q-55 66 -84 151.5t-6 206.5q14 76 59 134t108.5 98t139.5 59.5t150 19.5q109 0 185.5 -13t151.5 -48q-18 -57 -29.5 -136t-8.5 -139q-35 -10 -80 -17t-90 -7q2 106 -45.5 154.5t-124.5 48.5q-45 0 -79 -22.5t-44 -68.5 q-12 -55 28.5 -99t107.5 -86l144 -88q78 -46 141.5 -105.5t99.5 -139.5t15 -190q-12 -72 -45 -127t-77 -97t-95 -71t-102 -49q55 -66 83.5 -152t6.5 -207q-14 -78 -59.5 -135t-109 -97t-139 -59.5t-149.5 -19.5q-109 0 -185.5 13.5t-152.5 48.5q18 57 29.5 136t9.5 138 q35 10 80 17.5t90 7.5q-2 -106 45 -154.5t125 -48.5q45 0 79 22.5t44 67.5q12 55 -29 99t-107 86l-145 88q-78 46 -141 105.5t-99 139.5t-16 191zM365 557q-6 -41 14 -76t59 -67.5t89.5 -65.5t103.5 -72q43 20 67.5 47t32.5 74q6 41 -15.5 76t-59.5 67.5t-89 65.5t-102 72 q-43 -20 -67.5 -47t-32.5 -74z" />
<glyph unicode="&#xa8;" horiz-adv-x="1093" d="M281 1237q14 74 60 114t130 40q96 0 139 -58.5t21 -156.5q-18 -76 -64.5 -117t-124.5 -41q-96 0 -138.5 60.5t-22.5 158.5zM741 1225q12 80 61.5 123t141.5 43t135 -56.5t23 -154.5q-31 -162 -195 -162q-96 0 -140 56.5t-26 150.5z" />
<glyph unicode="&#xa9;" horiz-adv-x="1529" d="M65.5 240.5q-28.5 150.5 6.5 332.5q27 141 93 255t164.5 192t222.5 120t265 42q178 0 313.5 -60.5t220.5 -169t113.5 -258t-6.5 -327.5q-27 -145 -92.5 -258t-162.5 -190t-222 -118t-268 -41q-178 0 -314.5 58.5t-220.5 165t-112.5 257zM205.5 295q21.5 -123 89 -209 t179.5 -133t259 -47q113 0 212 33.5t175 95t126 147.5t67 191q29 154 8 276.5t-87.5 209.5t-177 133t-259.5 46q-113 0 -211.5 -33.5t-175 -95t-127 -148.5t-68.5 -192q-31 -151 -9.5 -274zM306 308q-7 81 9 171q12 68 46 143.5t98.5 139t165 105.5t245.5 42 q78 0 146.5 -19.5t109.5 -47.5q-16 -53 -26 -103.5t-10 -97.5q-78 -29 -160 -10q4 59 -11.5 98t-66.5 39q-47 0 -90 -49t-66 -172q-14 -68 -17 -126.5t9 -101.5t46 -67.5t93 -24.5t112.5 18.5t92.5 39.5q23 -35 30 -70t3 -82q-84 -57 -172 -79.5t-215 -22.5t-205 36.5 t-119 98t-48 142.5z" />
<glyph unicode="&#xaa;" horiz-adv-x="1148" d="M220 988.5q-1 64.5 9 117.5q14 72 47 137.5t89.5 115.5t137.5 79.5t191 29.5q57 0 101.5 -7t78.5 -19q51 4 97.5 10t87.5 16q35 -27 44 -57.5t-1 -77.5l-62 -270q-16 -72 -13 -91.5t20 -19.5q20 0 40 17q16 -20 25.5 -64.5t3.5 -75.5q-51 -49 -110.5 -70.5t-128.5 -21.5 q-100 0 -133 54.5t-21 126.5h-4q-63 -88 -140 -134.5t-157 -46.5q-74 0 -118 38t-63.5 93.5t-20.5 120zM562 1023q5 -38 28 -38q35 0 76 65.5t77 219.5l9 43q-29 6 -54 6q-35 0 -71.5 -45t-59.5 -162q-10 -51 -5 -89z" />
<glyph unicode="&#xab;" horiz-adv-x="985" d="M45 420q4 51 21.5 102t42.5 82q80 59 147.5 116.5t138.5 125.5q45 4 84 -14.5t62 -45.5l-108 -126q-60 -73 -107 -138q18 -70 49 -148.5t61 -144.5q-31 -39 -60.5 -63.5t-72.5 -44.5q-55 72 -123.5 151.5t-134.5 147.5zM496 420q4 51 21.5 102t41.5 82q78 57 142.5 111.5 t117.5 109.5q45 4 84 -14t62 -45q-47 -53 -95.5 -115.5t-93.5 -128.5q29 -143 84 -272q-31 -39 -60.5 -63.5t-72.5 -45.5q-55 76 -110 143.5t-121 135.5z" />
<glyph unicode="&#xac;" horiz-adv-x="1142" d="M74 553q2 96 57 176h942l-76 -481q-76 -33 -178 -15l51 328h-184q-92 0 -189.5 -1t-201.5 -3t-221 -4z" />
<glyph unicode="&#xad;" horiz-adv-x="671" d="M55 463q8 72 19.5 119t31.5 86h543q-2 -59 -11 -105.5t-32 -93.5q-102 0 -237.5 -1t-313.5 -5z" />
<glyph unicode="&#xae;" horiz-adv-x="1032" d="M215 1036q16 86 57 156t100.5 119t135.5 75.5t162 26.5q94 0 168.5 -36t122 -96t65.5 -141t0 -173q-33 -180 -154.5 -279.5t-298.5 -99.5q-94 0 -167.5 35.5t-121.5 97t-66.5 143.5t-2.5 172zM315.5 904.5q12.5 -64.5 47 -113t91 -77t128.5 -28.5q131 0 225 76t119 201 q14 76 3 141t-46 113.5t-90.5 76t-128.5 27.5q-133 0 -227.5 -77t-119.5 -204q-14 -71 -1.5 -135.5zM387 788q-2 14 1 35t9 33q23 2 33 12.5t16 44.5l29 170q6 37 1 47.5t-32 14.5q-4 14 -3 35.5t5 33.5q23 -2 52 -2h59q16 0 57 2.5t80 2.5q84 0 119 -39t27 -93 q-8 -41 -38 -73.5t-73 -46.5q29 -20 49 -70q8 -18 29 -18q14 0 24 6q8 -8 14.5 -21.5t6.5 -30.5q-18 -23 -51 -35t-74 -12t-62.5 17.5t-31.5 58.5q-10 39 -17.5 57.5t-17.5 30.5h-10l-8 -47q-4 -25 -2 -33t18 -12q4 -12 4 -32.5t-4 -35.5q-27 2 -48 3h-52h-61q-25 -1 -48 -3 zM598 1014h12q29 0 54.5 17.5t31.5 51.5q6 31 -3 49.5t-38 18.5q-10 0 -17 -2t-17 -6z" />
<glyph unicode="&#xaf;" horiz-adv-x="1105" d="M184 1159q0 31 4.5 68t14.5 65h741q0 -23 -4 -55.5t-14 -62.5q-162 0 -344.5 -2.5t-397.5 -12.5z" />
<glyph unicode="&#xb0;" horiz-adv-x="856" d="M244 1188q20 125 111 184.5t227 59.5q80 0 140 -24t98 -67t52.5 -103t1.5 -134q-23 -125 -113.5 -189.5t-236.5 -64.5q-78 0 -135 24.5t-94 69.5t-50 107.5t-1 136.5zM471 1035.5q18 -62.5 68 -62.5q41 0 70.5 34.5t39.5 94.5q16 96 -6 153.5t-76 57.5q-35 0 -61.5 -31 t-34.5 -80q-18 -104 0 -166.5z" />
<glyph unicode="&#xb1;" horiz-adv-x="919" d="M6 80q2 49 16.5 98t40.5 88h758q-2 -47 -15 -95t-40 -83h-215q-100 0 -192.5 -1t-179.5 -3zM88 600q-4 49 6 94t37 84h279l53 281q41 18 90 20t92 -14q-10 -43 -25.5 -119t-31.5 -168h301q6 -94 -41 -170h-293q-16 -86 -28 -158l-17 -112q-47 -10 -94 -6t-88 26l49 248z " />
<glyph unicode="&#xb2;" horiz-adv-x="782" d="M121 782.5q-2 22.5 4 57.5q47 49 107.5 102t129.5 102q43 31 73 55.5t49.5 48t30.5 45t15 44.5q10 45 -6 71.5t-49 26.5q-39 0 -63.5 -53t-36.5 -125q-41 -4 -84 1t-74 18q8 25 15.5 57.5t12.5 66t9 66.5t4 57q72 25 143.5 35t167.5 10q57 0 111.5 -9t93.5 -32.5 t57.5 -62.5t6.5 -98q-10 -53 -52.5 -100.5t-130.5 -94.5q-47 -25 -91 -56.5t-77 -60.5q14 2 28 2h24q12 0 26.5 -1t30.5 -1q27 0 49.5 13.5t32.5 68.5q41 0 77 -3t68 -13l-22 -122q-12 -69 -13 -124q-10 -16 -30.5 -30.5t-59.5 -14.5q-27 0 -51 1t-54 3t-68 3t-91 1 q-98 0 -169.5 -1t-131.5 -3q-10 27 -12 49.5z" />
<glyph unicode="&#x2072;" horiz-adv-x="782" d="M121 782.5q-2 22.5 4 57.5q47 49 107.5 102t129.5 102q43 31 73 55.5t49.5 48t30.5 45t15 44.5q10 45 -6 71.5t-49 26.5q-39 0 -63.5 -53t-36.5 -125q-41 -4 -84 1t-74 18q8 25 15.5 57.5t12.5 66t9 66.5t4 57q72 25 143.5 35t167.5 10q57 0 111.5 -9t93.5 -32.5 t57.5 -62.5t6.5 -98q-10 -53 -52.5 -100.5t-130.5 -94.5q-47 -25 -91 -56.5t-77 -60.5q14 2 28 2h24q12 0 26.5 -1t30.5 -1q27 0 49.5 13.5t32.5 68.5q41 0 77 -3t68 -13l-22 -122q-12 -69 -13 -124q-10 -16 -30.5 -30.5t-59.5 -14.5q-27 0 -51 1t-54 3t-68 3t-91 1 q-98 0 -169.5 -1t-131.5 -3q-10 27 -12 49.5z" />
<glyph unicode="&#xb3;" horiz-adv-x="757" d="M76 551q4 35 20.5 76t44.5 57q25 -12 60 -21.5t84 -9.5q80 0 138 39t73 107q16 72 -33 108.5t-141 30.5q-14 20 -17.5 54t2.5 63q92 20 149.5 68t69.5 118q18 94 -59 94q-39 0 -63.5 -37.5t-51.5 -140.5q-29 -4 -75 1t-80 20q16 49 26 115.5t13 113.5q119 59 292 59 q160 0 223.5 -57t45.5 -149q-12 -61 -54.5 -106.5t-134.5 -84.5q96 -23 142.5 -87t19.5 -181q-16 -76 -62 -132.5t-112 -93t-150 -55t-178 -18.5q-55 0 -112 14.5t-80 34.5z" />
<glyph unicode="&#x2073;" horiz-adv-x="757" d="M76 551q4 35 20.5 76t44.5 57q25 -12 60 -21.5t84 -9.5q80 0 138 39t73 107q16 72 -33 108.5t-141 30.5q-14 20 -17.5 54t2.5 63q92 20 149.5 68t69.5 118q18 94 -59 94q-39 0 -63.5 -37.5t-51.5 -140.5q-29 -4 -75 1t-80 20q16 49 26 115.5t13 113.5q119 59 292 59 q160 0 223.5 -57t45.5 -149q-12 -61 -54.5 -106.5t-134.5 -84.5q96 -23 142.5 -87t19.5 -181q-16 -76 -62 -132.5t-112 -93t-150 -55t-178 -18.5q-55 0 -112 14.5t-80 34.5z" />
<glyph unicode="&#xb4;" horiz-adv-x="1105" d="M408 1135q27 43 52 90l47.5 93t40 86t27.5 69q102 14 196.5 3.5t148.5 -38.5q-100 -98 -183.5 -193.5t-136.5 -177.5q-106 11 -192 68z" />
<glyph unicode="&#xb5;" horiz-adv-x="1380" d="M-51 -381q4 25 14 51.5t22.5 65.5t28 95t31.5 142l184 965h396l-45 -266q-35 -195 -21 -277t82 -82q78 0 130 101.5t95 339.5l35 184h395l-90 -518q-12 -68 -17 -109t-4 -62.5t8 -28.5t19 -7q20 0 60 29q23 -18 43 -58.5t22 -77.5q-68 -66 -154.5 -95t-178.5 -29 q-221 0 -179 219q4 16 7.5 31.5t7.5 25.5h-2q-53 -158 -121 -217t-148 -59q-106 0 -137 100h-2q4 -53 -3 -102.5t-17 -102.5q-12 -59 -17.5 -125.5t2.5 -113.5q-45 -10 -101 -24.5t-113.5 -33t-109 -38t-85.5 -38.5q-23 16 -35 42t-2 73z" />
<glyph unicode="&#x3bc;" horiz-adv-x="1380" d="M-51 -381q4 25 14 51.5t22.5 65.5t28 95t31.5 142l184 965h396l-45 -266q-35 -195 -21 -277t82 -82q78 0 130 101.5t95 339.5l35 184h395l-90 -518q-12 -68 -17 -109t-4 -62.5t8 -28.5t19 -7q20 0 60 29q23 -18 43 -58.5t22 -77.5q-68 -66 -154.5 -95t-178.5 -29 q-221 0 -179 219q4 16 7.5 31.5t7.5 25.5h-2q-53 -158 -121 -217t-148 -59q-106 0 -137 100h-2q4 -53 -3 -102.5t-17 -102.5q-12 -59 -17.5 -125.5t2.5 -113.5q-45 -10 -101 -24.5t-113.5 -33t-109 -38t-85.5 -38.5q-23 16 -35 42t-2 73z" />
<glyph unicode="&#xb6;" horiz-adv-x="1200" d="M129 822q-16 79 0 175q35 197 213 297.5t496 100.5q78 0 154.5 -4.5t148.5 -4.5h92q45 0 94 5q0 -41 -7 -83t-22 -77q-39 -4 -63.5 -13.5t-40.5 -32t-26.5 -60.5t-22.5 -99l-54 -291l-44 -247l-39 -225l-38 -227l-40 -251l-47 -297q-47 0 -94.5 4t-86.5 21l302 1710 q-18 4 -37 7t-37 7l-81 -440l-75 -425l-73 -430l-72 -454q-47 0 -93.5 8t-84.5 31l184 1048q-16 -2 -39 -3t-53 -1q-123 0 -210 31t-137.5 86t-66.5 134zM528.5 893q6.5 -53 25.5 -89t48 -54.5t60 -22.5l90 512q-104 -14 -151.5 -64.5t-65.5 -154.5q-13 -74 -6.5 -127z" />
<glyph unicode="&#xb7;" horiz-adv-x="550" d="M80 612q16 82 73.5 126t161.5 44q43 0 84 -16t70 -48t42 -78t1 -108q-16 -80 -69.5 -126t-151.5 -46q-115 0 -175.5 64.5t-35.5 187.5z" />
<glyph unicode="&#xb8;" horiz-adv-x="1105" d="M334 -443.5q2 29.5 8 52.5q68 -2 121 18.5t59 55.5q10 47 -22.5 69.5t-83.5 22.5q-25 43 -19 96l164 162h184l-120 -127q76 -25 101.5 -80t10.5 -129q-18 -96 -118.5 -146.5t-278.5 -46.5q-8 23 -6 52.5z" />
<glyph unicode="&#xb9;" horiz-adv-x="688" d="M168 731q4 41 12 78t25 70q31 6 48 13t28.5 20.5t17.5 36t12 57.5l29 165q10 59 -7.5 92t-74.5 46q-16 68 -4 145q59 -4 129 -5t123 -1q49 0 116.5 1t143.5 5q0 -39 -5 -71.5t-22 -73.5q-53 -6 -74.5 -38t-35.5 -102l-33 -157q-6 -37 -7 -59.5t7 -37t25.5 -22.5t48.5 -14 q10 -35 10 -71t-4 -77q-57 4 -114.5 5t-127.5 1q-82 0 -146.5 -1t-119.5 -5z" />
<glyph unicode="&#x2071;" horiz-adv-x="688" d="M168 731q4 41 12 78t25 70q31 6 48 13t28.5 20.5t17.5 36t12 57.5l29 165q10 59 -7.5 92t-74.5 46q-16 68 -4 145q59 -4 129 -5t123 -1q49 0 116.5 1t143.5 5q0 -39 -5 -71.5t-22 -73.5q-53 -6 -74.5 -38t-35.5 -102l-33 -157q-6 -37 -7 -59.5t7 -37t25.5 -22.5t48.5 -14 q10 -35 10 -71t-4 -77q-57 4 -114.5 5t-127.5 1q-82 0 -146.5 -1t-119.5 -5z" />
<glyph unicode="&#xba;" horiz-adv-x="1054" d="M233.5 980q-14.5 79 4.5 175q31 154 141 233.5t326 79.5q98 0 172.5 -26.5t123 -77.5t65.5 -124t1 -165q-59 -344 -485 -344q-98 0 -171 30t-118 85t-59.5 134zM541 1040q0 -45 8 -78.5t25.5 -54t43.5 -20.5q47 0 79 54t48 140q20 123 -5 183.5t-66 60.5q-49 0 -79 -54 t-46 -138q-8 -48 -8 -93z" />
<glyph unicode="&#xbb;" horiz-adv-x="997" d="M47 252q61 55 114.5 110.5t94.5 112.5q-18 70 -46 143.5t-69 155.5q41 29 77 39t75 10q39 -49 90 -103l111 -112q14 -43 13 -93t-13 -93q-102 -78 -180 -144.5t-162 -148.5q-76 45 -105 123zM449 231q63 57 127.5 122t111.5 122q-29 78 -62.5 156t-78.5 164 q41 29 76.5 39t74.5 10q41 -47 106.5 -112.5t131.5 -123.5q14 -43 13 -93t-13 -93l-200 -157l-183 -156q-75 44 -104 122z" />
<glyph unicode="&#xbc;" horiz-adv-x="1994" d="M328 1008q12 66 13 105.5t-14.5 61t-49 27.5t-93.5 6q0 41 6.5 79t22.5 73q139 12 246.5 38.5t218.5 69.5q43 -23 58.5 -59.5t-1.5 -120.5l-67 -344q-12 -68 -14.5 -106.5t8 -60t34 -32t60.5 -16.5q6 -41 7 -79t-3 -81q-88 4 -161 5t-155 1q-100 0 -178 -1t-149 -5 q4 45 13 82t26 78q37 6 62.5 14.5t43 30t29.5 60t24 104.5zM1638 1468q47 -18 78 -55t41 -84l-290 -348l-260 -316l-259 -322l-287 -361q-43 14 -78.5 55t-42.5 84zM1874 377q27 0 44 -16.5t23 -43.5q-8 -16 -16 -41.5t-15.5 -53t-13.5 -55.5t-10 -52h-127l-22 -115h-361 l25 113q-88 -2 -158 -3t-117 -4q-20 35 -29.5 93.5t-0.5 107.5l304 304l296 309q55 0 114.5 -8.5t96.5 -24.5l-99 -510h66zM1462 395q10 51 21.5 87t27.5 69h-2q-23 -29 -41 -49.5t-45 -42.5l-51 -43l-51 -39h137z" />
<glyph unicode="&#xbd;" horiz-adv-x="2222" d="M328 1008q12 66 13 105.5t-14.5 61t-49 27.5t-93.5 6q0 41 6.5 79t22.5 73q139 12 246.5 38.5t218.5 69.5q43 -23 58.5 -59.5t-1.5 -120.5l-67 -344q-12 -68 -14.5 -106.5t8 -60t34 -32t60.5 -16.5q6 -41 7 -79t-3 -81q-88 4 -161 5t-155 1q-100 0 -178 -1t-149 -5 q4 45 13 82t26 78q37 6 62.5 14.5t43 30t29.5 60t24 104.5zM1638 1468q47 -18 78 -55t41 -84l-290 -348l-260 -316l-259 -322l-287 -361q-43 14 -78.5 55t-42.5 84zM2183 664q-6 -39 -23.5 -72t-52.5 -64.5t-91.5 -63.5t-137.5 -69q-47 -20 -93.5 -45.5t-93.5 -56.5 q20 2 39 2h39q37 0 64.5 -2t50.5 -2q31 0 48 19.5t34 84.5q41 8 90 0t84 -26q-18 -72 -25.5 -151t-1.5 -140q-14 -39 -45 -61.5t-66 -22.5q-51 0 -116.5 3t-161.5 3q-82 0 -161 -1t-171 -5q-20 35 -28.5 86t-4.5 100q59 63 119 111.5t142 99.5q98 61 142 112.5t58 123.5 t-5 106.5t-56 34.5q-18 0 -31.5 -11.5t-26 -40t-24.5 -76.5t-27 -124q-57 0 -108.5 10.5t-85.5 28.5q20 63 28.5 133t8.5 135q80 51 158.5 74t199.5 23q84 0 149.5 -18.5t109.5 -51.5t63.5 -81t9.5 -105z" />
<glyph unicode="&#xbe;" horiz-adv-x="1851" d="M1495 1468q47 -18 78 -55t41 -84l-290 -348l-260 -316l-259 -322l-287 -361q-43 14 -78.5 55t-42.5 84zM1731 377q27 0 44 -16.5t23 -43.5q-8 -16 -16 -41.5t-15.5 -53t-13.5 -55.5t-10 -52h-127l-22 -115h-361l25 113q-88 -2 -158 -3t-117 -4q-20 35 -29.5 93.5 t-0.5 107.5l304 304l296 309q55 0 114.5 -8.5t96.5 -24.5l-99 -510h66zM1319 395q10 51 21.5 87t27.5 69h-2q-23 -29 -41 -49.5t-45 -42.5l-51 -43l-51 -39h137zM799 1270q-12 -74 -64.5 -119t-150.5 -74q100 -23 149 -85t25 -169q-14 -68 -59.5 -117t-108 -81.5t-134 -49 t-139.5 -16.5q-100 0 -157.5 14.5t-87.5 38.5q4 35 20.5 74t42.5 53q23 -12 55.5 -23t75.5 -11q53 0 90 27.5t47 74.5q16 68 -13.5 111t-108.5 47q-10 23 -9.5 53.5t13.5 56.5q104 12 152 62.5t59 113.5q16 90 -52 90q-37 0 -60.5 -35.5t-47.5 -134.5q-29 -4 -72 1.5 t-78 19.5q16 47 26.5 109.5t12.5 107.5q115 57 279 57q162 0 237.5 -53t57.5 -143z" />
<glyph unicode="&#xbf;" horiz-adv-x="1089" d="M-2 -231q12 68 48 115.5t82 86.5t98.5 73t98.5 72t81.5 87t50.5 119q4 31 4 57.5t-4 60.5q35 23 86 33t98 6q45 -31 66.5 -105.5t5.5 -156.5q-12 -63 -38 -108.5t-56.5 -79t-65.5 -62t-64.5 -58.5t-53 -64.5t-34.5 -84.5q-14 -74 8.5 -104.5t59.5 -30.5q20 0 39.5 11.5 t39 42t42 84t49.5 137.5q68 0 113 -11.5t86 -35.5q-27 -86 -40.5 -153t-17.5 -140q-84 -45 -179 -68.5t-189 -23.5q-227 0 -335 78t-79 223zM395 784q16 80 69.5 126t151.5 46q115 0 175.5 -64.5t35.5 -186.5q-16 -82 -73.5 -126t-161.5 -44q-43 0 -84 16t-69.5 48t-42 78 t-1.5 107z" />
<glyph unicode="&#xc0;" horiz-adv-x="1454" d="M-74 -6q2 47 8.5 84t22.5 76q25 4 47.5 15t45 33.5t51 60.5t65.5 97l87 139l121 199l170 286l234 400q41 10 76 11.5t82 1.5l90 -293l79 -273l64 -239q29 -111 48 -193q18 -80 32.5 -127t29.5 -72.5t30.5 -34.5t38.5 -11q6 -29 7 -71v-12q0 -37 -5 -77q-31 2 -76 3l-93 2 q-48 1 -90 1h-67h-73q-48 0 -102 -1l-106 -2q-51 -1 -81 -3q2 96 28 160q86 16 105 51q10 18 9 46q0 25 -7 58l-9 31q-113 0 -229.5 -4t-239.5 -17l-6 -8q-25 -41 -25 -76q0 -13 4 -26q13 -45 79 -55q5 -47 5 -84t-9 -76q-16 2 -48 3t-69 2t-74 1h-61q-51 0 -103.5 -1 t-85.5 -5zM410 473h346l-33 124q-16 62 -35 124q-12 41 -21.5 95t-15.5 114l-55 -112l-47 -93l-70 -126zM577 1871q74 20 160 27.5t172 -8.5q14 -76 37.5 -166t52.5 -168q-43 -12 -97.5 -12t-94.5 14q-47 80 -100.5 151.5t-129.5 161.5z" />
<glyph unicode="&#xc1;" horiz-adv-x="1454" d="M-74 -6q2 47 8.5 84t22.5 76q25 4 47.5 15t45 33.5t51 60.5t65.5 97l87 139l121 199l170 286l234 400q41 10 76 11.5t82 1.5l90 -293l79 -273l64 -239q29 -111 48 -193q18 -80 32.5 -127t29.5 -72.5t30.5 -34.5t38.5 -11q6 -29 7 -71v-12q0 -37 -5 -77q-31 2 -76 3l-93 2 q-48 1 -90 1h-67h-73q-48 0 -102 -1l-106 -2q-51 -1 -81 -3q2 96 28 160q86 16 105 51q10 18 9 46q0 25 -7 58l-9 31q-113 0 -229.5 -4t-239.5 -17l-6 -8q-25 -41 -25 -76q0 -13 4 -26q13 -45 79 -55q5 -47 5 -84t-9 -76q-16 2 -48 3t-69 2t-74 1h-61q-51 0 -103.5 -1 t-85.5 -5zM410 473h346l-33 124q-16 62 -35 124q-12 41 -21.5 95t-15.5 114l-55 -112l-47 -93l-70 -126zM727 1581q27 43 52 90l47.5 93t40 86t27.5 69q102 14 196.5 3.5t148.5 -38.5q-100 -98 -183.5 -193.5t-136.5 -177.5q-106 11 -192 68z" />
<glyph unicode="&#xc2;" horiz-adv-x="1454" d="M-74 -6q2 47 8.5 84t22.5 76q25 4 47.5 15t45 33.5t51 60.5t65.5 97l87 139l121 199l170 286l234 400q41 10 76 11.5t82 1.5l90 -293l79 -273l64 -239q29 -111 48 -193q18 -80 32.5 -127t29.5 -72.5t30.5 -34.5t38.5 -11q6 -29 7 -71v-12q0 -37 -5 -77q-31 2 -76 3l-93 2 q-48 1 -90 1h-67h-73q-48 0 -102 -1l-106 -2q-51 -1 -81 -3q2 96 28 160q86 16 105 51q10 18 9 46q0 25 -7 58l-9 31q-113 0 -229.5 -4t-239.5 -17l-6 -8q-25 -41 -25 -76q0 -13 4 -26q13 -45 79 -55q5 -47 5 -84t-9 -76q-16 2 -48 3t-69 2t-74 1h-61q-51 0 -103.5 -1 t-85.5 -5zM410 473h346l-33 124q-16 62 -35 124q-12 41 -21.5 95t-15.5 114l-55 -112l-47 -93l-70 -126zM490 1636q49 27 102 61.5t105.5 72.5t99.5 76t84 73q41 6 87 3t87 -18q53 -76 118.5 -153.5t155.5 -174.5q-29 -29 -75.5 -44t-104.5 -19q-57 47 -121.5 88t-124.5 70 q-35 -16 -75 -40l-82 -48l-78 -48q-37 -24 -61 -42q-51 20 -81 64t-36 79z" />
<glyph unicode="&#xc3;" horiz-adv-x="1454" d="M-74 -6q2 47 8.5 84t22.5 76q25 4 47.5 15t45 33.5t51 60.5t65.5 97l87 139l121 199l170 286l234 400q41 10 76 11.5t82 1.5l90 -293l79 -273l64 -239q29 -111 48 -193q18 -80 32.5 -127t29.5 -72.5t30.5 -34.5t38.5 -11q6 -29 7 -71v-12q0 -37 -5 -77q-31 2 -76 3l-93 2 q-48 1 -90 1h-67h-73q-48 0 -102 -1l-106 -2q-51 -1 -81 -3q2 96 28 160q86 16 105 51q10 18 9 46q0 25 -7 58l-9 31q-113 0 -229.5 -4t-239.5 -17l-6 -8q-25 -41 -25 -76q0 -13 4 -26q13 -45 79 -55q5 -47 5 -84t-9 -76q-16 2 -48 3t-69 2t-74 1h-61q-51 0 -103.5 -1 t-85.5 -5zM410 473h346l-33 124q-16 62 -35 124q-12 41 -21.5 95t-15.5 114l-55 -112l-47 -93l-70 -126zM444 1636q59 70 110.5 111.5t96.5 65.5t82 32t68 8q53 0 92 -13.5t72 -28.5l64 -29q30 -13 64 -13q63 0 110.5 24.5t78.5 47.5q31 -31 51 -67t27 -83 q-86 -117 -159 -169t-163 -52q-57 0 -96 14.5t-72 33t-64.5 32.5t-72.5 14q-53 0 -115.5 -28.5t-111.5 -67.5q-31 39 -46.5 77t-15.5 91z" />
<glyph unicode="&#xc4;" horiz-adv-x="1454" d="M-74 -6q2 47 8.5 84t22.5 76q25 4 47.5 15t45 33.5t51 60.5t65.5 97l87 139l121 199l170 286l234 400q41 10 76 11.5t82 1.5l90 -293l79 -273l64 -239q29 -111 48 -193q18 -80 32.5 -127t29.5 -72.5t30.5 -34.5t38.5 -11q6 -29 7 -71v-12q0 -37 -5 -77q-31 2 -76 3l-93 2 q-48 1 -90 1h-67h-73q-48 0 -102 -1l-106 -2q-51 -1 -81 -3q2 96 28 160q86 16 105 51q10 18 9 46q0 25 -7 58l-9 31q-113 0 -229.5 -4t-239.5 -17l-6 -8q-25 -41 -25 -76q0 -13 4 -26q13 -45 79 -55q5 -47 5 -84t-9 -76q-16 2 -48 3t-69 2t-74 1h-61q-51 0 -103.5 -1 t-85.5 -5zM410 473h346l-33 124q-16 62 -35 124q-12 41 -21.5 95t-15.5 114l-55 -112l-47 -93l-70 -126zM500 1683q14 74 60 114t130 40q96 0 139 -58.5t21 -156.5q-18 -76 -64.5 -117t-124.5 -41q-96 0 -138.5 60.5t-22.5 158.5zM960 1671q12 80 61.5 123t141.5 43 t135 -56.5t23 -154.5q-31 -162 -195 -162q-96 0 -140 56.5t-26 150.5z" />
<glyph unicode="&#xc5;" horiz-adv-x="1454" d="M-74 -6q2 47 8.5 84t22.5 76q25 4 47.5 15t45 33.5t51 60.5t65.5 97l87 139l121 199l170 286l234 400q41 10 76 11.5t82 1.5l90 -293l79 -273l64 -239q29 -111 48 -193q18 -80 32.5 -127t29.5 -72.5t30.5 -34.5t38.5 -11q6 -29 7 -71v-12q0 -37 -5 -77q-31 2 -76 3l-93 2 q-48 1 -90 1h-67h-73q-48 0 -102 -1l-106 -2q-51 -1 -81 -3q2 96 28 160q86 16 105 51q10 18 9 46q0 25 -7 58l-9 31q-113 0 -229.5 -4t-239.5 -17l-6 -8q-25 -41 -25 -76q0 -13 4 -26q13 -45 79 -55q5 -47 5 -84t-9 -76q-16 2 -48 3t-69 2t-74 1h-61q-51 0 -103.5 -1 t-85.5 -5zM410 473h346l-33 124q-16 62 -35 124q-12 41 -21.5 95t-15.5 114l-55 -112l-47 -93l-70 -126zM950 1939q141 0 205 -61.5t43 -178.5q-16 -90 -100 -143t-207 -53q-139 0 -202.5 62.5t-43.5 178.5q16 88 100 141.5t205 53.5zM934 1826q-61 0 -78 -100 q-8 -43 6.5 -71.5t49.5 -28.5q27 0 49 23.5t30 64.5q6 37 -5 74.5t-52 37.5z" />
<glyph unicode="&#xc6;" horiz-adv-x="2097" d="M-74 -6q2 47 8.5 84t22.5 76q25 4 48.5 13t49 28.5t57 54.5t74.5 90l79 105l106 146l141 197l188 265q45 63 30 116.5t-109 61.5q-10 35 -10.5 80t7.5 80q78 -2 157 -3l164 -3q85 -1 182 -1h212h207q90 0 158.5 1t122 2.5t98.5 3.5q-14 -86 -20.5 -183.5t2.5 -189.5 q-96 -25 -201 -25q-4 53 -14.5 97.5t-37 75t-73.5 48t-123 17.5h-117l-84 -510h19q92 0 128 31.5t46 117.5q90 18 186 11q-14 -57 -26.5 -122t-22.5 -143q-8 -55 -13 -113.5t-7 -111.5q-49 2 -92.5 8.5t-84.5 22.5q0 31 -4 59.5t-18 52t-41 38t-72 14.5h-20l-35 -213 q-12 -78 -12 -121t17.5 -65.5t52 -27.5t91.5 -5q104 0 174 64.5t121 227.5q63 -10 108.5 -26.5t90.5 -50.5q-25 -72 -50.5 -172.5t-37.5 -202.5q-47 2 -112.5 3t-139.5 2t-149 1h-142h-138q-85 0 -174 -1l-171 -2q-82 -1 -131 -3q2 41 10 80t29 82q39 2 64.5 11t42 33.5 t28.5 70.5t25 124l32 189q-98 -2 -166.5 -5.5t-126.5 -9.5l-165 -235q-70 -96 -65 -133t71 -47q4 -37 5 -77t-9 -83q-16 2 -48 3t-69 2t-74 1h-61q-51 0 -103.5 -1t-85.5 -5zM637 721h209l37 203q10 66 26.5 135t34.5 129h-2q-59 -100 -131 -210z" />
<glyph unicode="&#xc7;" horiz-adv-x="1275" d="M96.5 464q-18.5 128 7.5 277q29 166 108 290t189.5 207t240.5 124t263 41q125 0 236.5 -23.5t210.5 -85.5q-49 -145 -68 -317q-41 -16 -92 -20.5t-102 6.5q10 86 0.5 140t-34 86t-62.5 44t-85 12q-80 0 -144.5 -45t-113.5 -119.5t-81.5 -171t-51.5 -198.5 q-20 -115 -15 -213.5t41 -170t103.5 -112.5t171.5 -41q66 0 140.5 17.5t162.5 60.5q25 -27 36 -62.5t16 -78.5q-92 -59 -196 -92t-233 -37l-73 -76q76 -25 101.5 -80t10.5 -129q-18 -96 -118.5 -146.5t-278.5 -46.5q-8 23 -6 52.5t8 52.5q68 -2 121 18.5t59 55.5 q10 47 -22.5 69.5t-83.5 22.5q-25 43 -19 96l123 121q-135 20 -233 84.5t-158.5 162t-79 225.5z" />
<glyph unicode="&#xc8;" horiz-adv-x="1306" d="M20 -6q2 41 10.5 80t28.5 82q39 2 65 12t42 35.5t27.5 74t25.5 125.5l109 623q10 61 10 98t-12.5 58.5t-39 32t-65.5 16.5q-7 46 -7 84q0 34 7 76q47 -2 118 -3.5t148.5 -2.5t153.5 -1h135h201q88 0 155.5 1t120 2.5t95.5 3.5q-14 -86 -21 -184q-3 -42 -3 -82 q0 -54 5 -107q-96 -25 -201 -25q-4 53 -14 97.5t-36.5 75t-74 48t-122.5 17.5h-115l-76 -449h12q45 0 77 5.5t51.5 20.5t29.5 42t17 70q62 13 127 12q29 0 59 -2q-14 -57 -26.5 -122t-22.5 -142q-8 -55 -13.5 -113.5t-7.5 -112.5q-49 2 -92 8.5t-84 22.5q0 31 -4 58.5 t-18.5 50t-41 36t-71.5 13.5h-16l-43 -256q-12 -72 -12.5 -115t13 -65.5t43 -30.5t76.5 -8h29q104 0 174 64.5t121 227.5q63 -10 108.5 -26.5t90.5 -50.5q-25 -72 -50.5 -172.5t-37.5 -202.5q-47 2 -113 3t-139.5 2t-149.5 1h-141h-138q-85 0 -174 -1l-171 -2 q-83 -1 -132 -3zM504 1871q74 20 160 27.5t172 -8.5q14 -76 37.5 -166t52.5 -168q-43 -12 -97.5 -12t-94.5 14q-47 80 -100.5 151.5t-129.5 161.5z" />
<glyph unicode="&#xc9;" horiz-adv-x="1306" d="M20 -6q2 41 10.5 80t28.5 82q39 2 65 12t42 35.5t27.5 74t25.5 125.5l109 623q10 61 10 98t-12.5 58.5t-39 32t-65.5 16.5q-7 46 -7 84q0 34 7 76q47 -2 118 -3.5t148.5 -2.5t153.5 -1h135h201q88 0 155.5 1t120 2.5t95.5 3.5q-14 -86 -21 -184q-3 -42 -3 -82 q0 -54 5 -107q-96 -25 -201 -25q-4 53 -14 97.5t-36.5 75t-74 48t-122.5 17.5h-115l-76 -449h12q45 0 77 5.5t51.5 20.5t29.5 42t17 70q62 13 127 12q29 0 59 -2q-14 -57 -26.5 -122t-22.5 -142q-8 -55 -13.5 -113.5t-7.5 -112.5q-49 2 -92 8.5t-84 22.5q0 31 -4 58.5 t-18.5 50t-41 36t-71.5 13.5h-16l-43 -256q-12 -72 -12.5 -115t13 -65.5t43 -30.5t76.5 -8h29q104 0 174 64.5t121 227.5q63 -10 108.5 -26.5t90.5 -50.5q-25 -72 -50.5 -172.5t-37.5 -202.5q-47 2 -113 3t-139.5 2t-149.5 1h-141h-138q-85 0 -174 -1l-171 -2 q-83 -1 -132 -3zM654 1581q27 43 52 90l47.5 93t40 86t27.5 69q102 14 196.5 3.5t148.5 -38.5q-100 -98 -183.5 -193.5t-136.5 -177.5q-106 11 -192 68z" />
<glyph unicode="&#xca;" horiz-adv-x="1306" d="M20 -6q2 41 10.5 80t28.5 82q39 2 65 12t42 35.5t27.5 74t25.5 125.5l109 623q10 61 10 98t-12.5 58.5t-39 32t-65.5 16.5q-7 46 -7 84q0 34 7 76q47 -2 118 -3.5t148.5 -2.5t153.5 -1h135h201q88 0 155.5 1t120 2.5t95.5 3.5q-14 -86 -21 -184q-3 -42 -3 -82 q0 -54 5 -107q-96 -25 -201 -25q-4 53 -14 97.5t-36.5 75t-74 48t-122.5 17.5h-115l-76 -449h12q45 0 77 5.5t51.5 20.5t29.5 42t17 70q62 13 127 12q29 0 59 -2q-14 -57 -26.5 -122t-22.5 -142q-8 -55 -13.5 -113.5t-7.5 -112.5q-49 2 -92 8.5t-84 22.5q0 31 -4 58.5 t-18.5 50t-41 36t-71.5 13.5h-16l-43 -256q-12 -72 -12.5 -115t13 -65.5t43 -30.5t76.5 -8h29q104 0 174 64.5t121 227.5q63 -10 108.5 -26.5t90.5 -50.5q-25 -72 -50.5 -172.5t-37.5 -202.5q-47 2 -113 3t-139.5 2t-149.5 1h-141h-138q-85 0 -174 -1l-171 -2 q-83 -1 -132 -3zM416 1636q49 27 102 61.5t105.5 72.5t99.5 76t84 73q41 6 87 3t87 -18q53 -76 118.5 -153.5t155.5 -174.5q-29 -29 -75.5 -44t-104.5 -19q-57 47 -121.5 88t-124.5 70q-35 -16 -75 -40l-82 -48l-78 -48q-37 -24 -61 -42q-51 20 -81 64t-36 79z" />
<glyph unicode="&#xcb;" horiz-adv-x="1306" d="M20 -6q2 41 10.5 80t28.5 82q39 2 65 12t42 35.5t27.5 74t25.5 125.5l109 623q10 61 10 98t-12.5 58.5t-39 32t-65.5 16.5q-7 46 -7 84q0 34 7 76q47 -2 118 -3.5t148.5 -2.5t153.5 -1h135h201q88 0 155.5 1t120 2.5t95.5 3.5q-14 -86 -21 -184q-3 -42 -3 -82 q0 -54 5 -107q-96 -25 -201 -25q-4 53 -14 97.5t-36.5 75t-74 48t-122.5 17.5h-115l-76 -449h12q45 0 77 5.5t51.5 20.5t29.5 42t17 70q62 13 127 12q29 0 59 -2q-14 -57 -26.5 -122t-22.5 -142q-8 -55 -13.5 -113.5t-7.5 -112.5q-49 2 -92 8.5t-84 22.5q0 31 -4 58.5 t-18.5 50t-41 36t-71.5 13.5h-16l-43 -256q-12 -72 -12.5 -115t13 -65.5t43 -30.5t76.5 -8h29q104 0 174 64.5t121 227.5q63 -10 108.5 -26.5t90.5 -50.5q-25 -72 -50.5 -172.5t-37.5 -202.5q-47 2 -113 3t-139.5 2t-149.5 1h-141h-138q-85 0 -174 -1l-171 -2 q-83 -1 -132 -3zM426 1683q14 74 60 114t130 40q96 0 139 -58.5t21 -156.5q-18 -76 -64.5 -117t-124.5 -41q-96 0 -138.5 60.5t-22.5 158.5zM886 1671q12 80 61.5 123t141.5 43t135 -56.5t23 -154.5q-31 -162 -195 -162q-96 0 -140 56.5t-26 150.5z" />
<glyph unicode="&#xcc;" horiz-adv-x="847" d="M20 -6q4 45 13.5 82t25.5 78q37 6 61.5 15t41 30.5t27 59.5t22.5 103l113 664q10 59 12 97t-8.5 59.5t-36 32t-68.5 16.5q-6 35 -7 77v12q0 36 5 71q76 -4 161 -5.5t183 -1.5q80 0 170 1t183 6q0 -82 -29 -160q-43 -4 -67.5 -14.5t-41 -36t-28 -71.5t-25.5 -124 l-106 -616q-12 -66 -13.5 -105t8 -61.5t33 -32.5t60.5 -16q6 -41 7 -79v-16q0 -31 -3 -65q-88 4 -161 5t-173 1q-113 0 -200 -1t-159 -5zM289 1871q74 20 160 27.5t172 -8.5q14 -76 37.5 -166t52.5 -168q-43 -12 -97.5 -12t-94.5 14q-47 80 -100.5 151.5t-129.5 161.5z" />
<glyph unicode="&#xcd;" horiz-adv-x="847" d="M20 -6q4 45 13.5 82t25.5 78q37 6 61.5 15t41 30.5t27 59.5t22.5 103l113 664q10 59 12 97t-8.5 59.5t-36 32t-68.5 16.5q-6 35 -7 77v12q0 36 5 71q76 -4 161 -5.5t183 -1.5q80 0 170 1t183 6q0 -82 -29 -160q-43 -4 -67.5 -14.5t-41 -36t-28 -71.5t-25.5 -124 l-106 -616q-12 -66 -13.5 -105t8 -61.5t33 -32.5t60.5 -16q6 -41 7 -79v-16q0 -31 -3 -65q-88 4 -161 5t-173 1q-113 0 -200 -1t-159 -5zM439 1581q27 43 52 90l47.5 93t40 86t27.5 69q102 14 196.5 3.5t148.5 -38.5q-100 -98 -183.5 -193.5t-136.5 -177.5q-106 11 -192 68z " />
<glyph unicode="&#xce;" horiz-adv-x="847" d="M20 -6q4 45 13.5 82t25.5 78q37 6 61.5 15t41 30.5t27 59.5t22.5 103l113 664q10 59 12 97t-8.5 59.5t-36 32t-68.5 16.5q-6 35 -7 77v12q0 36 5 71q76 -4 161 -5.5t183 -1.5q80 0 170 1t183 6q0 -82 -29 -160q-43 -4 -67.5 -14.5t-41 -36t-28 -71.5t-25.5 -124 l-106 -616q-12 -66 -13.5 -105t8 -61.5t33 -32.5t60.5 -16q6 -41 7 -79v-16q0 -31 -3 -65q-88 4 -161 5t-173 1q-113 0 -200 -1t-159 -5zM201 1636q49 27 102 61.5t105.5 72.5t99.5 76t84 73q41 6 87 3t87 -18q53 -76 118.5 -153.5t155.5 -174.5q-29 -29 -75.5 -44 t-104.5 -19q-57 47 -121.5 88t-124.5 70q-35 -16 -75 -40l-82 -48l-78 -48q-37 -24 -61 -42q-51 20 -81 64t-36 79z" />
<glyph unicode="&#xcf;" horiz-adv-x="847" d="M213 1683q14 74 60 114t130 40q96 0 139 -58.5t21 -156.5q-18 -76 -64.5 -117t-124.5 -41q-96 0 -138.5 60.5t-22.5 158.5zM673 1671q12 80 61.5 123t141.5 43t135 -56.5t23 -154.5q-31 -162 -195 -162q-96 0 -140 56.5t-26 150.5zM20 -6q4 45 13.5 82t25.5 78 q37 6 61.5 15t41 30.5t27 59.5t22.5 103l113 664q10 59 12 97t-8.5 59.5t-36 32t-68.5 16.5q-6 35 -7 77v12q0 36 5 71q76 -4 161 -5.5t183 -1.5q80 0 170 1t183 6q0 -82 -29 -160q-43 -4 -67.5 -14.5t-41 -36t-28 -71.5t-25.5 -124l-106 -616q-12 -66 -13.5 -105t8 -61.5 t33 -32.5t60.5 -16q6 -41 7 -79v-16q0 -31 -3 -65q-88 4 -161 5t-173 1q-113 0 -200 -1t-159 -5zM20 -6q4 45 13.5 82t25.5 78q37 6 61.5 15t41 30.5t27 59.5t22.5 103l113 664q10 59 12 97t-8.5 59.5t-36 32t-68.5 16.5q-6 35 -7 77v12q0 36 5 71q76 -4 161 -5.5t183 -1.5 q80 0 170 1t183 6q0 -82 -29 -160q-43 -4 -67.5 -14.5t-41 -36t-28 -71.5t-25.5 -124l-106 -616q-12 -66 -13.5 -105t8 -61.5t33 -32.5t60.5 -16q6 -41 7 -79v-16q0 -31 -3 -65q-88 4 -161 5t-173 1q-113 0 -200 -1t-159 -5z" />
<glyph unicode="&#xd0;" horiz-adv-x="1501" d="M20 -6q2 41 10.5 80t26.5 80q39 2 64.5 12t42 36.5t28 75t23.5 125.5l33 187h-67q-22 0 -75 -4q-4 43 2.5 84t28.5 80h137l48 276q10 61 11 99t-10.5 59.5t-37 32t-64.5 14.5q-8 41 -8 85t8 75q35 -2 83 -3.5t103.5 -2.5t113.5 -1h114q47 0 102.5 2.5t122.5 2.5 q154 0 285 -29t221 -106.5t126 -214t-1 -353.5q-29 -160 -89.5 -273.5t-139 -190.5t-167.5 -121t-175 -66.5t-162 -28.5t-127 -6h-6h-142q-86 0 -175 -1t-168 -2t-120 -3zM603 258q-1 -43 12.5 -65.5t41 -30.5t74.5 -8q25 0 70 18t97 77.5t102.5 174.5t84.5 307 q27 156 19 254t-41 153.5t-85 76t-112 20.5q-29 0 -55.5 -5t-54.5 -20l-76 -460h164q6 -41 1 -82t-24 -76h-168l-37 -219q-12 -72 -13 -115z" />
<glyph unicode="&#xd1;" horiz-adv-x="1458" d="M12 -6q2 41 10.5 85t20.5 75q45 14 76 31.5t53.5 49t38.5 82t33 129.5q35 174 66.5 350.5t60.5 356.5l-13 21q-18 31 -43.5 42t-91.5 15q-8 37 -8 74.5t6 85.5q63 -4 132 -5.5t128 -1.5q57 0 121 1t117 6q121 -190 233.5 -390t212.5 -403q14 86 26 171l21 169 q8 80 11 131v14q0 42 -11 69q-12 32 -41.5 49.5t-85.5 29.5q-6 37 -6 78t4 82q70 -4 133.5 -5.5t110.5 -1.5q59 0 127 1t133 6q-2 -41 -10 -85t-21 -75q-43 -14 -72.5 -31.5t-50 -48.5t-34 -82t-25.5 -131q-35 -236 -73.5 -468t-88.5 -468q-43 -12 -87 -16t-101 -4l-259 488 l-273 480q-43 -256 -93 -504q-16 -80 -20 -131q-1 -13 -1 -24q0 -35 9 -59q12 -32 42 -49t85 -29q6 -37 6 -78t-4 -82q-70 4 -133.5 5t-110.5 1q-59 0 -126.5 -1t-133.5 -5zM498 1636q59 70 110.5 111.5t96.5 65.5t82 32t68 8q53 0 92 -13.5t72 -28.5l64 -29q30 -13 64 -13 q63 0 110.5 24.5t78.5 47.5q31 -31 51 -67t27 -83q-86 -117 -159 -169t-163 -52q-57 0 -96 14.5t-72 33t-64.5 32.5t-72.5 14q-53 0 -115.5 -28.5t-111.5 -67.5q-31 39 -46.5 77t-15.5 91z" />
<glyph unicode="&#xd2;" d="M95 424q-12 61 -11 128q0 80 16 167q31 164 105 291t179 215t239.5 133t285.5 45q164 0 290 -51.5t205 -145.5t107 -227q14 -64 14 -135q0 -76 -16 -160q-31 -158 -101.5 -287t-177 -221t-241.5 -143t-295 -51q-170 0 -295 55t-201.5 153.5t-102.5 233.5zM494 498 q0 -9 -1 -18q0 -96 21 -169q23 -80 72 -125t127 -45q68 0 126 42t107 118t87 183.5t63 238.5q17 92 17 174q0 16 -1 32q-4 95 -29.5 166.5t-75 112.5t-118.5 41q-131 0 -226.5 -140t-142.5 -382q-24 -123 -26 -229zM629 1871q74 20 160 27.5t172 -8.5q14 -76 37.5 -166 t52.5 -168q-43 -12 -97.5 -12t-94.5 14q-47 80 -100.5 151.5t-129.5 161.5z" />
<glyph unicode="&#xd3;" d="M95 424q-12 61 -11 128q0 80 16 167q31 164 105 291t179 215t239.5 133t285.5 45q164 0 290 -51.5t205 -145.5t107 -227q14 -64 14 -135q0 -76 -16 -160q-31 -158 -101.5 -287t-177 -221t-241.5 -143t-295 -51q-170 0 -295 55t-201.5 153.5t-102.5 233.5zM494 498 q0 -9 -1 -18q0 -96 21 -169q23 -80 72 -125t127 -45q68 0 126 42t107 118t87 183.5t63 238.5q17 92 17 174q0 16 -1 32q-4 95 -29.5 166.5t-75 112.5t-118.5 41q-131 0 -226.5 -140t-142.5 -382q-24 -123 -26 -229zM779 1581q27 43 52 90l47.5 93t40 86t27.5 69 q102 14 196.5 3.5t148.5 -38.5q-100 -98 -183.5 -193.5t-136.5 -177.5q-106 11 -192 68z" />
<glyph unicode="&#xd4;" d="M95 424q-12 61 -11 128q0 80 16 167q31 164 105 291t179 215t239.5 133t285.5 45q164 0 290 -51.5t205 -145.5t107 -227q14 -64 14 -135q0 -76 -16 -160q-31 -158 -101.5 -287t-177 -221t-241.5 -143t-295 -51q-170 0 -295 55t-201.5 153.5t-102.5 233.5zM494 498 q0 -9 -1 -18q0 -96 21 -169q23 -80 72 -125t127 -45q68 0 126 42t107 118t87 183.5t63 238.5q17 92 17 174q0 16 -1 32q-4 95 -29.5 166.5t-75 112.5t-118.5 41q-131 0 -226.5 -140t-142.5 -382q-24 -123 -26 -229zM541 1636q49 27 102 61.5t105.5 72.5t99.5 76t84 73 q41 6 87 3t87 -18q53 -76 118.5 -153.5t155.5 -174.5q-29 -29 -75.5 -44t-104.5 -19q-57 47 -121.5 88t-124.5 70q-35 -16 -75 -40l-82 -48l-78 -48q-37 -24 -61 -42q-51 20 -81 64t-36 79z" />
<glyph unicode="&#xd5;" d="M95 424q-12 61 -11 128q0 80 16 167q31 164 105 291t179 215t239.5 133t285.5 45q164 0 290 -51.5t205 -145.5t107 -227q14 -64 14 -135q0 -76 -16 -160q-31 -158 -101.5 -287t-177 -221t-241.5 -143t-295 -51q-170 0 -295 55t-201.5 153.5t-102.5 233.5zM494 498 q0 -9 -1 -18q0 -96 21 -169q23 -80 72 -125t127 -45q68 0 126 42t107 118t87 183.5t63 238.5q17 92 17 174q0 16 -1 32q-4 95 -29.5 166.5t-75 112.5t-118.5 41q-131 0 -226.5 -140t-142.5 -382q-24 -123 -26 -229zM495 1636q59 70 110.5 111.5t96.5 65.5t82 32t68 8 q53 0 92 -13.5t72 -28.5l64 -29q30 -13 64 -13q63 0 110.5 24.5t78.5 47.5q31 -31 51 -67t27 -83q-86 -117 -159 -169t-163 -52q-57 0 -96 14.5t-72 33t-64.5 32.5t-72.5 14q-53 0 -115.5 -28.5t-111.5 -67.5q-31 39 -46.5 77t-15.5 91z" />
<glyph unicode="&#xd6;" d="M95 424q-12 61 -11 128q0 80 16 167q31 164 105 291t179 215t239.5 133t285.5 45q164 0 290 -51.5t205 -145.5t107 -227q14 -64 14 -135q0 -76 -16 -160q-31 -158 -101.5 -287t-177 -221t-241.5 -143t-295 -51q-170 0 -295 55t-201.5 153.5t-102.5 233.5zM494 498 q0 -9 -1 -18q0 -96 21 -169q23 -80 72 -125t127 -45q68 0 126 42t107 118t87 183.5t63 238.5q17 92 17 174q0 16 -1 32q-4 95 -29.5 166.5t-75 112.5t-118.5 41q-131 0 -226.5 -140t-142.5 -382q-24 -123 -26 -229zM551 1683q14 74 60 114t130 40q96 0 139 -58.5t21 -156.5 q-18 -76 -64.5 -117t-124.5 -41q-96 0 -138.5 60.5t-22.5 158.5zM1011 1671q12 80 61.5 123t141.5 43t135 -56.5t23 -154.5q-31 -162 -195 -162q-96 0 -140 56.5t-26 150.5z" />
<glyph unicode="&#xd7;" horiz-adv-x="1345" d="M-12 59l493 441l-221 242l-180 194q33 27 82 39t96 8l338 -381l432 385q53 0 99.5 -25.5t64.5 -60.5l-235 -195l-255 -223l390 -440q-25 -31 -69 -46t-99 -11l-145 172l-193 221l-252 -228l-199 -184q-45 6 -84.5 28.5t-62.5 63.5z" />
<glyph unicode="&#xd8;" d="M88 72l111 116q-78 98 -103.5 233.5t4.5 297.5q31 164 105 291t179 215t239.5 133t285.5 45q106 0 197.5 -22.5t163.5 -63.5l82 86q125 0 170 -76l-121 -117q82 -96 110.5 -228t-2.5 -298q-31 -158 -101.5 -287t-177 -221t-241.5 -143t-295 -51q-111 0 -201 23.5 t-161 66.5l-78 -90q-53 0 -101.5 24.5t-64.5 65.5zM494 500l583 612q-29 66 -76 101.5t-112 35.5q-131 0 -226.5 -140t-142.5 -382q-12 -61 -18 -117.5t-8 -109.5zM522 287q25 -68 72 -107t119 -39q68 0 126 42t107 118t87 183.5t63 238.5q10 53 14 102t2 97l-298 -314z" />
<glyph unicode="&#xd9;" horiz-adv-x="1386" d="M206 1308v12q0 36 5 71q76 -4 161 -5.5t183 -1.5q80 0 170 1t182 6q0 -82 -28 -160q-43 -4 -68 -14.5t-41 -36t-27.5 -71.5t-25.5 -124l-80 -440q-18 -100 -18 -174q0 -80 21 -129q40 -94 148 -95q68 0 117 29t86 82t61.5 126t41.5 163l75 430q14 80 20 127q2 20 2 35 q0 22 -4 37q-7 25 -29.5 35t-63.5 20q-6 37 -8 75v11q0 34 6 74q66 -4 124 -5.5t97 -1.5q66 0 111.5 1t101.5 6q-2 -41 -9.5 -83t-19.5 -77q-43 -6 -68.5 -14.5t-42 -36t-28.5 -79.5t-29 -147l-67 -387q-29 -158 -72 -269.5t-109.5 -182t-162 -102t-228.5 -31.5 q-150 0 -250 35.5t-155.5 104t-69.5 171.5q-5 38 -5 80q0 72 15 157l88 496q10 59 12.5 97t-8 59.5t-36 32t-68.5 16.5q-6 35 -7 77zM698 1871q74 20 160 27.5t172 -8.5q14 -76 37.5 -166t52.5 -168q-43 -12 -97.5 -12t-94.5 14q-47 80 -100.5 151.5t-129.5 161.5z" />
<glyph unicode="&#xda;" horiz-adv-x="1386" d="M206 1308v12q0 36 5 71q76 -4 161 -5.5t183 -1.5q80 0 170 1t182 6q0 -82 -28 -160q-43 -4 -68 -14.5t-41 -36t-27.5 -71.5t-25.5 -124l-80 -440q-18 -100 -18 -174q0 -80 21 -129q40 -94 148 -95q68 0 117 29t86 82t61.5 126t41.5 163l75 430q14 80 20 127q2 20 2 35 q0 22 -4 37q-7 25 -29.5 35t-63.5 20q-6 37 -8 75v11q0 34 6 74q66 -4 124 -5.5t97 -1.5q66 0 111.5 1t101.5 6q-2 -41 -9.5 -83t-19.5 -77q-43 -6 -68.5 -14.5t-42 -36t-28.5 -79.5t-29 -147l-67 -387q-29 -158 -72 -269.5t-109.5 -182t-162 -102t-228.5 -31.5 q-150 0 -250 35.5t-155.5 104t-69.5 171.5q-5 38 -5 80q0 72 15 157l88 496q10 59 12.5 97t-8 59.5t-36 32t-68.5 16.5q-6 35 -7 77zM848 1581q27 43 52 90l47.5 93t40 86t27.5 69q102 14 196.5 3.5t148.5 -38.5q-100 -98 -183.5 -193.5t-136.5 -177.5q-106 11 -192 68z" />
<glyph unicode="&#xdb;" horiz-adv-x="1386" d="M206 1308v12q0 36 5 71q76 -4 161 -5.5t183 -1.5q80 0 170 1t182 6q0 -82 -28 -160q-43 -4 -68 -14.5t-41 -36t-27.5 -71.5t-25.5 -124l-80 -440q-18 -100 -18 -174q0 -80 21 -129q40 -94 148 -95q68 0 117 29t86 82t61.5 126t41.5 163l75 430q14 80 20 127q2 20 2 35 q0 22 -4 37q-7 25 -29.5 35t-63.5 20q-6 37 -8 75v11q0 34 6 74q66 -4 124 -5.5t97 -1.5q66 0 111.5 1t101.5 6q-2 -41 -9.5 -83t-19.5 -77q-43 -6 -68.5 -14.5t-42 -36t-28.5 -79.5t-29 -147l-67 -387q-29 -158 -72 -269.5t-109.5 -182t-162 -102t-228.5 -31.5 q-150 0 -250 35.5t-155.5 104t-69.5 171.5q-5 38 -5 80q0 72 15 157l88 496q10 59 12.5 97t-8 59.5t-36 32t-68.5 16.5q-6 35 -7 77zM611 1636q49 27 102 61.5t105.5 72.5t99.5 76t84 73q41 6 87 3t87 -18q53 -76 118.5 -153.5t155.5 -174.5q-29 -29 -75.5 -44t-104.5 -19 q-57 47 -121.5 88t-124.5 70q-35 -16 -75 -40l-82 -48l-78 -48q-37 -24 -61 -42q-51 20 -81 64t-36 79z" />
<glyph unicode="&#xdc;" horiz-adv-x="1386" d="M206 1308v12q0 36 5 71q76 -4 161 -5.5t183 -1.5q80 0 170 1t182 6q0 -82 -28 -160q-43 -4 -68 -14.5t-41 -36t-27.5 -71.5t-25.5 -124l-80 -440q-18 -100 -18 -174q0 -80 21 -129q40 -94 148 -95q68 0 117 29t86 82t61.5 126t41.5 163l75 430q14 80 20 127q2 20 2 35 q0 22 -4 37q-7 25 -29.5 35t-63.5 20q-6 37 -8 75v11q0 34 6 74q66 -4 124 -5.5t97 -1.5q66 0 111.5 1t101.5 6q-2 -41 -9.5 -83t-19.5 -77q-43 -6 -68.5 -14.5t-42 -36t-28.5 -79.5t-29 -147l-67 -387q-29 -158 -72 -269.5t-109.5 -182t-162 -102t-228.5 -31.5 q-150 0 -250 35.5t-155.5 104t-69.5 171.5q-5 38 -5 80q0 72 15 157l88 496q10 59 12.5 97t-8 59.5t-36 32t-68.5 16.5q-6 35 -7 77zM621 1683q14 74 60 114t130 40q96 0 139 -58.5t21 -156.5q-18 -76 -64.5 -117t-124.5 -41q-96 0 -138.5 60.5t-22.5 158.5zM1081 1671 q12 80 61.5 123t141.5 43t135 -56.5t23 -154.5q-31 -162 -195 -162q-96 0 -140 56.5t-26 150.5z" />
<glyph unicode="&#xdd;" horiz-adv-x="1241" d="M176 -6q4 45 14.5 87t22.5 73q68 8 108.5 19t66.5 38t40 72t27 120l32 195l-31 101q-15 48 -34 100l-39 105l-45 120q-25 63 -42 101t-33.5 59.5t-33 31t-36.5 15.5q-6 29 -8 71v12q0 37 5 77q39 -2 86 -3l93 -3q45 -1 83 -1h60h70q43 0 92 1l101 3q52 1 102 3 q-2 -49 -10.5 -90t-18.5 -70q-88 -10 -106 -51q-7 -16 -6 -38q0 -32 16 -75q23 -59 46 -136t44 -163q51 82 92 155.5t78 153.5q26 53 25 87q0 12 -3 21q-12 36 -82 46q-8 39 -7 82q0 37 5 78q51 -4 123 -5.5t117 -1.5q57 0 101 1t110 6q-4 -86 -29 -160q-16 -4 -30.5 -10.5 t-33 -25.5t-44 -55t-64.5 -100l-161 -249l-146 -220l-33 -188q-11 -68 -11 -106q0 -37 15 -61q16 -26 55 -39t107 -23q8 -39 9 -81v-17q0 -33 -3 -62q-68 4 -172 5t-229 1q-137 0 -254 -1t-201 -5zM703 1581q27 43 52 90l47.5 93t40 86t27.5 69q102 14 196.5 3.5 t148.5 -38.5q-100 -98 -183.5 -193.5t-136.5 -177.5q-106 11 -192 68z" />
<glyph unicode="&#xde;" horiz-adv-x="1357" d="M20 -6q4 45 13.5 82t25.5 78q37 6 61.5 15t41 30.5t27 59.5t22.5 103l113 664q10 59 12 97t-8.5 59.5t-36 32t-68.5 16.5q-6 35 -7 77t5 83q76 -4 161 -5.5t183 -1.5q80 0 170 1t183 6q0 -82 -29 -160q-61 -6 -89 -27.5t-46 -89.5q41 2 89 2h107q129 0 214 -33.5t131 -90 t58.5 -129t0.5 -148.5q-16 -96 -62.5 -172t-117 -129.5t-161.5 -81t-200 -27.5q-53 0 -87 5t-58 22q-2 37 5 75.5t21 67.5q14 -6 41 -6q78 0 141.5 59.5t86.5 180.5t-16.5 183t-141.5 62q-43 0 -86 -14l-98 -571q-12 -66 -13.5 -105t8 -61.5t33 -32.5t60.5 -16q6 -41 7 -79 t-3 -81q-88 4 -161 5t-173 1q-113 0 -200 -1t-159 -5z" />
<glyph unicode="&#xdf;" d="M-322 -408q0 47 12.5 108.5t35.5 104.5q49 -25 104 -35t115 -10q49 0 82.5 11.5t55 44t35 94t23.5 162.5q10 111 29.5 280.5t50.5 374.5q-51 16 -93 22.5t-73 6.5q0 43 6.5 88t22.5 74h166l2 12q25 125 61.5 224t110.5 168t194.5 104.5t311.5 35.5q276 0 401 -86t96 -237 q-10 -55 -34.5 -92t-56 -60.5t-65.5 -41t-64.5 -37t-53.5 -46t-31 -67.5q-8 -39 17.5 -74t67.5 -70l91 -73q49 -39 89 -86.5t61.5 -105.5t7.5 -134q-12 -70 -47 -120t-95.5 -84t-148.5 -50t-211 -16q-133 0 -221 20.5t-149 60.5q47 121 49 281q92 31 215 18 q2 -113 24.5 -167t81.5 -54q35 0 59.5 20.5t30.5 49.5q8 39 -16 75t-64 70.5t-88.5 72.5t-88 84t-61 101.5t-7.5 126.5q8 47 36.5 79t65.5 54.5t78 42t79 44t65.5 57.5t37.5 84q20 106 -36 156.5t-154 50.5q-53 0 -89 -17.5t-62.5 -61.5t-48 -120t-42.5 -192 q-16 -80 -28 -153l-25 -141q-12 -69 -22.5 -138.5l-22.5 -143.5q-25 -166 -81 -319.5t-139 -271.5t-190.5 -188.5t-236.5 -70.5q-66 0 -122.5 23.5t-103.5 76.5z" />
<glyph unicode="&#xe0;" horiz-adv-x="1249" d="M9 317v12q0 79 14 146q18 94 61 181t117.5 154t184.5 106.5t257 39.5q72 0 130 -9t106 -25q59 6 114.5 14t108.5 20q43 -35 55 -75q6 -19 6 -43q0 -28 -8 -62l-92 -399q-12 -53 -17.5 -85t-4.5 -49.5t7.5 -23.5t16.5 -6q14 0 28.5 6t41.5 23q20 -20 40.5 -60.5 t24.5 -75.5q-68 -66 -145.5 -95t-173.5 -29q-66 0 -109 19t-66.5 53t-29.5 78q-3 22 -3 45.5t3 47.5h-2q-84 -119 -186.5 -181t-211.5 -62q-98 0 -156.5 50t-84 124.5t-26.5 160.5zM424 328q8 -74 68 -74q25 0 56.5 20.5t64 69.5t63.5 133t55 211l23 94q-25 10 -63 16.5 t-62 6.5q-39 0 -69 -20.5t-52.5 -55.5t-37.5 -84t-28 -104q-20 -106 -20 -175q0 -21 2 -38zM424 1425q74 20 160 27.5t172 -8.5q14 -76 37.5 -166t52.5 -168q-43 -12 -97.5 -12t-94.5 14q-47 80 -100.5 151.5t-129.5 161.5z" />
<glyph unicode="&#xe1;" horiz-adv-x="1249" d="M9 317v12q0 79 14 146q18 94 61 181t117.5 154t184.5 106.5t257 39.5q72 0 130 -9t106 -25q59 6 114.5 14t108.5 20q43 -35 55 -75q6 -19 6 -43q0 -28 -8 -62l-92 -399q-12 -53 -17.5 -85t-4.5 -49.5t7.5 -23.5t16.5 -6q14 0 28.5 6t41.5 23q20 -20 40.5 -60.5 t24.5 -75.5q-68 -66 -145.5 -95t-173.5 -29q-66 0 -109 19t-66.5 53t-29.5 78q-3 22 -3 45.5t3 47.5h-2q-84 -119 -186.5 -181t-211.5 -62q-98 0 -156.5 50t-84 124.5t-26.5 160.5zM424 328q8 -74 68 -74q25 0 56.5 20.5t64 69.5t63.5 133t55 211l23 94q-25 10 -63 16.5 t-62 6.5q-39 0 -69 -20.5t-52.5 -55.5t-37.5 -84t-28 -104q-20 -106 -20 -175q0 -21 2 -38zM574 1135q27 43 52 90l47.5 93t40 86t27.5 69q102 14 196.5 3.5t148.5 -38.5q-100 -98 -183.5 -193.5t-136.5 -177.5q-106 11 -192 68z" />
<glyph unicode="&#xe2;" horiz-adv-x="1249" d="M9 317v12q0 79 14 146q18 94 61 181t117.5 154t184.5 106.5t257 39.5q72 0 130 -9t106 -25q59 6 114.5 14t108.5 20q43 -35 55 -75q6 -19 6 -43q0 -28 -8 -62l-92 -399q-12 -53 -17.5 -85t-4.5 -49.5t7.5 -23.5t16.5 -6q14 0 28.5 6t41.5 23q20 -20 40.5 -60.5 t24.5 -75.5q-68 -66 -145.5 -95t-173.5 -29q-66 0 -109 19t-66.5 53t-29.5 78q-3 22 -3 45.5t3 47.5h-2q-84 -119 -186.5 -181t-211.5 -62q-98 0 -156.5 50t-84 124.5t-26.5 160.5zM424 328q8 -74 68 -74q25 0 56.5 20.5t64 69.5t63.5 133t55 211l23 94q-25 10 -63 16.5 t-62 6.5q-39 0 -69 -20.5t-52.5 -55.5t-37.5 -84t-28 -104q-20 -106 -20 -175q0 -21 2 -38zM340 1190q49 27 102 61.5t105.5 72.5t99.5 76t84 73q41 6 87 3t87 -18q53 -76 118.5 -153.5t155.5 -174.5q-29 -29 -75.5 -44t-104.5 -19q-57 47 -121.5 88t-124.5 70 q-35 -16 -75 -40l-82 -48l-78 -48q-37 -24 -61 -42q-51 20 -81 64t-36 79z" />
<glyph unicode="&#xe3;" horiz-adv-x="1249" d="M9 317v12q0 79 14 146q18 94 61 181t117.5 154t184.5 106.5t257 39.5q72 0 130 -9t106 -25q59 6 114.5 14t108.5 20q43 -35 55 -75q6 -19 6 -43q0 -28 -8 -62l-92 -399q-12 -53 -17.5 -85t-4.5 -49.5t7.5 -23.5t16.5 -6q14 0 28.5 6t41.5 23q20 -20 40.5 -60.5 t24.5 -75.5q-68 -66 -145.5 -95t-173.5 -29q-66 0 -109 19t-66.5 53t-29.5 78q-3 22 -3 45.5t3 47.5h-2q-84 -119 -186.5 -181t-211.5 -62q-98 0 -156.5 50t-84 124.5t-26.5 160.5zM424 328q8 -74 68 -74q25 0 56.5 20.5t64 69.5t63.5 133t55 211l23 94q-25 10 -63 16.5 t-62 6.5q-39 0 -69 -20.5t-52.5 -55.5t-37.5 -84t-28 -104q-20 -106 -20 -175q0 -21 2 -38zM291 1190q59 70 110.5 111.5t96.5 65.5t82 32t68 8q53 0 92 -13.5t72 -28.5l64 -29q30 -13 64 -13q63 0 110.5 24.5t78.5 47.5q31 -31 51 -67t27 -83q-86 -117 -159 -169t-163 -52 q-57 0 -96 14.5t-72 33t-64.5 32.5t-72.5 14q-53 0 -115.5 -28.5t-111.5 -67.5q-31 39 -46.5 77t-15.5 91z" />
<glyph unicode="&#xe4;" horiz-adv-x="1249" d="M9 317v12q0 79 14 146q18 94 61 181t117.5 154t184.5 106.5t257 39.5q72 0 130 -9t106 -25q59 6 114.5 14t108.5 20q43 -35 55 -75q6 -19 6 -43q0 -28 -8 -62l-92 -399q-12 -53 -17.5 -85t-4.5 -49.5t7.5 -23.5t16.5 -6q14 0 28.5 6t41.5 23q20 -20 40.5 -60.5 t24.5 -75.5q-68 -66 -145.5 -95t-173.5 -29q-66 0 -109 19t-66.5 53t-29.5 78q-3 22 -3 45.5t3 47.5h-2q-84 -119 -186.5 -181t-211.5 -62q-98 0 -156.5 50t-84 124.5t-26.5 160.5zM424 328q8 -74 68 -74q25 0 56.5 20.5t64 69.5t63.5 133t55 211l23 94q-25 10 -63 16.5 t-62 6.5q-39 0 -69 -20.5t-52.5 -55.5t-37.5 -84t-28 -104q-20 -106 -20 -175q0 -21 2 -38zM347 1237q14 74 60 114t130 40q96 0 139 -58.5t21 -156.5q-18 -76 -64.5 -117t-124.5 -41q-96 0 -138.5 60.5t-22.5 158.5zM807 1225q12 80 61.5 123t141.5 43t135 -56.5t23 -154.5 q-31 -162 -195 -162q-96 0 -140 56.5t-26 150.5z" />
<glyph unicode="&#xe5;" horiz-adv-x="1249" d="M9 317v12q0 79 14 146q18 94 61 181t117.5 154t184.5 106.5t257 39.5q72 0 130 -9t106 -25q59 6 114.5 14t108.5 20q43 -35 55 -75q6 -19 6 -43q0 -28 -8 -62l-92 -399q-12 -53 -17.5 -85t-4.5 -49.5t7.5 -23.5t16.5 -6q14 0 28.5 6t41.5 23q20 -20 40.5 -60.5 t24.5 -75.5q-68 -66 -145.5 -95t-173.5 -29q-66 0 -109 19t-66.5 53t-29.5 78q-3 22 -3 45.5t3 47.5h-2q-84 -119 -186.5 -181t-211.5 -62q-98 0 -156.5 50t-84 124.5t-26.5 160.5zM424 328q8 -74 68 -74q25 0 56.5 20.5t64 69.5t63.5 133t55 211l23 94q-25 10 -63 16.5 t-62 6.5q-39 0 -69 -20.5t-52.5 -55.5t-37.5 -84t-28 -104q-20 -106 -20 -175q0 -21 2 -38zM796 1493q141 0 205 -61.5t43 -178.5q-16 -90 -100 -143t-207 -53q-139 0 -202.5 62.5t-43.5 178.5q16 88 100 141.5t205 53.5zM780 1380q-61 0 -78 -100q-8 -43 6.5 -71.5 t49.5 -28.5q27 0 49 23.5t30 64.5q6 37 -5 74.5t-52 37.5z" />
<glyph unicode="&#xe6;" horiz-adv-x="1667" d="M9 317q-1 86 14 158q18 94 61 181t117.5 154t184.5 106.5t257 39.5q70 0 125 -9t102 -23q41 4 82 13l88 19q10 -8 17.5 -15t13.5 -15q94 31 211 30q188 0 278.5 -75.5t69.5 -192.5q-10 -53 -52 -109.5t-113.5 -104.5t-171 -81t-222.5 -39q6 -70 42 -111.5t120 -41.5 q68 0 127 20.5t102 42.5q23 -39 31 -78t4 -90q-47 -33 -93 -54.5t-97.5 -34.5t-109.5 -19t-130 -6q-92 0 -158.5 18t-112.5 52t-73 80t-39 101h-2q-86 -123 -190.5 -187t-215.5 -64q-98 0 -156.5 50t-84 124.5t-26.5 160.5zM424 327.5q8 -73.5 68 -73.5q25 0 56.5 20.5 t64 69.5t63.5 133t55 211l23 94q-23 10 -62 16.5t-63 6.5q-39 0 -69 -20.5t-52.5 -55.5t-37.5 -84t-28 -104q-26 -140 -18 -213.5zM1081 512q117 10 194 55t89 115q25 127 -86 127q-59 0 -112.5 -59.5t-78.5 -194.5z" />
<glyph unicode="&#xe7;" horiz-adv-x="923" d="M12 312q-4 81 13 167q14 76 52 160t109.5 154.5t182 116.5t272.5 46q86 0 163 -21.5t122 -51.5q-41 -119 -41 -224q-84 -31 -178 -12q4 66 -13.5 110t-72.5 44q-51 0 -100.5 -55.5t-74.5 -190.5q-16 -74 -19 -139.5t11.5 -112.5t51 -74.5t102.5 -27.5q68 0 127 20.5 t102 42.5q23 -39 31 -78t4 -90q-84 -59 -169 -84.5t-204 -29.5l-73 -76q76 -25 101.5 -80t10.5 -129q-18 -96 -118.5 -146.5t-278.5 -46.5q-8 23 -6 52.5t8 52.5q68 -2 121 18.5t59 55.5q10 47 -22.5 69.5t-83.5 22.5q-25 43 -19 96l123 121q-100 18 -162.5 63t-94.5 110.5 t-36 146.5z" />
<glyph unicode="&#xe8;" horiz-adv-x="1024" d="M14 291q-3 28 -2 56q0 64 13 132q20 106 73.5 194.5t133 152t183 97t226.5 33.5q188 0 279 -75q73 -62 73 -151q0 -20 -4 -42q-10 -53 -52 -108.5t-112.5 -103.5t-170 -82t-226.5 -40q6 -72 43 -112.5t121 -40.5q68 0 127 20.5t102 42.5q23 -39 31 -78q5 -26 5 -57 q0 -16 -1 -33q-47 -33 -93 -54.5t-97.5 -34.5t-109.5 -19t-130 -6q-139 0 -226 40.5t-132.5 109.5t-53.5 159zM438 512q121 10 197 56t88 114q4 23 4 42q0 85 -90 85q-59 0 -111.5 -59.5t-79.5 -194.5zM336 1425q74 20 160 27.5t172 -8.5q14 -76 37.5 -166t52.5 -168 q-43 -12 -97.5 -12t-94.5 14q-47 80 -100.5 151.5t-129.5 161.5z" />
<glyph unicode="&#xe9;" horiz-adv-x="1024" d="M14 291q-3 28 -2 56q0 64 13 132q20 106 73.5 194.5t133 152t183 97t226.5 33.5q188 0 279 -75q73 -62 73 -151q0 -20 -4 -42q-10 -53 -52 -108.5t-112.5 -103.5t-170 -82t-226.5 -40q6 -72 43 -112.5t121 -40.5q68 0 127 20.5t102 42.5q23 -39 31 -78q5 -26 5 -57 q0 -16 -1 -33q-47 -33 -93 -54.5t-97.5 -34.5t-109.5 -19t-130 -6q-139 0 -226 40.5t-132.5 109.5t-53.5 159zM438 512q121 10 197 56t88 114q4 23 4 42q0 85 -90 85q-59 0 -111.5 -59.5t-79.5 -194.5zM486 1135q27 43 52 90l47.5 93t40 86t27.5 69q102 14 196.5 3.5 t148.5 -38.5q-100 -98 -183.5 -193.5t-136.5 -177.5q-106 11 -192 68z" />
<glyph unicode="&#xea;" horiz-adv-x="1024" d="M14 291q-3 28 -2 56q0 64 13 132q20 106 73.5 194.5t133 152t183 97t226.5 33.5q188 0 279 -75q73 -62 73 -151q0 -20 -4 -42q-10 -53 -52 -108.5t-112.5 -103.5t-170 -82t-226.5 -40q6 -72 43 -112.5t121 -40.5q68 0 127 20.5t102 42.5q23 -39 31 -78q5 -26 5 -57 q0 -16 -1 -33q-47 -33 -93 -54.5t-97.5 -34.5t-109.5 -19t-130 -6q-139 0 -226 40.5t-132.5 109.5t-53.5 159zM438 512q121 10 197 56t88 114q4 23 4 42q0 85 -90 85q-59 0 -111.5 -59.5t-79.5 -194.5zM250 1190q49 27 102 61.5t105.5 72.5t99.5 76t84 73q41 6 87 3t87 -18 q53 -76 118.5 -153.5t155.5 -174.5q-29 -29 -75.5 -44t-104.5 -19q-57 47 -121.5 88t-124.5 70q-35 -16 -75 -40l-82 -48l-78 -48q-37 -24 -61 -42q-51 20 -81 64t-36 79z" />
<glyph unicode="&#xeb;" horiz-adv-x="1024" d="M14 291q-3 28 -2 56q0 64 13 132q20 106 73.5 194.5t133 152t183 97t226.5 33.5q188 0 279 -75q73 -62 73 -151q0 -20 -4 -42q-10 -53 -52 -108.5t-112.5 -103.5t-170 -82t-226.5 -40q6 -72 43 -112.5t121 -40.5q68 0 127 20.5t102 42.5q23 -39 31 -78q5 -26 5 -57 q0 -16 -1 -33q-47 -33 -93 -54.5t-97.5 -34.5t-109.5 -19t-130 -6q-139 0 -226 40.5t-132.5 109.5t-53.5 159zM438 512q121 10 197 56t88 114q4 23 4 42q0 85 -90 85q-59 0 -111.5 -59.5t-79.5 -194.5zM261 1237q14 74 60 114t130 40q96 0 139 -58.5t21 -156.5 q-18 -76 -64.5 -117t-124.5 -41q-96 0 -138.5 60.5t-22.5 158.5zM721 1225q12 80 61.5 123t141.5 43t135 -56.5t23 -154.5q-31 -162 -195 -162q-96 0 -140 56.5t-26 150.5z" />
<glyph unicode="&#xec;" horiz-adv-x="694" d="M143 537q12 55 15.5 91t-8 55t-38 27.5t-75.5 8.5q0 37 6 78t20 75q248 6 447 84q45 -25 66.5 -67.5t5.5 -128.5l-74 -383q-20 -104 -18 -134t24 -30q12 0 27.5 6t38.5 23q20 -20 40.5 -60.5t24.5 -75.5q-68 -66 -155 -95t-179 -29q-88 0 -137 26.5t-70.5 75.5 t-19.5 116.5t20 151.5zM78 1425q74 20 160 27.5t172 -8.5q14 -76 37.5 -166t52.5 -168q-43 -12 -97.5 -12t-94.5 14q-47 80 -100.5 151.5t-129.5 161.5z" />
<glyph unicode="&#xed;" horiz-adv-x="694" d="M143 537q12 55 15.5 91t-8 55t-38 27.5t-75.5 8.5q0 37 6 78t20 75q248 6 447 84q45 -25 66.5 -67.5t5.5 -128.5l-74 -383q-20 -104 -18 -134t24 -30q12 0 27.5 6t38.5 23q20 -20 40.5 -60.5t24.5 -75.5q-68 -66 -155 -95t-179 -29q-88 0 -137 26.5t-70.5 75.5 t-19.5 116.5t20 151.5zM226 1135q27 43 52 90l47.5 93t40 86t27.5 69q102 14 196.5 3.5t148.5 -38.5q-100 -98 -183.5 -193.5t-136.5 -177.5q-106 11 -192 68z" />
<glyph unicode="&#xee;" horiz-adv-x="694" d="M143 537q12 55 15.5 91t-8 55t-38 27.5t-75.5 8.5q0 37 6 78t20 75q248 6 447 84q45 -25 66.5 -67.5t5.5 -128.5l-74 -383q-20 -104 -18 -134t24 -30q12 0 27.5 6t38.5 23q20 -20 40.5 -60.5t24.5 -75.5q-68 -66 -155 -95t-179 -29q-88 0 -137 26.5t-70.5 75.5 t-19.5 116.5t20 151.5zM-12 1190q49 27 102 61.5t105.5 72.5t99.5 76t84 73q41 6 87 3t87 -18q53 -76 118.5 -153.5t155.5 -174.5q-29 -29 -75.5 -44t-104.5 -19q-57 47 -121.5 88t-124.5 70q-35 -16 -75 -40l-82 -48l-78 -48q-37 -24 -61 -42q-51 20 -81 64t-36 79z" />
<glyph unicode="&#xef;" horiz-adv-x="694" d="M143 537q12 55 15.5 91t-8 55t-38 27.5t-75.5 8.5q0 37 6 78t20 75q248 6 447 84q45 -25 66.5 -67.5t5.5 -128.5l-74 -383q-20 -104 -18 -134t24 -30q12 0 27.5 6t38.5 23q20 -20 40.5 -60.5t24.5 -75.5q-68 -66 -155 -95t-179 -29q-88 0 -137 26.5t-70.5 75.5 t-19.5 116.5t20 151.5zM-2 1237q14 74 60 114t130 40q96 0 139 -58.5t21 -156.5q-18 -76 -64.5 -117t-124.5 -41q-96 0 -138.5 60.5t-22.5 158.5zM458 1225q12 80 61.5 123t141.5 43t135 -56.5t23 -154.5q-31 -162 -195 -162q-96 0 -140 56.5t-26 150.5z" />
<glyph unicode="&#xf0;" horiz-adv-x="1095" d="M12 308q-6 87 11 167q18 94 61 181t117.5 154t184.5 106.5t257 39.5q53 0 100 -6q-10 68 -37.5 120t-74.5 95q-104 -41 -194 -80l-138 -61q-12 33 -14 82t8 86l186 74q-37 20 -79 39.5l-91 40.5q12 43 34 72.5t58 49.5q166 -53 293 -116l346 139q10 -35 10.5 -82 t-6.5 -86l-76.5 -27.5t-113.5 -42.5q158 -119 220.5 -285.5t15.5 -408.5q-29 -141 -98.5 -248.5t-163 -181.5t-201 -110.5t-207.5 -36.5q-145 0 -231.5 47t-128.5 119.5t-48 159.5zM425 402.5q-3 -66.5 5 -118t28.5 -82t55.5 -30.5q51 0 106.5 94t96.5 303q25 123 31 217 q-25 8 -61 13.5t-58 5.5q-39 0 -69 -20.5t-52.5 -55.5t-37.5 -84t-28 -104q-14 -72 -17 -138.5z" />
<glyph unicode="&#xf1;" horiz-adv-x="1368" d="M37 719q0 37 6 78t20 75q127 4 246 23.5t221 60.5q41 -23 56 -56q10 -24 10 -52q0 -12 -2 -25q-10 -66 -28.5 -124t-53.5 -136h2l37 74q33 68 84 126t114.5 101t135 67.5t149.5 24.5q63 0 111.5 -18t74.5 -67q27 -50 26 -137q0 -83 -29 -208l-35 -149q-12 -53 -17.5 -85 t-4.5 -49.5t7.5 -23.5t16.5 -6q14 0 28.5 6t40.5 23q20 -20 41 -60.5t25 -75.5q-68 -66 -155 -95t-179 -29q-88 0 -139 26.5t-74 75.5q-20 43 -20 101q0 8 1 16q3 68 21 151l8 37q16 72 21 118q2 18 1 33q0 23 -3 39q-6 26 -22.5 36t-39.5 10q-31 0 -69.5 -28t-76.5 -89.5 t-74 -161.5t-62 -244l-19 -102h-395l100 537q10 55 13.5 91t-7 55t-37 27.5t-75.5 8.5zM276 1190q59 70 110.5 111.5t96.5 65.5t82 32t68 8q53 0 92 -13.5t72 -28.5l64 -29q30 -13 64 -13q63 0 110.5 24.5t78.5 47.5q31 -31 51 -67t27 -83q-86 -117 -159 -169t-163 -52 q-57 0 -96 14.5t-72 33t-64.5 32.5t-72.5 14q-53 0 -115.5 -28.5t-111.5 -67.5q-31 39 -46.5 77t-15.5 91z" />
<glyph unicode="&#xf2;" horiz-adv-x="1167" d="M27 283q-11 47 -11.5 99t11.5 110q47 233 201.5 348.5t435.5 115.5q129 0 228 -35.5t161.5 -102t86.5 -161.5q12 -48 12 -102q0 -52 -11 -111q-45 -231 -202 -346.5t-441 -115.5q-129 0 -226.5 36.5t-159.5 103.5t-85 161zM425 360q0 -61 12 -108q13 -51 42 -82t74 -31 q31 0 58.5 21.5t51 61.5t41 95.5t27.5 120.5q14 83 14 148q0 80 -21 131q-38 92 -106 92q-66 0 -112.5 -85t-67.5 -216q-13 -78 -13 -148zM364 1425q74 20 160 27.5t172 -8.5q14 -76 37.5 -166t52.5 -168q-43 -12 -97.5 -12t-94.5 14q-47 80 -100.5 151.5t-129.5 161.5z" />
<glyph unicode="&#xf3;" horiz-adv-x="1167" d="M27 283q-11 47 -11.5 99t11.5 110q47 233 201.5 348.5t435.5 115.5q129 0 228 -35.5t161.5 -102t86.5 -161.5q12 -48 12 -102q0 -52 -11 -111q-45 -231 -202 -346.5t-441 -115.5q-129 0 -226.5 36.5t-159.5 103.5t-85 161zM425 360q0 -61 12 -108q13 -51 42 -82t74 -31 q31 0 58.5 21.5t51 61.5t41 95.5t27.5 120.5q14 83 14 148q0 80 -21 131q-38 92 -106 92q-66 0 -112.5 -85t-67.5 -216q-13 -78 -13 -148zM514 1135q27 43 52 90l47.5 93t40 86t27.5 69q102 14 196.5 3.5t148.5 -38.5q-100 -98 -183.5 -193.5t-136.5 -177.5q-106 11 -192 68 z" />
<glyph unicode="&#xf4;" horiz-adv-x="1167" d="M27 283q-11 47 -11.5 99t11.5 110q47 233 201.5 348.5t435.5 115.5q129 0 228 -35.5t161.5 -102t86.5 -161.5q12 -48 12 -102q0 -52 -11 -111q-45 -231 -202 -346.5t-441 -115.5q-129 0 -226.5 36.5t-159.5 103.5t-85 161zM425 360q0 -61 12 -108q13 -51 42 -82t74 -31 q31 0 58.5 21.5t51 61.5t41 95.5t27.5 120.5q14 83 14 148q0 80 -21 131q-38 92 -106 92q-66 0 -112.5 -85t-67.5 -216q-13 -78 -13 -148zM277 1190q49 27 102 61.5t105.5 72.5t99.5 76t84 73q41 6 87 3t87 -18q53 -76 118.5 -153.5t155.5 -174.5q-29 -29 -75.5 -44 t-104.5 -19q-57 47 -121.5 88t-124.5 70q-35 -16 -75 -40l-82 -48l-78 -48q-37 -24 -61 -42q-51 20 -81 64t-36 79z" />
<glyph unicode="&#xf5;" horiz-adv-x="1167" d="M27 283q-11 47 -11.5 99t11.5 110q47 233 201.5 348.5t435.5 115.5q129 0 228 -35.5t161.5 -102t86.5 -161.5q12 -48 12 -102q0 -52 -11 -111q-45 -231 -202 -346.5t-441 -115.5q-129 0 -226.5 36.5t-159.5 103.5t-85 161zM425 360q0 -61 12 -108q13 -51 42 -82t74 -31 q31 0 58.5 21.5t51 61.5t41 95.5t27.5 120.5q14 83 14 148q0 80 -21 131q-38 92 -106 92q-66 0 -112.5 -85t-67.5 -216q-13 -78 -13 -148zM231 1190q59 70 110.5 111.5t96.5 65.5t82 32t68 8q53 0 92 -13.5t72 -28.5l64 -29q30 -13 64 -13q63 0 110.5 24.5t78.5 47.5 q31 -31 51 -67t27 -83q-86 -117 -159 -169t-163 -52q-57 0 -96 14.5t-72 33t-64.5 32.5t-72.5 14q-53 0 -115.5 -28.5t-111.5 -67.5q-31 39 -46.5 77t-15.5 91z" />
<glyph unicode="&#xf6;" horiz-adv-x="1167" d="M27 283q-11 47 -11.5 99t11.5 110q47 233 201.5 348.5t435.5 115.5q129 0 228 -35.5t161.5 -102t86.5 -161.5q12 -48 12 -102q0 -52 -11 -111q-45 -231 -202 -346.5t-441 -115.5q-129 0 -226.5 36.5t-159.5 103.5t-85 161zM425 360q0 -61 12 -108q13 -51 42 -82t74 -31 q31 0 58.5 21.5t51 61.5t41 95.5t27.5 120.5q14 83 14 148q0 80 -21 131q-38 92 -106 92q-66 0 -112.5 -85t-67.5 -216q-13 -78 -13 -148zM287 1237q14 74 60 114t130 40q96 0 139 -58.5t21 -156.5q-18 -76 -64.5 -117t-124.5 -41q-96 0 -138.5 60.5t-22.5 158.5zM747 1225 q12 80 61.5 123t141.5 43t135 -56.5t23 -154.5q-31 -162 -195 -162q-96 0 -140 56.5t-26 150.5z" />
<glyph unicode="&#xf7;" horiz-adv-x="1077" d="M51 440q2 49 16.5 98.5t41.5 88.5h942q-2 -47 -15.5 -95.5t-40.5 -82.5h-224q-110 0 -222.5 -1.5t-234.5 -3.5t-263 -4zM334 199q12 59 56 95t128 36q37 0 70 -12.5t55.5 -37t32.5 -60.5t2 -83q-12 -68 -55 -105.5t-123 -37.5q-86 0 -136 52.5t-30 152.5zM446 940 q12 66 59.5 100.5t131.5 34.5q74 0 123 -51t33 -141q-12 -63 -56.5 -103.5t-118.5 -40.5q-92 0 -141 53.5t-31 147.5z" />
<glyph unicode="&#xf8;" horiz-adv-x="1167" d="M-37 20l133 121q-53 66 -72.5 154t3.5 197q47 233 201.5 348.5t435.5 115.5q160 0 274 -55l92 84q53 -4 94 -27.5t60 -58.5l-57 -43l-62 -49q57 -66 77.5 -157t-1.5 -206q-45 -231 -202 -346.5t-441 -115.5q-158 0 -277 57l-90 -92q-49 0 -95 20t-73 53zM430 442l295 269 q-31 98 -107 98q-66 0 -112.5 -85t-67.5 -216q-4 -16 -5 -33t-3 -33zM438 250q14 -51 42 -81t73 -30q31 0 58.5 21.5t51 61.5t41 95.5t27.5 120.5q4 25 6 47l4 45l-152 -138z" />
<glyph unicode="&#xf9;" horiz-adv-x="1372" d="M37 719q0 37 6 78t20 75q127 4 246 23.5t221 60.5q31 -18 46.5 -38.5t17.5 -57.5v-12q0 -35 -9 -88q-11 -63 -34 -170q-18 -88 -25 -143q-3 -30 -3 -51q0 -19 2 -32q5 -30 20.5 -40.5t40.5 -10.5q31 0 68.5 28t76.5 89.5t75 160.5t62 245l19 102h395l-90 -518 q-12 -68 -17.5 -109t-4.5 -62.5t8.5 -28.5t19.5 -7q20 0 59 29q23 -18 43.5 -58.5t22.5 -77.5q-68 -66 -155 -95t-179 -29q-82 0 -131 20.5t-74.5 53t-30.5 75.5q-2 14 -2 29q0 30 7 61q4 23 11 47.5t19 50.5h-2q-78 -160 -209 -248.5t-286 -88.5q-59 0 -104.5 18t-69.5 66 q-26 49 -26 136q0 83 30 210q25 109 35 169q6 34 5 57q0 19 -3 33q-8 30 -38 37t-83 11zM418 1425q74 20 160 27.5t172 -8.5q14 -76 37.5 -166t52.5 -168q-43 -12 -97.5 -12t-94.5 14q-47 80 -100.5 151.5t-129.5 161.5z" />
<glyph unicode="&#xfa;" horiz-adv-x="1372" d="M37 719q0 37 6 78t20 75q127 4 246 23.5t221 60.5q31 -18 46.5 -38.5t17.5 -57.5v-12q0 -35 -9 -88q-11 -63 -34 -170q-18 -88 -25 -143q-3 -30 -3 -51q0 -19 2 -32q5 -30 20.5 -40.5t40.5 -10.5q31 0 68.5 28t76.5 89.5t75 160.5t62 245l19 102h395l-90 -518 q-12 -68 -17.5 -109t-4.5 -62.5t8.5 -28.5t19.5 -7q20 0 59 29q23 -18 43.5 -58.5t22.5 -77.5q-68 -66 -155 -95t-179 -29q-82 0 -131 20.5t-74.5 53t-30.5 75.5q-2 14 -2 29q0 30 7 61q4 23 11 47.5t19 50.5h-2q-78 -160 -209 -248.5t-286 -88.5q-59 0 -104.5 18t-69.5 66 q-26 49 -26 136q0 83 30 210q25 109 35 169q6 34 5 57q0 19 -3 33q-8 30 -38 37t-83 11zM568 1135q27 43 52 90l47.5 93t40 86t27.5 69q102 14 196.5 3.5t148.5 -38.5q-100 -98 -183.5 -193.5t-136.5 -177.5q-106 11 -192 68z" />
<glyph unicode="&#xfb;" horiz-adv-x="1372" d="M37 719q0 37 6 78t20 75q127 4 246 23.5t221 60.5q31 -18 46.5 -38.5t17.5 -57.5v-12q0 -35 -9 -88q-11 -63 -34 -170q-18 -88 -25 -143q-3 -30 -3 -51q0 -19 2 -32q5 -30 20.5 -40.5t40.5 -10.5q31 0 68.5 28t76.5 89.5t75 160.5t62 245l19 102h395l-90 -518 q-12 -68 -17.5 -109t-4.5 -62.5t8.5 -28.5t19.5 -7q20 0 59 29q23 -18 43.5 -58.5t22.5 -77.5q-68 -66 -155 -95t-179 -29q-82 0 -131 20.5t-74.5 53t-30.5 75.5q-2 14 -2 29q0 30 7 61q4 23 11 47.5t19 50.5h-2q-78 -160 -209 -248.5t-286 -88.5q-59 0 -104.5 18t-69.5 66 q-26 49 -26 136q0 83 30 210q25 109 35 169q6 34 5 57q0 19 -3 33q-8 30 -38 37t-83 11zM330 1190q49 27 102 61.5t105.5 72.5t99.5 76t84 73q41 6 87 3t87 -18q53 -76 118.5 -153.5t155.5 -174.5q-29 -29 -75.5 -44t-104.5 -19q-57 47 -121.5 88t-124.5 70q-35 -16 -75 -40 l-82 -48l-78 -48q-37 -24 -61 -42q-51 20 -81 64t-36 79z" />
<glyph unicode="&#xfc;" horiz-adv-x="1372" d="M37 719q0 37 6 78t20 75q127 4 246 23.5t221 60.5q31 -18 46.5 -38.5t17.5 -57.5v-12q0 -35 -9 -88q-11 -63 -34 -170q-18 -88 -25 -143q-3 -30 -3 -51q0 -19 2 -32q5 -30 20.5 -40.5t40.5 -10.5q31 0 68.5 28t76.5 89.5t75 160.5t62 245l19 102h395l-90 -518 q-12 -68 -17.5 -109t-4.5 -62.5t8.5 -28.5t19.5 -7q20 0 59 29q23 -18 43.5 -58.5t22.5 -77.5q-68 -66 -155 -95t-179 -29q-82 0 -131 20.5t-74.5 53t-30.5 75.5q-2 14 -2 29q0 30 7 61q4 23 11 47.5t19 50.5h-2q-78 -160 -209 -248.5t-286 -88.5q-59 0 -104.5 18t-69.5 66 q-26 49 -26 136q0 83 30 210q25 109 35 169q6 34 5 57q0 19 -3 33q-8 30 -38 37t-83 11zM340 1237q14 74 60 114t130 40q96 0 139 -58.5t21 -156.5q-18 -76 -64.5 -117t-124.5 -41q-96 0 -138.5 60.5t-22.5 158.5zM800 1225q12 80 61.5 123t141.5 43t135 -56.5t23 -154.5 q-31 -162 -195 -162q-96 0 -140 56.5t-26 150.5z" />
<glyph unicode="&#xfd;" horiz-adv-x="1204" d="M-240 -408q0 47 12.5 108.5t34.5 104.5q49 -25 104.5 -35t115.5 -10q51 0 93 5.5t81 18.5t76.5 37.5t78.5 61.5q-14 104 -29.5 196.5t-34 178.5t-41 170t-48.5 170q-23 70 -57 96q-29 23 -93 23h-20q0 88 24 155q41 2 94.5 11.5t106.5 22t102.5 25.5t79.5 25 q41 -12 59.5 -34.5t35.5 -79.5q45 -156 71.5 -308.5t42.5 -304.5q51 70 84 120t50.5 90t23.5 73t6 63q0 70 -43 108q-39 34 -108 34h-15q0 88 25 155q41 2 94 11.5t106.5 22t102.5 25.5t80 25q115 -37 114 -188q0 -45 -12 -94t-55 -123t-128 -184.5t-233 -278.5 q-166 -193 -276.5 -310.5t-190 -181t-142 -84t-134.5 -20.5q-74 0 -132.5 23.5t-105.5 76.5zM531 1135q27 43 52 90l47.5 93t40 86t27.5 69q102 14 196.5 3.5t148.5 -38.5q-100 -98 -183.5 -193.5t-136.5 -177.5q-106 11 -192 68z" />
<glyph unicode="&#xfe;" horiz-adv-x="1181" d="M-59 -498l270 1534q8 55 11 90t-7 54.5t-36.5 28t-76.5 8.5q0 37 6.5 77.5t20.5 75.5q127 4 246 23.5t221 60.5q20 -18 33.5 -33.5t19.5 -35t6 -46t-6 -65.5q-25 -135 -43 -223t-36.5 -152.5t-41 -117t-53.5 -115.5h2q86 141 198.5 215.5t229.5 74.5q98 0 156.5 -50 t84 -124.5t27 -160.5t-13.5 -158q-18 -94 -61 -181t-118 -154t-184.5 -106.5t-256.5 -39.5q-37 0 -70 3t-61 7q0 -90 -13 -158l-59 -332h-395zM428 156q25 -10 62.5 -16.5t62.5 -6.5q76 0 120 76t66 188q27 139 19 213t-68 74q-25 0 -56.5 -20.5t-64 -69.5t-63.5 -133 t-55 -211z" />
<glyph unicode="&#xff;" horiz-adv-x="1204" d="M-240 -408q0 47 12.5 108.5t34.5 104.5q49 -25 104.5 -35t115.5 -10q51 0 93 5.5t81 18.5t76.5 37.5t78.5 61.5q-14 104 -29.5 196.5t-34 178.5t-41 170t-48.5 170q-23 70 -57 96q-29 23 -93 23h-20q0 88 24 155q41 2 94.5 11.5t106.5 22t102.5 25.5t79.5 25 q41 -12 59.5 -34.5t35.5 -79.5q45 -156 71.5 -308.5t42.5 -304.5q51 70 84 120t50.5 90t23.5 73t6 63q0 70 -43 108q-39 34 -108 34h-15q0 88 25 155q41 2 94 11.5t106.5 22t102.5 25.5t80 25q115 -37 114 -188q0 -45 -12 -94t-55 -123t-128 -184.5t-233 -278.5 q-166 -193 -276.5 -310.5t-190 -181t-142 -84t-134.5 -20.5q-74 0 -132.5 23.5t-105.5 76.5zM306 1237q14 74 60 114t130 40q96 0 139 -58.5t21 -156.5q-18 -76 -64.5 -117t-124.5 -41q-96 0 -138.5 60.5t-22.5 158.5zM766 1225q12 80 61.5 123t141.5 43t135 -56.5 t23 -154.5q-31 -162 -195 -162q-96 0 -140 56.5t-26 150.5z" />
<glyph unicode="&#x131;" horiz-adv-x="694" d="M143 537q12 55 15.5 91t-8 55t-38 27.5t-75.5 8.5q0 37 6 78t20 75q248 6 447 84q45 -25 66.5 -67.5t5.5 -128.5l-74 -383q-20 -104 -18 -134t24 -30q12 0 27.5 6t38.5 23q20 -20 40.5 -60.5t24.5 -75.5q-68 -66 -155 -95t-179 -29q-88 0 -137 26.5t-70.5 75.5 t-19.5 116.5t20 151.5z" />
<glyph unicode="&#x152;" horiz-adv-x="2826" d="M1540 -6q2 41 10.5 80t28.5 82q39 2 65 12t42 35.5t27.5 74t25.5 125.5l109 623q10 61 10 98t-12.5 58.5t-39 32t-65.5 16.5q-7 46 -7 84q0 34 7 76q47 -2 118 -3.5t148.5 -2.5t153.5 -1h135h201q88 0 155.5 1t120 2.5t95.5 3.5q-14 -86 -21 -184q-3 -42 -3 -82 q0 -54 5 -107q-96 -25 -201 -25q-4 53 -14 97.5t-36.5 75t-74 48t-122.5 17.5h-115l-76 -449h12q45 0 77 5.5t51.5 20.5t29.5 42t17 70q62 13 127 12q29 0 59 -2q-14 -57 -26.5 -122t-22.5 -142q-8 -55 -13.5 -113.5t-7.5 -112.5q-49 2 -92 8.5t-84 22.5q0 31 -4 58.5 t-18.5 50t-41 36t-71.5 13.5h-16l-43 -256q-12 -72 -12.5 -115t13 -65.5t43 -30.5t76.5 -8h29q104 0 174 64.5t121 227.5q63 -10 108.5 -26.5t90.5 -50.5q-25 -72 -50.5 -172.5t-37.5 -202.5q-47 2 -113 3t-139.5 2t-149.5 1h-141h-138q-85 0 -174 -1l-171 -2 q-83 -1 -132 -3zM95 424q-12 61 -11 128q0 80 16 167q31 164 105 291t179 215t239.5 133t285.5 45q164 0 290 -51.5t205 -145.5t107 -227q14 -64 14 -135q0 -76 -16 -160q-31 -158 -101.5 -287t-177 -221t-241.5 -143t-295 -51q-170 0 -295 55t-201.5 153.5t-102.5 233.5z M494 498q0 -9 -1 -18q0 -96 21 -169q23 -80 72 -125t127 -45q68 0 126 42t107 118t87 183.5t63 238.5q17 92 17 174q0 16 -1 32q-4 95 -29.5 166.5t-75 112.5t-118.5 41q-131 0 -226.5 -140t-142.5 -382q-24 -123 -26 -229z" />
<glyph unicode="&#x153;" horiz-adv-x="2191" d="M1181 291q-3 28 -2 56q0 64 13 132q20 106 73.5 194.5t133 152t183 97t226.5 33.5q188 0 279 -75q73 -62 73 -151q0 -20 -4 -42q-10 -53 -52 -108.5t-112.5 -103.5t-170 -82t-226.5 -40q6 -72 43 -112.5t121 -40.5q68 0 127 20.5t102 42.5q23 -39 31 -78q5 -26 5 -57 q0 -16 -1 -33q-47 -33 -93 -54.5t-97.5 -34.5t-109.5 -19t-130 -6q-139 0 -226 40.5t-132.5 109.5t-53.5 159zM1605 512q121 10 197 56t88 114q4 23 4 42q0 85 -90 85q-59 0 -111.5 -59.5t-79.5 -194.5zM27 283q-11 47 -11.5 99t11.5 110q47 233 201.5 348.5t435.5 115.5 q129 0 228 -35.5t161.5 -102t86.5 -161.5q12 -48 12 -102q0 -52 -11 -111q-45 -231 -202 -346.5t-441 -115.5q-129 0 -226.5 36.5t-159.5 103.5t-85 161zM425 360q0 -61 12 -108q13 -51 42 -82t74 -31q31 0 58.5 21.5t51 61.5t41 95.5t27.5 120.5q14 83 14 148q0 80 -21 131 q-38 92 -106 92q-66 0 -112.5 -85t-67.5 -216q-13 -78 -13 -148z" />
<glyph unicode="&#x178;" horiz-adv-x="1241" d="M441 1745q14 74 60 114t130 40q96 0 139 -58.5t21 -156.5q-18 -76 -64.5 -117t-124.5 -41q-96 0 -138.5 60.5t-22.5 158.5zM901 1733q12 80 61.5 123t141.5 43t135 -56.5t23 -154.5q-31 -162 -195 -162q-96 0 -140 56.5t-26 150.5zM176 -6q4 45 14.5 87t22.5 73 q68 8 108.5 19t66.5 38t40 72t27 120l32 195l-31 101q-15 48 -34 100l-39 105l-45 120q-25 63 -42 101t-33.5 59.5t-33 31t-36.5 15.5q-6 29 -8 71v12q0 37 5 77q39 -2 86 -3l93 -3q45 -1 83 -1h60h70q43 0 92 1l101 3q52 1 102 3q-2 -49 -10.5 -90t-18.5 -70 q-88 -10 -106 -51q-7 -16 -6 -38q0 -32 16 -75q23 -59 46 -136t44 -163q51 82 92 155.5t78 153.5q26 53 25 87q0 12 -3 21q-12 36 -82 46q-8 39 -7 82q0 37 5 78q51 -4 123 -5.5t117 -1.5q57 0 101 1t110 6q-4 -86 -29 -160q-16 -4 -30.5 -10.5t-33 -25.5t-44 -55 t-64.5 -100l-161 -249l-146 -220l-33 -188q-11 -68 -11 -106q0 -37 15 -61q16 -26 55 -39t107 -23q8 -39 9 -81v-17q0 -33 -3 -62q-68 4 -172 5t-229 1q-137 0 -254 -1t-201 -5z" />
<glyph unicode="&#x2c6;" horiz-adv-x="1105" d="M76 1190q49 27 102 61.5t105.5 72.5t99.5 76t84 73q41 6 87 3t87 -18q53 -76 118.5 -153.5t155.5 -174.5q-29 -29 -75.5 -44t-104.5 -19q-57 47 -121.5 88t-124.5 70q-35 -16 -75 -40l-82 -48l-78 -48q-37 -24 -61 -42q-51 20 -81 64t-36 79z" />
<glyph unicode="&#x2da;" horiz-adv-x="1105" d="M618 1493q141 0 205 -61.5t43 -178.5q-16 -90 -100 -143t-207 -53q-139 0 -202.5 62.5t-43.5 178.5q16 88 100 141.5t205 53.5zM602 1380q-61 0 -78 -100q-8 -43 6.5 -71.5t49.5 -28.5q27 0 49 23.5t30 64.5q6 37 -5 74.5t-52 37.5z" />
<glyph unicode="&#x2dc;" horiz-adv-x="1105" d="M49 1190q59 70 110.5 111.5t96.5 65.5t82 32t68 8q53 0 92 -13.5t72 -28.5l64 -29q30 -13 64 -13q63 0 110.5 24.5t78.5 47.5q31 -31 51 -67t27 -83q-86 -117 -159 -169t-163 -52q-57 0 -96 14.5t-72 33t-64.5 32.5t-72.5 14q-53 0 -115.5 -28.5t-111.5 -67.5 q-31 39 -46.5 77t-15.5 91z" />
<glyph unicode="&#x2000;" horiz-adv-x="968" />
<glyph unicode="&#x2001;" horiz-adv-x="1939" />
<glyph unicode="&#x2002;" horiz-adv-x="968" />
<glyph unicode="&#x2003;" horiz-adv-x="1939" />
<glyph unicode="&#x2004;" horiz-adv-x="645" />
<glyph unicode="&#x2005;" horiz-adv-x="483" />
<glyph unicode="&#x2006;" horiz-adv-x="321" />
<glyph unicode="&#x2007;" horiz-adv-x="321" />
<glyph unicode="&#x2008;" horiz-adv-x="241" />
<glyph unicode="&#x2009;" horiz-adv-x="387" />
<glyph unicode="&#x200a;" horiz-adv-x="106" />
<glyph unicode="&#x2010;" horiz-adv-x="671" d="M55 463q8 72 19.5 119t31.5 86h543q-2 -59 -11 -105.5t-32 -93.5q-102 0 -237.5 -1t-313.5 -5z" />
<glyph unicode="&#x2011;" horiz-adv-x="671" d="M55 463q8 72 19.5 119t31.5 86h543q-2 -59 -11 -105.5t-32 -93.5q-102 0 -237.5 -1t-313.5 -5z" />
<glyph unicode="&#x2012;" horiz-adv-x="671" d="M55 463q8 72 19.5 119t31.5 86h543q-2 -59 -11 -105.5t-32 -93.5q-102 0 -237.5 -1t-313.5 -5z" />
<glyph unicode="&#x2013;" horiz-adv-x="1077" d="M57 469q2 49 16.5 98t41.5 88h942q-2 -47 -15.5 -95t-40.5 -83h-224q-110 0 -222.5 -1t-234.5 -3t-263 -4z" />
<glyph unicode="&#x2014;" horiz-adv-x="2019" d="M57 473q4 109 56 182h1886q-4 -49 -16.5 -94t-36.5 -80h-450q-224 0 -456.5 -1t-476.5 -3z" />
<glyph unicode="&#x2018;" horiz-adv-x="606" d="M204 936q-1 43 11 102q23 123 90.5 235.5t179.5 194.5q92 -12 127 -75q-59 -57 -91 -107.5t-32 -90.5t31 -66.5t94 -34.5q0 -125 -63 -226q-82 -4 -151.5 -24.5t-123.5 -50.5q-18 8 -34.5 25.5t-26.5 46t-11 71.5z" />
<glyph unicode="&#x2019;" horiz-adv-x="606" d="M250 1167q0 125 63 226q82 4 152 24.5t123 50.5q39 -16 61.5 -71.5t-0.5 -173.5q-23 -123 -90 -236t-180 -194q-92 12 -127 75q59 57 91 107.5t32 90.5t-31 66.5t-94 34.5z" />
<glyph unicode="&#x201a;" horiz-adv-x="552" d="M6 78q0 125 64 225q82 4 151.5 24.5t122.5 51.5q39 -16 61.5 -71.5t0.5 -174.5q-23 -123 -90.5 -235.5t-180.5 -194.5q-92 12 -127 76q59 57 91 107.5t32 90t-31 66.5t-94 35z" />
<glyph unicode="&#x201c;" horiz-adv-x="1034" d="M200 917.5q-1 43.5 11 102.5q23 123 90.5 235.5t179.5 194.5q92 -12 127 -76q-55 -53 -85.5 -102t-33 -89t24.5 -68t86 -40q0 -125 -63 -225q-82 -4 -146.5 -24.5t-118.5 -51.5q-18 8 -34.5 25.5t-26.5 46t-11 72zM643 865.5q-14 66.5 19 193.5q29 113 90 216t141 161 q92 -12 127 -76q-117 -111 -109.5 -189.5t127.5 -95.5q0 -125 -63 -225q-82 -4 -145.5 -24.5t-116.5 -51.5q-56 25 -70 91.5z" />
<glyph unicode="&#x201d;" horiz-adv-x="1034" d="M250 1167q0 125 63 226q82 4 145.5 24.5t116.5 50.5q55 -25 69.5 -91t-17.5 -193q-29 -113 -90.5 -216.5t-141.5 -160.5q-92 12 -127 76q117 111 110 189.5t-128 94.5zM680 868q55 53 86 102.5t33 89.5t-24.5 67.5t-86.5 39.5q0 125 64 226q82 4 146.5 24.5t117.5 50.5 q39 -16 61.5 -71.5t-0.5 -173.5q-23 -123 -90 -236t-180 -194q-92 12 -127 75z" />
<glyph unicode="&#x201e;" horiz-adv-x="942" d="M6 78q0 125 64 225q82 4 145.5 24.5t116.5 51.5q55 -25 69.5 -91.5t-18.5 -193.5q-29 -113 -90.5 -216t-140.5 -161q-92 12 -127 76q117 111 109.5 190t-128.5 95zM436 -221q55 53 86 102t33 89t-24.5 68t-86.5 40q0 125 64 225q82 4 146.5 24.5t117.5 51.5 q39 -16 61.5 -71.5t0.5 -174.5q-23 -123 -90.5 -235.5t-180.5 -194.5q-92 13 -127 76z" />
<glyph unicode="&#x2022;" horiz-adv-x="759" d="M73.5 436.5q-14.5 69.5 2.5 153.5q25 119 118 184.5t228 65.5q78 0 138.5 -27t99 -75t52 -113.5t-0.5 -141.5q-25 -123 -114 -198.5t-212 -75.5q-84 0 -149.5 28.5t-106.5 79t-55.5 120z" />
<glyph unicode="&#x2026;" horiz-adv-x="1943" d="M27 233q16 82 73.5 126t161.5 44q43 0 84 -16t69.5 -48t42 -78t1.5 -107q-16 -80 -69.5 -126t-151.5 -46q-115 0 -175.5 64t-35.5 187zM702 233q16 82 74 126t162 44q43 0 84 -16t69.5 -48t42 -78t1.5 -107q-16 -80 -69.5 -126t-152.5 -46q-115 0 -175.5 64t-35.5 187z M1378 233q16 82 73.5 126t162.5 44q43 0 84 -16t69.5 -48t42 -78t0.5 -107q-16 -80 -69 -126t-152 -46q-115 0 -175.5 64t-35.5 187z" />
<glyph unicode="&#x202f;" horiz-adv-x="387" />
<glyph unicode="&#x2039;" horiz-adv-x="530" d="M45 420q4 51 21.5 102t42.5 82q80 59 147.5 116.5t138.5 125.5q45 4 84 -14.5t62 -45.5l-108 -126q-60 -73 -107 -138q18 -70 49 -148.5t61 -144.5q-31 -39 -60.5 -63.5t-72.5 -44.5q-55 72 -123.5 151.5t-134.5 147.5z" />
<glyph unicode="&#x203a;" horiz-adv-x="581" d="M33 231q63 57 127.5 122t111.5 122q-29 78 -62.5 156t-78.5 164q41 29 77 39t75 10q41 -47 106.5 -112.5t130.5 -123.5q14 -43 13 -93t-13 -93q-104 -78 -199 -157l-184 -156q-75 44 -104 122z" />
<glyph unicode="&#x2044;" horiz-adv-x="980" d="M1030 1468q47 -18 78 -55t41 -84l-290 -348l-260 -316l-259 -322l-287 -361q-43 14 -78.5 55t-42.5 84z" />
<glyph unicode="&#x205f;" horiz-adv-x="483" />
<glyph unicode="&#x20ac;" horiz-adv-x="1409" d="M84 375q-18 102 29 186h96q0 33 2 65.5t6 67.5h-108q-4 49 8 98.5t41 88.5h102q45 131 127 228t184.5 162.5t220 98.5t234.5 33q125 0 236.5 -23.5t210.5 -85.5q-49 -145 -68 -317q-41 -16 -92 -20.5t-103 6.5q10 86 1 140t-33.5 86t-62.5 44t-85 12q-63 0 -116.5 -28.5 t-97.5 -77.5t-77.5 -116t-58.5 -142h420q4 -102 -47 -179h-416q-6 -37 -9 -71.5t-5 -69.5h440q4 -47 -7.5 -94t-35.5 -84h-377q29 -98 100.5 -153.5t196.5 -55.5q66 0 140.5 17.5t162.5 60.5q25 -27 36 -62.5t15 -78.5q-98 -63 -212.5 -96t-258.5 -33q-236 0 -385 105.5 t-202 287.5h-152z" />
<glyph unicode="&#x2122;" horiz-adv-x="3309" d="M1239 -6q0 41 7.5 83t23.5 77q33 10 56.5 27.5t45 50t42 83t44.5 127.5l51 163q24 77 43 149.5t36 145.5l36 153q12 53 14.5 85.5t-7 51t-34 27t-65.5 14.5q-8 35 -8 77t6 83q27 -2 66 -3l77 -3q39 -1 74 -1h58q55 0 132.5 1t153.5 6q63 -213 119.5 -426t103.5 -430 l243 426l226 430q86 -4 164 -5.5t121 -1.5q55 0 111.5 1t132.5 6q0 -84 -27 -160q-41 -8 -66.5 -23.5t-41 -45t-22.5 -76t-11 -113.5l-15.5 -280.5t-19.5 -280.5q-7 -87 -7 -131q0 -42 9 -68q10 -29 31.5 -42t60.5 -17q8 -35 8 -77t-6 -83q-76 4 -160.5 5t-193.5 1 q-80 0 -175 -1t-187 -5q0 39 6 79t22 81q53 6 85 19t50.5 44t27.5 82t17 131q16 135 25 270l16 273l-265 -493l-283 -486q-47 -10 -84 -11t-72 -1q-59 258 -126 509.5t-144 499.5l-34 -143l-35 -145l-35 -136l-32 -121q-20 -78 -28 -129q-4 -27 -5 -49q0 -19 4 -35 q7 -33 31.5 -51t71.5 -28q6 -37 6 -78t-4 -82q-41 4 -96 5t-115 1q-72 0 -140.5 -1t-113.5 -5zM127 1010q14 37 28.5 85t27 99t21.5 102.5t13 94.5q61 -2 121.5 -3.5t128.5 -2.5t149 -1h189h173q75 0 142 1l134 3q67 1 145 3q-10 -86 -14 -195q-1 -25 0 -50q0 -82 8 -157 q-45 -14 -98 -19q-29 -3 -59 -3q-24 0 -48 2q-10 145 -52 203.5t-128 58.5h-2l-148 -848q-11 -68 -11 -106q0 -37 15 -61q16 -26 55 -39t107 -23q8 -39 9 -81v-17q0 -33 -3 -62q-68 4 -172 5t-229 1q-137 0 -254 -1t-201 -5q4 45 14.5 87t22.5 73q68 8 108.5 19t66.5 38 t40 72t27 120l143 828h-2q-82 0 -152.5 -65.5t-119.5 -198.5q-59 0 -106.5 9t-88.5 34z" />
<glyph unicode="&#xe000;" horiz-adv-x="955" d="M0 955h955v-955h-955v955z" />
<glyph unicode="&#xfb01;" horiz-adv-x="1466" d="M-322 -408q0 47 12.5 108.5t35.5 104.5q49 -25 104 -35t115 -10q49 0 82.5 11.5t55 44t35 94t23.5 162.5q10 111 29.5 280.5t50.5 374.5q-51 16 -93 22.5t-73 6.5q0 43 6.5 88t22.5 74h166q27 131 80 232t137 171t201.5 105.5t275.5 35.5q135 0 243.5 -14t178.5 -43 q-25 -76 -39 -160t-14 -145q-23 -10 -58.5 -17.5t-73.5 -10.5t-75 -3t-62 4q-2 104 -39.5 170t-109.5 66q-47 0 -84 -18.5t-65.5 -62.5t-52 -120t-44.5 -190h144q123 0 203.5 2t134 6t88 11t63.5 19q45 -25 66.5 -67.5t5.5 -128.5l-74 -383q-20 -104 -18 -134t24 -30 q12 0 27.5 6t38.5 23q20 -20 40.5 -60.5t24.5 -75.5q-68 -66 -154.5 -95t-179.5 -29q-88 0 -137 26.5t-70.5 75.5t-19.5 116.5t21 151.5l38 185q12 59 14.5 100t-10 65.5t-43 35t-81.5 10.5q-31 0 -51.5 -1.5t-40 -4.5t-41 -8t-50.5 -13l-30 -189l-31 -190 q-25 -166 -81 -319.5t-139 -271.5t-190.5 -188.5t-236.5 -70.5q-66 0 -122.5 23.5t-103.5 76.5z" />
<glyph unicode="&#xfb02;" horiz-adv-x="1492" d="M-322 -408q0 47 12.5 108.5t35.5 104.5q49 -25 104 -35t115 -10q49 0 82.5 11.5t55 44t35 94t23.5 162.5q10 111 29.5 280.5t50.5 374.5q-51 16 -93 22.5t-73 6.5q0 43 6.5 88t22.5 74h166q27 131 80 232t137 171t201.5 105.5t275.5 35.5q96 0 167 -12t136 -43 q74 12 135 47q20 -18 34 -33.5t20 -35t6 -46t-6 -65.5l-166 -897q-10 -53 -13.5 -85t0 -49.5t10.5 -23.5t17 -6q14 0 28.5 6t41.5 23q20 -20 40.5 -60.5t24.5 -75.5q-68 -66 -154.5 -95t-179.5 -29q-68 0 -112.5 16t-70 44t-37 65.5t-11.5 82.5q0 29 4 69t20 128l43 242 l76 407q12 63 15.5 113.5t-7 85.5t-37 54.5t-73.5 19.5t-84 -18.5t-65.5 -62.5t-52 -120t-44.5 -190h189q0 -49 -4.5 -96.5t-16.5 -73.5q-55 0 -102 -5.5t-103 -21.5l-30 -189l-31 -190q-25 -166 -81 -319.5t-139 -271.5t-190.5 -188.5t-236.5 -70.5q-66 0 -122.5 23.5 t-103.5 76.5z" />
<glyph unicode="&#xfb03;" horiz-adv-x="2293" d="M-322 -408q0 47 12.5 108.5t35.5 104.5q49 -25 104 -35t115 -10q49 0 82.5 11.5t55 44t35 94t23.5 162.5q4 55 12.5 127.5t20.5 157.5l27 180q14 94 32 190q-51 16 -93 22.5t-72 6.5q0 43 6 88t22 74h170q33 123 88.5 216t139.5 155.5t199.5 95t267.5 32.5 q94 0 183 -20.5t167 -63.5q82 61 197.5 95t263.5 34q135 0 243.5 -14t177.5 -43q-25 -76 -39 -160t-14 -145q-23 -10 -58.5 -17.5t-73.5 -10.5t-75 -3t-61 4q-2 104 -40 170t-110 66q-47 0 -83.5 -18.5t-65.5 -62.5t-52.5 -120t-43.5 -190h143q123 0 204 2t134 6t88 11 t63 19q45 -25 67 -67.5t5 -128.5l-74 -383q-20 -104 -18 -134t25 -30q12 0 27.5 6t37.5 23q20 -20 41 -60.5t25 -75.5q-68 -66 -155 -95t-179 -29q-88 0 -137.5 26.5t-71 75.5t-19 116.5t20.5 151.5l39 185q12 59 14 100t-10 65.5t-43 35t-82 10.5q-31 0 -51.5 -1.5 t-40 -4.5t-41 -8t-49.5 -13q-18 -102 -39 -198.5t-42.5 -178.5t-44 -146.5t-40.5 -101.5q-59 -115 -141 -209t-175.5 -161.5t-191.5 -105.5t-186 -38q-94 0 -168 33t-125 82q-76 -92 -171.5 -148.5t-211.5 -56.5q-66 0 -122.5 23.5t-103.5 76.5zM397 -135q45 -20 95.5 -30.5 t111.5 -10.5q76 0 127 9t88 37t62.5 78t50.5 132q18 59 34.5 135t32 161t28.5 175t22 176q-72 25 -207 25q-59 0 -108.5 -7.5t-108.5 -23.5l-39 -210l-51 -257q-20 -98 -54.5 -197.5t-83.5 -191.5zM666 918h411q29 139 86 241q-37 53 -92 81t-135 28q-49 0 -89 -15.5 t-74 -55.5t-60.5 -107.5t-46.5 -171.5z" />
<glyph unicode="&#xfb04;" horiz-adv-x="2320" d="M-322 -408q0 47 12.5 108.5t35.5 104.5q49 -25 104 -35t115 -10q49 0 82.5 11.5t55 44t35 94t23.5 162.5q4 55 12.5 127.5t20.5 157.5l27 180q14 94 32 190q-51 16 -93 22.5t-72 6.5q0 43 6 88t22 74h170q33 123 88.5 216t139.5 155.5t199.5 95t267.5 32.5q197 0 350 -84 q84 63 196.5 96t264.5 33q96 0 166.5 -12t136.5 -43q74 12 135 47q20 -18 33.5 -33.5t19.5 -35t6 -46t-6 -65.5l-166 -897q-10 -53 -13 -85t0 -49.5t10 -23.5t17 -6q14 0 28.5 6t41.5 23q20 -20 41 -60.5t25 -75.5q-68 -66 -155 -95t-179 -29q-68 0 -113 16t-70.5 44 t-37 65.5t-11.5 82.5q0 29 4.5 69t19.5 128l43 242l77 407q12 63 15 113.5t-7 85.5t-37 54.5t-74 19.5t-83.5 -18.5t-65.5 -62.5t-52.5 -120t-43.5 -190h188q0 -49 -4 -96.5t-16 -73.5q-55 0 -102.5 -5.5t-102.5 -21.5q-18 -102 -39 -198.5t-42.5 -178.5t-44 -146.5 t-40.5 -101.5q-59 -115 -141 -209t-175.5 -161.5t-191.5 -105.5t-186 -38q-94 0 -168 33t-125 82q-76 -92 -171.5 -148.5t-211.5 -56.5q-66 0 -122.5 23.5t-103.5 76.5zM397 -135q45 -20 95.5 -30.5t111.5 -10.5q76 0 127 9t88 37t62.5 78t50.5 132q18 59 34.5 135t32 161 t28.5 175t22 176q-72 25 -207 25q-59 0 -108.5 -7.5t-108.5 -23.5l-39 -210l-51 -257q-20 -98 -54.5 -197.5t-83.5 -191.5zM666 918h411q29 139 86 241q-37 53 -92 81t-135 28q-49 0 -89 -15.5t-74 -55.5t-60.5 -107.5t-46.5 -171.5z" />
<glyph horiz-adv-x="837" d="M799 664q-6 -39 -23.5 -72t-52.5 -64.5t-91.5 -63.5t-137.5 -69q-47 -20 -93.5 -45.5t-93.5 -56.5q20 2 39 2h39q37 0 64.5 -2t50.5 -2q31 0 48 19.5t34 84.5q41 8 90 0t84 -26q-18 -72 -25.5 -151t-1.5 -140q-14 -39 -45 -61.5t-66 -22.5q-51 0 -116.5 3t-161.5 3 q-82 0 -161 -1t-171 -5q-20 35 -28.5 86t-4.5 100q59 63 119 111.5t142 99.5q98 61 142 112.5t58 123.5t-5 106.5t-56 34.5q-18 0 -31.5 -11.5t-26 -40t-24.5 -76.5t-27 -124q-57 0 -108.5 10.5t-85.5 28.5q20 63 28.5 133t8.5 135q80 51 158.5 74t199.5 23 q84 0 149.5 -18.5t109.5 -51.5t63.5 -81t9.5 -105z" />
<glyph horiz-adv-x="876" d="M758 377q27 0 44 -16.5t23 -43.5q-8 -16 -16 -41.5t-15.5 -53t-13.5 -55.5t-10 -52h-127l-22 -115h-361l25 113q-88 -2 -158 -3t-117 -4q-20 35 -29.5 93.5t-0.5 107.5l304 304l296 309q55 0 114.5 -8.5t96.5 -24.5l-99 -510h66zM346 395q10 51 21.5 87t27.5 69h-2 q-23 -29 -41 -49.5t-45 -42.5l-51 -43l-51 -39h137z" />
<glyph horiz-adv-x="772" d="M328 1008q12 66 13 105.5t-14.5 61t-49 27.5t-93.5 6q0 41 6.5 79t22.5 73q139 12 246.5 38.5t218.5 69.5q43 -23 58.5 -59.5t-1.5 -120.5l-67 -344q-12 -68 -14.5 -106.5t8 -60t34 -32t60.5 -16.5q6 -41 7 -79t-3 -81q-88 4 -161 5t-155 1q-100 0 -178 -1t-149 -5 q4 45 13 82t26 78q37 6 62.5 14.5t43 30t29.5 60t24 104.5z" />
<glyph horiz-adv-x="731" d="M799 1270q-12 -74 -64.5 -119t-150.5 -74q100 -23 149 -85t25 -169q-14 -68 -59.5 -117t-108 -81.5t-134 -49t-139.5 -16.5q-100 0 -157.5 14.5t-87.5 38.5q4 35 20.5 74t42.5 53q23 -12 55.5 -23t75.5 -11q53 0 90 27.5t47 74.5q16 68 -13.5 111t-108.5 47 q-10 23 -9.5 53.5t13.5 56.5q104 12 152 62.5t59 113.5q16 90 -52 90q-37 0 -60.5 -35.5t-47.5 -134.5q-29 -4 -72 1.5t-78 19.5q16 47 26.5 109.5t12.5 107.5q115 57 279 57q162 0 237.5 -53t57.5 -143z" />
</font>
</defs>
</svg>
