<?xml version="1.0" standalone="no"?>
<!DOCTYPE svg PUBLIC "-//W3C//DTD SVG 1.1//EN" "http://www.w3.org/Graphics/SVG/1.1/DTD/svg11.dtd" >
<svg xmlns="http://www.w3.org/2000/svg">
<metadata>
This is a custom SVG webfont generated by Font Squirrel.
Copyright   : 2007 Vic Fieger
</metadata>
<defs>
<font id="EurocentricRegular" horiz-adv-x="200" >
<font-face units-per-em="2048" ascent="1638" descent="-410" />
<missing-glyph horiz-adv-x="599" />
<glyph unicode=" "  horiz-adv-x="599" />
<glyph unicode="&#x09;" horiz-adv-x="599" />
<glyph unicode="&#xa0;" horiz-adv-x="599" />
<glyph unicode="!" horiz-adv-x="607" d="M87 -92l212 211l212 -211l-212 -213zM100 161h407l-2 299h-50v540h44v299l-394 -1l-1 -297l50 1v-541h-54v-300z" />
<glyph unicode="&#x22;" horiz-adv-x="700" d="M100 899v398h200v-398h-200zM399 1299h201v-398h-200z" />
<glyph unicode="#" />
<glyph unicode="$" />
<glyph unicode="%" />
<glyph unicode="&#x26;" />
<glyph unicode="'" horiz-adv-x="400" d="M100 899v398h200v-398h-200z" />
<glyph unicode="(" />
<glyph unicode=")" />
<glyph unicode="*" />
<glyph unicode="+" />
<glyph unicode="," horiz-adv-x="482" d="M100 -204v532h282l-110 -532h-172z" />
<glyph unicode="-" horiz-adv-x="675" d="M100 500v301h475v-301h-475z" />
<glyph unicode="." horiz-adv-x="482" d="M100 -1v329h282v-329h-282z" />
<glyph unicode="/" />
<glyph unicode="0" horiz-adv-x="1047" d="M100 1h847v1100l-847 -1v-1099zM355 254v594h339v-594h-339z" />
<glyph unicode="1" horiz-adv-x="545" d="M100 1h46h299l-2 253h-42v594h37v253l-334 -1l-1 -251h43v-594h-46v-254z" />
<glyph unicode="2" horiz-adv-x="1047" d="M100 0h847v296h-254v-42h-340l1 83l593 256v507h-847v-295h254v41h339v-81l-593 -259v-506z" />
<glyph unicode="3" horiz-adv-x="1093" d="M100 1h846h46v254l1 84l-303 213l299 208v89l-1 251l-888 1v-296h253v43h338l-338 -256v-81l338 -257h-338v42h-253v-295z" />
<glyph unicode="4" horiz-adv-x="1097" d="M100 849h47v-426h592l1 -168h-48l2 -254h46h256l1 1100l-258 -1v-423h-338v424l-301 -1v-251z" />
<glyph unicode="5" horiz-adv-x="1045" d="M100 0h552l292 294l1 384l-591 -1v168h338v-41h253v294h-845v-675h592l-172 -170h-166v42h-254v-295z" />
<glyph unicode="6" horiz-adv-x="1043" d="M100 0h700l142 143v532h-591l-1 68l101 102h492l-1 253h-596l-245 -248zM351 253v167h338v-167h-338z" />
<glyph unicode="7" horiz-adv-x="1089" d="M100 804h253v43h316l-291 -593h-43l-1 -253h321h46v254h-46l334 672l-2 172l-887 1v-296z" />
<glyph unicode="8" horiz-adv-x="1050" d="M100 255l319 -256l415 2l116 129l-1 415h-89l86 87l2 214l-319 256l-408 -1l-121 -125v-425l86 -1l-86 -85v-210zM355 367v58h339v-171h-191zM355 678v171h195l144 -116v-55h-339z" />
<glyph unicode="9" horiz-adv-x="1043" d="M100 0h596l245 247l2 851h-700l-143 -143v-532h592v-68l-101 -102h-491v-253zM354 677v168h338v-167z" />
<glyph unicode=":" />
<glyph unicode=";" />
<glyph unicode="&#x37e;" />
<glyph unicode="&#x3c;" horiz-adv-x="2044" d="M15 1162l1934 376l18 -59l-19 -353zM59 1132l1089 -24l-235 -95zM890 758l36 223l292 128l642 -12l61 -170l-86 -904l-14 -14l-43 40l-125 52l-182 9l-140 -13l-140 -33l16 219l283 154h44l52 298l74 86l29 147l-44 -126l-79 -97l-53 -284l-390 14l-105 -46l22 379z M906 742l115 35l-3 -65zM1021 409l97 47l341 -18l-254 -128zM1038 1388l39 105l73 82l113 58l202 55l173 10l183 -46l104 -88zM1091 858q53 38 52 70.5t-34 57.5q29 -65 -18 -128zM1204 41l132 34l136 11l180 -10l115 -52l33 -20l-101 -5l-353 3l-89 21zM1892 1096l53 -2 l-9 -123z" />
<glyph unicode="=" />
<glyph unicode="&#x3e;" horiz-adv-x="2048" d="M93 1479l19 59l1933 -376l-1933 -36zM115 1094l53 2l-44 -125zM136 1564l103 88l183 46l174 -10l202 -55l112 -58l73 -82l39 -105zM139 927l61 170l642 12l292 -128l36 -223l-150 50l23 -379l-105 46l-391 -14l-53 284l-79 97l-43 126l28 -147l74 -86l52 -298h44 l283 -154l16 -219l-139 33l-140 13l-182 -9l-126 -52l-43 -40l-13 14zM261 4l33 20l115 52l179 10l136 -11l132 -34l-53 -18l-88 -21l-354 -3zM601 438l341 18l98 -47l-185 -99zM913 1108l1088 24l-853 -119zM917 928.5q-1 -32.5 53 -70.5q-47 63 -19 128q-33 -25 -34 -57.5 zM1040 777l114 -35l-111 -30z" />
<glyph unicode="?" horiz-adv-x="1199" d="M100 939h301v61h399v-133h-352v-703l375 1v303h-70l-2 100h348v731l-999 -1v-359zM396 -92l212 212l212 -212l-212 -212z" />
<glyph unicode="@" />
<glyph unicode="A" horiz-adv-x="1193" d="M46 299l1 -297l1095 -1l1 299h-45l-348 999l-313 -1l-341 -1000zM397 300l200 604l200 -604l-51 -1l-305 1h-44z" />
<glyph unicode="B" horiz-adv-x="1195" d="M42 1h54h999v481l-198 164l198 180v473l-1048 -1l-1 -297l50 1v-701h-54v-300zM397 300v201h225l174 -133v-68h-399zM397 800v200h399v-64l-170 -136h-229z" />
<glyph unicode="C" horiz-adv-x="1199" d="M100 1h999v348h-299v-49h-399v700h399v-51h299v350l-999 -1v-1297z" />
<glyph unicode="D" horiz-adv-x="1200" d="M49 1001h52v-701l-49 -1l-1 -298h1049v799l-323 499l-728 -1v-297zM402 300v700h200l199 -301v-399h-399z" />
<glyph unicode="E" horiz-adv-x="1200" d="M47 1h54h999v348h-299v-49h-399v201h399v299h-399v200h399v-51h299v350l-1048 -1l-1 -297l50 1v-701h-54v-300z" />
<glyph unicode="F" horiz-adv-x="1197" d="M44 1h54h353l-2 299h-50v201h399v299h-399v200h399v-51h299v350l-1048 -1l-1 -297l50 1v-701h-54v-300z" />
<glyph unicode="G" horiz-adv-x="1199" d="M100 1h999v799h-502l2 -299l203 1l-2 -202h-399v700h399v-51h299v350l-999 -1v-1297z" />
<glyph unicode="H" horiz-adv-x="1203" d="M47 1h54h353l-2 299h-50v199h399l1 -198h-54v-300h54h354l-3 299h-50v700h45l-1 299l-394 -1l-2 -297l51 -1l-1 -201h-399v201h44v299l-394 -1l-1 -297l50 1v-701h-54v-300z" />
<glyph unicode="I" horiz-adv-x="607" d="M100 1h54h353l-2 299h-50v700h44v299l-394 -1l-1 -297l50 1v-701h-54v-300z" />
<glyph unicode="J" horiz-adv-x="645" d="M100 -100l2 -300h246q153 0 153 149v150v1101h44v299l-394 -1l-1 -297l50 1v-1055q2 -47 -100 -47z" />
<glyph unicode="K" horiz-adv-x="1201" d="M47 1h54h353l1 299h-53v201h124l296 -500l275 2v300h-94l-235 341l232 357l101 -1l-1 299h-280l-293 -501l-125 -1v202h58v300l-408 -1l-1 -297l50 1v-701h-54v-300z" />
<glyph unicode="L" horiz-adv-x="1200" d="M47 999h54v-700h-50l1 -297l1048 -1v350h-299v-51h-399v700h50l2 299h-353h-54v-300z" />
<glyph unicode="M" horiz-adv-x="1302" d="M47 1h54h353l-2 299h-50v499l246 -300l252 300l1 -498h-54v-300h54h354l-3 299h-50v700h44v299l-345 -1l-254 -401l-248 402l-347 -1l-1 -297l50 1v-701h-54v-300z" />
<glyph unicode="N" horiz-adv-x="1203" d="M47 1h54h353l-2 299h-50v500l400 -799h354l-3 299h-50v700h45l-1 299l-394 -1l-2 -297l51 -1l-1 -501l-399 799h-350l-1 -297l50 1v-701h-54v-300z" />
<glyph unicode="O" horiz-adv-x="1199" d="M100 1h999v1298l-999 -1v-1297zM401 300v700h399v-700h-399z" />
<glyph unicode="P" horiz-adv-x="1200" d="M47 1h54h353l-2 299h-50v201h696l2 798l-1048 -1l-1 -297l50 1v-701h-54v-300zM402 800v200h399v-200h-399z" />
<glyph unicode="Q" horiz-adv-x="1199" d="M100 1h348v-404l649 1l1 304l-345 -1l-2 100h348v1298l-999 -1v-1297zM401 300v700h399v-700h-399z" />
<glyph unicode="R" horiz-adv-x="1200" d="M47 1h54h353l1 299h-53v201h124l296 -500l275 2v300h-94l-107 198l202 1l2 797l-1048 -1l-1 -297l50 1v-701h-54v-300zM402 800v200h399v-200h-399z" />
<glyph unicode="S" horiz-adv-x="1200" d="M100 0h1000v598l-700 305v96h400v-48h300v348h-1000v-598l700 -303l1 -99h-401v50h-300v-349z" />
<glyph unicode="T" horiz-adv-x="1249" d="M100 854h249l1 148h125l1 -701h-54l-1 -300h55h353l-2 299h-50v700h124v-148h248v447l-1048 -1z" />
<glyph unicode="U" horiz-adv-x="1198" d="M48 1001l50 1l341 -1000l313 -1l348 999h45l-1 299l-394 -1l-2 -297l51 -1l-200 -604l-200 604h44v299l-394 -1z" />
<glyph unicode="V" horiz-adv-x="1198" d="M48 1001l50 1l341 -1000l313 -1l348 999h45l-1 299l-394 -1l-2 -297l51 -1l-200 -604l-200 604h44v299l-394 -1z" />
<glyph unicode="W" horiz-adv-x="1514" d="M48 1001l50 1l273 -1000l248 1l286 997h45l-1 299l-394 -1l-2 -297l51 -1l-104 -409l-101 409h44v299l-394 -1zM556 1001l51 1l273 -1000l249 1l285 997h45l-1 299l-394 -1l-1 -297l50 -1l-104 -409l-101 409h45l-1 299l-394 -1z" />
<glyph unicode="X" horiz-adv-x="1200" d="M47 1h54h403l-2 299h-51l149 199l152 -198h-53l-1 -300h55h403l-3 299h-50l-308 350l308 350h45l2 299l-450 -1l-1 -297l50 -1l-149 -201l-143 201h45l-1 299l-449 -1l-1 -297l50 1l305 -351l-305 -350h-54v-300z" />
<glyph unicode="Y" horiz-adv-x="1203" d="M51 1001l50 1l337 -450v-251h-68l-1 -300h87h371l-2 299h-62v251l340 449h45l2 299l-450 -1l-1 -297l50 -1l-149 -201l-143 201h45l-1 299l-449 -1z" />
<glyph unicode="Z" horiz-adv-x="1200" d="M100 0h1000v349h-300v-50h-400l700 603v397h-1000v-348h300v48h400l-700 -602v-397z" />
<glyph unicode="[" />
<glyph unicode="\" />
<glyph unicode="]" />
<glyph unicode="^" />
<glyph unicode="_" />
<glyph unicode="`" horiz-adv-x="400" d="M51 1731l131 70l139 -260l-131 -71z" />
<glyph unicode="a" horiz-adv-x="1213" d="M57 299l1 -297l394 -1v299h-44l200 604l200 -604l-51 -1l2 -297l394 -1l1 299h-45l-348 999l-313 -1l-341 -1000z" />
<glyph unicode="b" horiz-adv-x="1195" d="M42 1h54h999v481l-198 164l198 180v473l-1048 -1l-1 -297l50 1v-701h-54v-300zM397 300v201h225l174 -133v-68h-399zM397 800v200h399v-64l-170 -136h-229z" />
<glyph unicode="c" horiz-adv-x="1199" d="M100 1h999v348h-299v-49h-399v700h399v-51h299v350l-999 -1v-1297z" />
<glyph unicode="d" horiz-adv-x="1200" d="M49 1001h52v-701l-49 -1l-1 -298h1049v799l-323 499l-728 -1v-297zM402 300v700h200l199 -301v-399h-399z" />
<glyph unicode="e" horiz-adv-x="1254" d="M100 400l1 -99v-300h54h999v348h-299v-49h-399l399 302v96l-399 302h399v-51h299v350l-1048 -1l-1 -297v-104l352 -246z" />
<glyph unicode="f" horiz-adv-x="1197" d="M44 1h54h353l-2 299h-50v201h399v299h-399v200h399v-51h299v350l-1048 -1l-1 -297l50 1v-701h-54v-300z" />
<glyph unicode="g" horiz-adv-x="1199" d="M100 1h999v799h-502l2 -299l203 1l-2 -202h-399v700h399v-51h299v350l-999 -1v-1297z" />
<glyph unicode="h" horiz-adv-x="1203" d="M47 1h54h353l-2 299h-50v199h399l1 -198h-54v-300h54h354l-3 299h-50v700h45l-1 299l-394 -1l-2 -297l51 -1l-1 -201h-399v201h44v299l-394 -1l-1 -297l50 1v-701h-54v-300z" />
<glyph unicode="i" horiz-adv-x="607" d="M100 1h54h353l-2 299h-50v700h44v299l-394 -1l-1 -297l50 1v-701h-54v-300z" />
<glyph unicode="j" horiz-adv-x="645" d="M100 -100l2 -300h246q153 0 153 149v150v1101h44v299l-394 -1l-1 -297l50 1v-1055q2 -47 -100 -47z" />
<glyph unicode="k" horiz-adv-x="1201" d="M47 1h54h353l1 299h-53v201h124l296 -500l275 2v300h-94l-235 341l232 357l101 -1l-1 299h-280l-293 -501l-125 -1v202h58v300l-408 -1l-1 -297l50 1v-701h-54v-300z" />
<glyph unicode="l" horiz-adv-x="1200" d="M47 999h54v-700h-50l1 -297l1048 -1v350h-299v-51h-399v700h50l2 299h-353h-54v-300z" />
<glyph unicode="m" horiz-adv-x="1302" d="M47 1h54h353l-2 299h-50v499l246 -300l252 300l1 -498h-54v-300h54h354l-3 299h-50v700h44v299l-345 -1l-254 -401l-248 402l-347 -1l-1 -297l50 1v-701h-54v-300z" />
<glyph unicode="n" horiz-adv-x="1203" d="M47 1h353l400 799v-500h-50l-2 -299h353h55l-1 300h-54l1 701l50 -1l-1 297h-351l-399 -799l-1 501l51 1l-2 297l-393 1l-1 -299h44v-700h-50z" />
<glyph unicode="o" horiz-adv-x="1199" d="M100 1h999v1298l-999 -1v-1297zM401 300v700h399v-700h-399z" />
<glyph unicode="p" horiz-adv-x="1200" d="M47 1h54h353l-2 299h-50v201h696l2 798l-1048 -1l-1 -297l50 1v-701h-54v-300zM402 800v200h399v-200h-399z" />
<glyph unicode="q" horiz-adv-x="1199" d="M100 1h348v-404l649 1l1 304l-345 -1l-2 100h348v1298l-999 -1v-1297zM401 300v700h399v-700h-399z" />
<glyph unicode="r" horiz-adv-x="1201" d="M97 1299l2 -797l201 -1l-106 -198h-94v-300l275 -2l296 500h124v-201h-53v-299h354h54v300h-54v701l51 -1l-2 297zM396 800v200h399v-200h-399z" />
<glyph unicode="s" horiz-adv-x="1200" d="M100 0h1000v598l-700 305v96h400v-48h300v348h-1000v-598l700 -303l1 -99h-401v50h-300v-349z" />
<glyph unicode="t" horiz-adv-x="1249" d="M100 854h249l1 148h125l1 -701h-54l-1 -300h55h353l-2 299h-50v700h124v-148h248v447l-1048 -1z" />
<glyph unicode="u" horiz-adv-x="1200" d="M49 1001l50 1l244 -704l-70 1v-299h650l-1 301l-67 -2l246 701h45l-1 299l-394 -1l-2 -297l51 -1l-200 -604l-200 604h44v299l-394 -1z" />
<glyph unicode="v" horiz-adv-x="1202" d="M51 1001l50 1l244 -704l-70 1v-299h650l-1 301l-67 -2l246 701h45l-1 299l-394 -1l-2 -297l51 -1l-200 -604l-200 604h44v299l-394 -1z" />
<glyph unicode="w" horiz-adv-x="1514" d="M48 1001l50 1l273 -1000l248 1l286 997h45l-1 299l-394 -1l-2 -297l51 -1l-104 -409l-101 409h44v299l-394 -1zM556 1001l51 1l273 -1000l249 1l285 997h45l-1 299l-394 -1l-1 -297l50 -1l-104 -409l-101 409h45l-1 299l-394 -1z" />
<glyph unicode="x" horiz-adv-x="1200" d="M47 1h54h403l-2 299h-51l149 199l152 -198h-53l-1 -300h55h403l-3 299h-50l-308 350l308 350h45l2 299l-450 -1l-1 -297l50 -1l-149 -201l-143 201h45l-1 299l-449 -1l-1 -297l50 1l305 -351l-305 -350h-54v-300z" />
<glyph unicode="y" horiz-adv-x="1203" d="M51 1001l50 1l337 -450v-251h-68l-1 -300h87h371l-2 299h-62v251l340 449h45l2 299l-450 -1l-1 -297l50 -1l-149 -201l-143 201h45l-1 299l-449 -1z" />
<glyph unicode="z" horiz-adv-x="1200" d="M100 0h1000v349h-300v-50h-400l700 603v397h-1000v-348h300v48h400l-700 -602v-397z" />
<glyph unicode="{" />
<glyph unicode="|" />
<glyph unicode="}" />
<glyph unicode="~" />
<glyph unicode="&#xa1;" horiz-adv-x="607" d="M87 1392l212 212l212 -212l-212 -213zM91 1137l2 -299h50l1 -539h-44v-299l394 1l1 297l-50 -1l-1 540h54v300h-407z" />
<glyph unicode="&#xa2;" />
<glyph unicode="&#xa3;" />
<glyph unicode="&#xa5;" />
<glyph unicode="&#xa6;" />
<glyph unicode="&#xa7;" />
<glyph unicode="&#xa8;" horiz-adv-x="729" d="M59 1660l141 142l142 -142l-142 -141zM389 1660l142 142l141 -142l-141 -141z" />
<glyph unicode="&#xa9;" />
<glyph unicode="&#xaa;" />
<glyph unicode="&#xab;" />
<glyph unicode="&#xac;" />
<glyph unicode="&#xad;" horiz-adv-x="675" d="M100 500v301h475v-301h-475z" />
<glyph unicode="&#xae;" />
<glyph unicode="&#xaf;" />
<glyph unicode="&#xb0;" />
<glyph unicode="&#xb1;" />
<glyph unicode="&#xb2;" />
<glyph unicode="&#xb3;" />
<glyph unicode="&#xb4;" horiz-adv-x="400" d="M51 1541l139 260l131 -70l-139 -261z" />
<glyph unicode="&#xb5;" />
<glyph unicode="&#xb6;" />
<glyph unicode="&#xb7;" />
<glyph unicode="&#x2219;" />
<glyph unicode="&#xb8;" horiz-adv-x="400" d="M51 -290l139 260l131 -70l-139 -260z" />
<glyph unicode="&#xb9;" />
<glyph unicode="&#xba;" />
<glyph unicode="&#xbb;" />
<glyph unicode="&#xbc;" />
<glyph unicode="&#xbd;" />
<glyph unicode="&#xbe;" />
<glyph unicode="&#xbf;" horiz-adv-x="1199" d="M100 0h999v359h-301v-61h-399v133h352v703h-375v-304h70l2 -100h-348v-730zM379 1391l212 212l212 -212l-212 -212z" />
<glyph unicode="&#xc0;" horiz-adv-x="1193" d="M46 299l1 -297l1095 -1l1 299h-45l-348 999l-313 -1l-341 -1000zM397 300l200 604l200 -604l-51 -1l-305 1h-44zM420 1727l131 70l139 -260l-131 -71z" />
<glyph unicode="&#xc1;" horiz-adv-x="1193" d="M46 299l1 -297l1095 -1l1 299h-45l-348 999l-313 -1l-341 -1000zM397 300l200 604l200 -604l-51 -1l-305 1h-44zM485 1537l139 260l131 -70l-139 -261z" />
<glyph unicode="&#xc2;" horiz-adv-x="1193" d="M46 299l1 -297l1095 -1l1 299h-45l-348 999l-313 -1l-341 -1000zM397 300l200 604l200 -604l-51 -1l-305 1h-44zM378 1537l138 260h165l139 -260l-131 -71l-91 170l-90 -169z" />
<glyph unicode="&#xc3;" horiz-adv-x="1193" d="M46 299l1 -297l1095 -1l1 299h-45l-348 999l-313 -1l-341 -1000zM397 300l200 604l200 -604l-51 -1l-305 1h-44zM288 1532l138 260h166l90 -169l91 170l131 -71l-139 -260h-164l-2 -1l-91 170l-90 -169z" />
<glyph unicode="&#xc4;" horiz-adv-x="1193" d="M46 299l1 -297l1095 -1l1 299h-45l-348 999l-313 -1l-341 -1000zM397 300l200 604l200 -604l-51 -1l-305 1h-44zM286 1656l141 142l142 -142l-142 -141zM616 1656l142 142l141 -142l-141 -141z" />
<glyph unicode="&#xc5;" />
<glyph unicode="&#xc6;" />
<glyph unicode="&#xc7;" horiz-adv-x="1199" d="M100 1h999v348h-299v-49h-399v700h399v-51h299v350l-999 -1v-1297zM440 -290l139 260l132 -71l-139 -260z" />
<glyph unicode="&#xc8;" horiz-adv-x="1200" d="M47 1h54h999v348h-299v-49h-399v201h399v299h-399v200h399v-51h299v350l-1048 -1l-1 -297l50 1v-701h-54v-300zM418 1727l131 70l139 -260l-131 -71z" />
<glyph unicode="&#xc9;" horiz-adv-x="1200" d="M47 1h54h999v348h-299v-49h-399v201h399v299h-399v200h399v-51h299v350l-1048 -1l-1 -297l50 1v-701h-54v-300zM492 1537l139 260l131 -70l-139 -261z" />
<glyph unicode="&#xca;" horiz-adv-x="1200" d="M47 1h54h999v348h-299v-49h-399v201h399v299h-399v200h399v-51h299v350l-1048 -1l-1 -297l50 1v-701h-54v-300zM382 1537l138 260h165l139 -260l-131 -71l-91 170l-90 -169z" />
<glyph unicode="&#xcb;" horiz-adv-x="1200" d="M47 1h54h999v348h-299v-49h-399v201h399v299h-399v200h399v-51h299v350l-1048 -1l-1 -297l50 1v-701h-54v-300zM272 1650l141 142l142 -142l-142 -141zM602 1650l142 142l141 -142l-141 -141z" />
<glyph unicode="&#xcc;" horiz-adv-x="607" d="M100 1h54h353l-2 299h-50v700h44v299l-394 -1l-1 -297l50 1v-701h-54v-300zM106 1730l131 71l139 -260l-131 -71z" />
<glyph unicode="&#xcd;" horiz-adv-x="607" d="M100 1h54h353l-2 299h-50v700h44v299l-394 -1l-1 -297l50 1v-701h-54v-300zM216 1541l139 260l131 -71l-139 -260z" />
<glyph unicode="&#xce;" horiz-adv-x="607" d="M100 1h54h353l-2 299h-50v700h44v299l-394 -1l-1 -297l50 1v-701h-54v-300zM121 1541l111 260h132l111 -260l-105 -71l-73 169l-72 -168z" />
<glyph unicode="&#xcf;" horiz-adv-x="607" d="M-5 1661l141 141l142 -141l-142 -142zM101 1h54h353l-2 299h-50v700h44v299l-394 -1l-1 -297l50 1v-701h-54v-300zM325 1661l142 141l141 -141l-141 -142z" />
<glyph unicode="&#xd0;" />
<glyph unicode="&#xd1;" horiz-adv-x="1203" d="M47 1h54h353l-2 299h-50v500l400 -799h354l-3 299h-50v700h45l-1 299l-394 -1l-2 -297l51 -1l-1 -501l-399 799h-350l-1 -297l50 1v-701h-54v-300zM284 1537l138 260h166l90 -169l91 170l131 -71l-139 -260h-164l-2 -1l-91 170l-90 -169z" />
<glyph unicode="&#xd2;" horiz-adv-x="1199" d="M100 1h999v1298l-999 -1v-1297zM401 300v700h399v-700h-399zM417 1731l131 71l139 -261l-131 -70z" />
<glyph unicode="&#xd3;" horiz-adv-x="1199" d="M100 1h999v1298l-999 -1v-1297zM401 300v700h399v-700h-399zM508 1541l139 260l132 -70l-139 -261z" />
<glyph unicode="&#xd4;" horiz-adv-x="1199" d="M100 1h999v1298l-999 -1v-1297zM385 1541l138 260h165l139 -260l-131 -71l-91 170l-90 -169zM401 300v700h399v-700h-399z" />
<glyph unicode="&#xd5;" horiz-adv-x="1199" d="M100 1h999v1298l-999 -1v-1297zM294 1541l138 260h166l90 -169l91 170l131 -71l-139 -260h-164l-2 -1l-91 170l-90 -169zM401 300v700h399v-700h-399z" />
<glyph unicode="&#xd6;" horiz-adv-x="1199" d="M100 1h999v1298l-999 -1v-1297zM292 1660l141 142l142 -142l-142 -141zM401 300v700h399v-700h-399zM622 1660l142 142l141 -142l-141 -141z" />
<glyph unicode="&#xd7;" />
<glyph unicode="&#xd8;" />
<glyph unicode="&#xd9;" horiz-adv-x="1198" d="M48 1001l50 1l341 -1000l313 -1l348 999h45l-1 299l-394 -1l-2 -297l51 -1l-200 -604l-200 604h44v299l-394 -1zM428 1727l131 70l139 -260l-131 -71z" />
<glyph unicode="&#xda;" horiz-adv-x="1198" d="M48 1001l50 1l341 -1000l313 -1l348 999h45l-1 299l-394 -1l-2 -297l51 -1l-200 -604l-200 604h44v299l-394 -1zM495 1537l139 260l131 -70l-139 -261z" />
<glyph unicode="&#xdb;" horiz-adv-x="1198" d="M48 1001l50 1l341 -1000l313 -1l348 999h45l-1 299l-394 -1l-2 -297l51 -1l-200 -604l-200 604h44v299l-394 -1zM375 1537l138 260h165l139 -260l-131 -71l-91 170l-90 -169z" />
<glyph unicode="&#xdc;" horiz-adv-x="1198" d="M48 1001l50 1l341 -1000l313 -1l348 999h45l-1 299l-394 -1l-2 -297l51 -1l-200 -604l-200 604h44v299l-394 -1zM293 1651l141 142l142 -142l-142 -141zM623 1651l142 142l141 -142l-141 -141z" />
<glyph unicode="&#xdd;" />
<glyph unicode="&#xde;" />
<glyph unicode="&#xdf;" horiz-adv-x="1201" d="M57 1h351v299l-2 399l199 301h201v-132l-170 -136l-115 -217l285 -147v-68l-297 -1v-299l596 1v481l-198 121l198 130l2 565h-2v1h-675l-323 -499v-500l-49 -1z" />
<glyph unicode="&#xe0;" horiz-adv-x="1213" d="M60 299l1 -297l394 -1v299h-44l200 604l200 -604l-51 -1l2 -297l394 -1l1 299h-45l-348 999l-313 -1l-341 -1000zM446 1731l131 70l139 -260l-131 -71z" />
<glyph unicode="&#xe1;" horiz-adv-x="1213" d="M57 299l1 -297l394 -1v299h-44l200 604l200 -604l-51 -1l2 -297l394 -1l1 299h-45l-348 999l-313 -1l-341 -1000zM513 1541l139 260l131 -70l-139 -261z" />
<glyph unicode="&#xe2;" horiz-adv-x="1213" d="M57 299l1 -297l394 -1v299h-44l200 604l200 -604l-51 -1l2 -297l394 -1l1 299h-45l-348 999l-313 -1l-341 -1000zM386 1541l138 260h165l139 -260l-131 -71l-91 170l-90 -169z" />
<glyph unicode="&#xe3;" horiz-adv-x="1213" d="M57 299l1 -297l394 -1v299h-44l200 604l200 -604l-51 -1l2 -297l394 -1l1 299h-45l-348 999l-313 -1l-341 -1000zM295 1541l138 260h166l90 -169l91 170l131 -71l-139 -260h-164l-2 -1l-91 170l-90 -169z" />
<glyph unicode="&#xe4;" horiz-adv-x="1213" d="M57 299l1 -297l394 -1v299h-44l200 604l200 -604l-51 -1l2 -297l394 -1l1 299h-45l-348 999l-313 -1l-341 -1000zM289 1660l141 142l142 -142l-142 -141zM619 1660l142 142l141 -142l-141 -141z" />
<glyph unicode="&#xe5;" />
<glyph unicode="&#xe6;" />
<glyph unicode="&#xe7;" horiz-adv-x="1199" d="M100 1h999v348h-299v-49h-399v700h399v-51h299v350l-999 -1v-1297zM440 -290l139 260l131 -70l-139 -260z" />
<glyph unicode="&#xe8;" horiz-adv-x="1254" d="M100 400l1 -99v-300h54h999v348h-299v-49h-399l399 302v96l-399 302h399v-51h299v350l-1048 -1l-1 -297v-104l352 -246zM480 1731l131 70l139 -260l-131 -71z" />
<glyph unicode="&#xe9;" horiz-adv-x="1254" d="M100 400l1 -99v-300h54h999v348h-299v-49h-399l399 302v96l-399 302h399v-51h299v350l-1048 -1l-1 -297v-104l352 -246zM561 1541l139 260l131 -70l-139 -261z" />
<glyph unicode="&#xea;" horiz-adv-x="1254" d="M100 400l1 -99v-300h54h999v348h-299v-49h-399l399 302v96l-399 302h399v-51h299v350l-1048 -1l-1 -297v-104l352 -246zM436 1541l138 260h165l139 -260l-131 -71l-91 170l-90 -169z" />
<glyph unicode="&#xeb;" horiz-adv-x="1254" d="M100 400l1 -99v-300h54h999v348h-299v-49h-399l399 302v96l-399 302h399v-51h299v350l-1048 -1l-1 -297v-104l352 -246zM334 1660l141 142l142 -142l-142 -141zM664 1660l142 142l141 -142l-141 -141z" />
<glyph unicode="&#xec;" horiz-adv-x="607" d="M100 1h54h353l-2 299h-50v700h44v299l-394 -1l-1 -297l50 1v-701h-54v-300zM106 1731l131 70l139 -260l-131 -71z" />
<glyph unicode="&#xed;" horiz-adv-x="607" d="M100 1h54h353l-2 299h-50v700h44v299l-394 -1l-1 -297l50 1v-701h-54v-300zM216 1541l139 260l131 -70l-139 -261z" />
<glyph unicode="&#xee;" horiz-adv-x="607" d="M100 1h54h353l-2 299h-50v700h44v299l-394 -1l-1 -297l50 1v-701h-54v-300zM101.199 1541l110.398 260h131.998l111.198 -260l-104.799 -71l-72.7988 170l-71.999 -169z" />
<glyph unicode="&#xef;" horiz-adv-x="607" d="M101 1h54h353l-2 299h-50v700h44v299l-394 -1l-1 -297l50 1v-701h-54v-300zM-5 1660l141 142l142 -142l-142 -141zM325 1660l142 142l141 -142l-141 -141z" />
<glyph unicode="&#xf0;" />
<glyph unicode="&#xf1;" horiz-adv-x="1203" d="M47 1h353l400 799v-500h-50l-2 -299h353h55l-1 300h-54l1 701l50 -1l-1 297h-351l-399 -799l-1 501l51 1l-2 297l-393 1l-1 -299h44v-700h-50zM291 1541l138 260h166l90 -169l91 170l131 -71l-139 -260h-164l-2 -1l-91 170l-90 -169z" />
<glyph unicode="&#xf2;" horiz-adv-x="1199" d="M100 1h999v1298l-999 -1v-1297zM401 300v700h399v-700h-399zM417 1731l131 70l139 -260l-131 -71z" />
<glyph unicode="&#xf3;" horiz-adv-x="1199" d="M100 1h999v1298l-999 -1v-1297zM401 300v700h399v-700h-399zM508 1541l139 260l131 -70l-139 -261z" />
<glyph unicode="&#xf4;" horiz-adv-x="1199" d="M100 1h999v1298l-999 -1v-1297zM401 300v700h399v-700h-399zM385 1541l138 260h165l139 -260l-131 -71l-91 170l-90 -169z" />
<glyph unicode="&#xf5;" horiz-adv-x="1199" d="M100 1h999v1298l-999 -1v-1297zM401 300v700h399v-700h-399zM294 1541l138 260h166l90 -169l91 170l131 -71l-139 -260h-164l-2 -1l-91 170l-90 -169z" />
<glyph unicode="&#xf6;" horiz-adv-x="1199" d="M100 1h999v1298l-999 -1v-1297zM401 300v700h399v-700h-399zM292 1660l141 142l142 -142l-142 -141zM622 1660l142 142l141 -142l-141 -141z" />
<glyph unicode="&#xf7;" />
<glyph unicode="&#xf8;" />
<glyph unicode="&#xf9;" horiz-adv-x="1200" d="M49 1001l50 1l244 -704l-70 1v-299h650l-1 301l-67 -2l246 701h45l-1 299l-394 -1l-2 -297l51 -1l-200 -604l-200 604h44v299l-394 -1zM429 1731l131 70l139 -260l-131 -71z" />
<glyph unicode="&#xfa;" horiz-adv-x="1200" d="M49 1001l50 1l244 -704l-70 1v-299h650l-1 301l-67 -2l246 701h45l-1 299l-394 -1l-2 -297l51 -1l-200 -604l-200 604h44v299l-394 -1zM514 1541l139 260l131 -70l-139 -261z" />
<glyph unicode="&#xfb;" horiz-adv-x="1200" d="M49 1001l50 1l244 -704l-70 1v-299h650l-1 301l-67 -2l246 701h45l-1 299l-394 -1l-2 -297l51 -1l-200 -604l-200 604h44v299l-394 -1zM379 1541l138 260h165l139 -260l-131 -71l-91 170l-90 -169z" />
<glyph unicode="&#xfc;" horiz-adv-x="1200" d="M49 1001l50 1l244 -704l-70 1v-299h650l-1 301l-67 -2l246 701h45l-1 299l-394 -1l-2 -297l51 -1l-200 -604l-200 604h44v299l-394 -1zM288 1660l141 142l142 -142l-142 -141zM618 1660l142 142l141 -142l-141 -141z" />
<glyph unicode="&#xfd;" />
<glyph unicode="&#xfe;" />
<glyph unicode="&#xff;" horiz-adv-x="1203" d="M51 1001l50 1l337 -450v-251h-68l-1 -300h87h371l-2 299h-62v251l340 449h45l2 299l-450 -1l-1 -297l50 -1l-149 -201l-143 201h45l-1 299l-449 -1zM290 1660l141 142l142 -142l-142 -141zM620 1660l142 142l141 -142l-141 -141z" />
<glyph unicode="&#x131;" horiz-adv-x="607" d="M100 1h54h353l-2 299h-50v700h44v299l-394 -1l-1 -297l50 1v-701h-54v-300z" />
<glyph unicode="&#x152;" />
<glyph unicode="&#x153;" />
<glyph unicode="&#x178;" horiz-adv-x="1203" d="M51 1001l50 1l337 -450v-251h-68l-1 -300h87h371l-2 299h-62v251l340 449h45l2 299l-450 -1l-1 -297l50 -1l-149 -201l-143 201h45l-1 299l-449 -1zM290 1661l142 141l141 -141l-141 -142zM620 1661l142 141l141 -141l-141 -142z" />
<glyph unicode="&#x2c6;" horiz-adv-x="613" d="M69 1541l138 260h165l139 -260l-131 -71l-91 170l-90 -169z" />
<glyph unicode="&#x2dc;" horiz-adv-x="748" d="M69 1541l138 260h166l90 -169l91 170l131 -71l-139 -260h-164l-2 -1l-91 170l-90 -169z" />
<glyph unicode="&#x2000;" horiz-adv-x="901" />
<glyph unicode="&#x2001;" horiz-adv-x="1802" />
<glyph unicode="&#x2002;" horiz-adv-x="901" />
<glyph unicode="&#x2003;" horiz-adv-x="1802" />
<glyph unicode="&#x2004;" horiz-adv-x="600" />
<glyph unicode="&#x2005;" horiz-adv-x="450" />
<glyph unicode="&#x2006;" horiz-adv-x="300" />
<glyph unicode="&#x2007;" horiz-adv-x="300" />
<glyph unicode="&#x2008;" horiz-adv-x="225" />
<glyph unicode="&#x2009;" horiz-adv-x="360" />
<glyph unicode="&#x200a;" horiz-adv-x="100" />
<glyph unicode="&#x2010;" horiz-adv-x="675" d="M100 500v301h475v-301h-475z" />
<glyph unicode="&#x2011;" horiz-adv-x="675" d="M100 500v301h475v-301h-475z" />
<glyph unicode="&#x2012;" horiz-adv-x="675" d="M100 500v301h475v-301h-475z" />
<glyph unicode="&#x2013;" />
<glyph unicode="&#x2014;" />
<glyph unicode="&#x2018;" horiz-adv-x="400" d="M100 899v398h200v-398h-200z" />
<glyph unicode="&#x2019;" horiz-adv-x="400" d="M100 899v398h200v-398h-200z" />
<glyph unicode="&#x201a;" />
<glyph unicode="&#x201c;" horiz-adv-x="700" d="M100 899v398h200v-398h-200zM399 1299h201v-398h-200z" />
<glyph unicode="&#x201d;" horiz-adv-x="700" d="M100 899v398h200v-398h-200zM399 1299h201v-398h-200z" />
<glyph unicode="&#x201e;" />
<glyph unicode="&#x2022;" />
<glyph unicode="&#x2026;" />
<glyph unicode="&#x202f;" horiz-adv-x="360" />
<glyph unicode="&#x2039;" />
<glyph unicode="&#x203a;" />
<glyph unicode="&#x205f;" horiz-adv-x="450" />
<glyph unicode="&#x20ac;" horiz-adv-x="1199" d="M100 1h999v348h-299v-49h-399v700h399v-51h299v350l-999 -1v-1297zM447 491l395 164l56 -135l-395 -164zM447 727l395 164l56 -135l-395 -164z" />
<glyph unicode="&#x2122;" />
<glyph unicode="&#xe000;" horiz-adv-x="1300" d="M0 1300h1300v-1300h-1300v1300z" />
<glyph unicode="&#xf001;" />
<glyph unicode="&#xfb01;" />
<glyph unicode="&#xf002;" />
<glyph unicode="&#xfb02;" />
<glyph unicode="&#xfb03;" horiz-adv-x="3001" d="M2494 1h54h353l-2 299h-50v700h44v299l-394 -1l-1 -297l50 1v-701h-54v-300zM1241 1h54h353l-2 299h-50v201h399v299h-399v200h399v-51h299v350l-1048 -1l-1 -297l50 1v-701h-54v-300zM44 1h54h353l-2 299h-50v201h399v299h-399v200h399v-51h299v350l-1048 -1l-1 -297 l50 1v-701h-54v-300z" />
<glyph unicode="&#xfb04;" horiz-adv-x="3594" d="M2441 999h54v-700h-50l1 -297l1048 -1v350h-299v-51h-399v700h50l2 299h-353h-54v-300zM1241 1h54h353l-2 299h-50v201h399v299h-399v200h399v-51h299v350l-1048 -1l-1 -297l50 1v-701h-54v-300zM44 1h54h353l-2 299h-50v201h399v299h-399v200h399v-51h299v350l-1048 -1 l-1 -297l50 1v-701h-54v-300z" />
</font>
</defs>
</svg>
