<?xml version="1.0" standalone="no"?>
<!DOCTYPE svg PUBLIC "-//W3C//DTD SVG 1.1//EN" "http://www.w3.org/Graphics/SVG/1.1/DTD/svg11.dtd" >
<svg xmlns="http://www.w3.org/2000/svg">
<metadata>
This is a custom SVG webfont generated by Font Squirrel.
Copyright   : Copyright c 2010 Friedrich Althausen httpfriedrichalthausende All rights reservedThis Font Software is licensed under the SIL Open Font License Version 11This license is available with a FAQ at httpscriptssilorgOFL
Designer    : Friedrich Althausen
Foundry     : Friedrich Althausen
Foundry URL : httpfriedrichalthausende
</metadata>
<defs>
<font id="webfontJV84zI5j" horiz-adv-x="1105" >
<font-face units-per-em="2048" ascent="1536" descent="-512" />
<missing-glyph horiz-adv-x="409" />
<glyph unicode=" "  horiz-adv-x="409" />
<glyph unicode="&#x09;" horiz-adv-x="409" />
<glyph unicode="&#xa0;" horiz-adv-x="409" />
<glyph unicode="!" horiz-adv-x="841" d="M207 1382q41 2 88 11.5t93 21.5t88 25.5t77 27.5q43 -10 56.5 -47t0.5 -121q-10 -72 -20 -165l-22 -201q-11 -106 -21 -217l-19 -215q-55 0 -110.5 3t-98.5 23q-20 217 -47.5 430t-64.5 424zM211 190q0 96 63.5 149.5t159.5 53.5q45 0 83 -16.5t63.5 -43t40 -61 t14.5 -71.5q0 -88 -54.5 -152.5t-158.5 -64.5q-98 0 -154.5 55t-56.5 151z" />
<glyph unicode="&#x22;" horiz-adv-x="843" d="M123 1409q63 8 111.5 20.5t101.5 38.5q29 -6 44 -34.5t15 -51.5q0 -12 -1 -27.5t-3 -23.5q-16 -96 -30.5 -216t-30.5 -271q-16 0 -39 2t-44.5 5t-39 8t-25.5 11q-6 137 -18 273.5t-41 265.5zM463 1409q53 8 102 22.5t92 36.5q31 -6 47.5 -32.5t16.5 -61.5v-14 q0 -8 -4 -31q-8 -49 -14.5 -99t-11.5 -108.5t-10 -127t-13 -152.5q-53 0 -87 4t-67 18q-10 139 -19 277.5t-32 267.5z" />
<glyph unicode="#" horiz-adv-x="1449" d="M111 369q0 53 5 101t25 89h213l60 322h-60q-84 0 -151 -2q0 55 6 97t27 93h213l73 399q53 0 103.5 -14t66.5 -37l-63 -348h286l74 399q51 0 103.5 -15t66.5 -32l-65 -352h213q0 -53 -6.5 -98t-22.5 -86h-217l-60 -326h236q0 -47 -6 -91t-25 -91h-192h-45l-72 -395 q-53 0 -101 12t-71 35l63 348q-168 0 -286 -2l-72 -393q-43 0 -93 15t-77 40l62 338q-133 -2 -211 -6zM535 559h286l60 326h-88q-109 0 -199 -2z" />
<glyph unicode="$" horiz-adv-x="1118" d="M74 94q20 84 26 181.5t6 181.5q47 16 104.5 20t100.5 4q2 -76 11.5 -137t32 -104t63.5 -68q14 -6 31 -12v350l-48 25q-80 39 -150.5 98t-116.5 148t-46 227q0 98 38 171.5t102.5 123t150.5 73.5q45 14 94 21v145q45 0 91 -7t87 -26q0 -43 -2 -110q70 -4 129 -19 q94 -23 148 -53q0 -92 5 -180t13 -141q-43 -25 -96 -33t-105 -8q-12 84 -30.5 137t-42.5 84q-10 12 -23 22v-202v-125l72 -31q88 -37 162.5 -92.5t125 -137t50.5 -204.5q0 -98 -40 -178t-111.5 -137.5t-170.5 -88.5q-51 -16 -110 -24q2 -90 2 -158q-39 0 -95.5 8t-82.5 25 v121q-35 2 -66 4q-59 6 -109.5 19t-97.5 34.5t-102 52.5zM381 1114q0 -66 49 -108l43 -33v256q-27 -6 -47 -21q-45 -28 -45 -94zM623 166q25 10 43 24q51 43 51 99q0 61 -47 100q-20 18 -47 35v-33v-225z" />
<glyph unicode="%" horiz-adv-x="1708" d="M172 1049q0 66 22.5 127t66.5 108t109.5 74.5t153.5 27.5q78 0 136.5 -27.5t98.5 -71.5t59.5 -99t19.5 -111q0 -70 -21.5 -131t-64.5 -108t-105.5 -75t-142.5 -28q-84 0 -145.5 26.5t-103.5 72t-62.5 101t-20.5 114.5zM256 61l1112 1344q43 0 91 -14.5t77 -44.5 l-1124 -1360q-59 -4 -97.5 21t-58.5 54zM414 1073q0 -80 26.5 -132t73.5 -52q29 0 56.5 40t27.5 124q0 82 -27.5 133t-68.5 51q-37 0 -62.5 -46t-25.5 -118zM930 297q0 68 22.5 129t66.5 108.5t109.5 75t153.5 27.5q78 0 136.5 -27.5t97 -71.5t58 -100.5t19.5 -111.5 q0 -70 -21.5 -132.5t-64.5 -109.5t-105.5 -74.5t-141.5 -27.5q-84 0 -145.5 26.5t-102.5 71.5t-61.5 101.5t-20.5 115.5zM1171 319q0 -78 27 -130t74 -52q29 0 55.5 40t26.5 124q0 78 -27 129t-70 51q-37 0 -61.5 -46t-24.5 -116z" />
<glyph unicode="&#x26;" horiz-adv-x="1646" d="M109 379q0 182 90 289q86 102 239 170q-31 53 -51 96q-29 61 -40 112.5t-11 102.5q0 68 24.5 126t83 101t155.5 67.5t245 24.5q125 0 217 -13t184 -46q-16 -63 -19 -149t3 -181q-104 -25 -234 -24q-10 129 -48 192.5t-130 63.5q-41 0 -67.5 -31t-26.5 -84q0 -39 8 -77 t29.5 -84t59.5 -102t95 -132l207 -269q4 -4 6 -8q4 8 9 15q31 63 45 123q16 70 -7.5 100.5t-101.5 46.5q-12 37 -16 67.5t-4 67.5q25 -2 57 -3l67 -2q34 -1 66 -1h60q51 0 106 1t107 5q0 -35 -3.5 -66.5t-13.5 -68.5q-37 -10 -61.5 -22.5t-41 -30t-27.5 -42t-23 -59.5 q-27 -72 -64 -153q-18 -45 -47 -103l70 -71q33 -35 58.5 -57.5t50 -35t53 -17.5t69.5 -7q0 -43 -7 -97.5t-22 -93.5q-41 0 -91 -3t-103 -8t-106.5 -12t-100.5 -15l-98 127q-8 -8 -19 -17q-49 -37 -104.5 -62.5t-121 -37.5t-147.5 -12q-258 0 -382.5 105.5t-124.5 293.5z M506 485q0 -90 18.5 -154.5t50 -105.5t73.5 -60.5t87 -19.5q66 0 117 33q31 20 59 51l-65 80l-127 156l-131 164l-39 47q-4 -4 -8 -10q-12 -16 -19.5 -40t-11.5 -58t-4 -83z" />
<glyph unicode="'" horiz-adv-x="518" d="M123 1407q66 6 120 23.5t87 37.5q66 -16 65 -98q0 -10 -1 -18.5t-3 -18.5q-18 -98 -29.5 -221t-21.5 -270q-41 0 -82 7t-76 23q-4 137 -20 277.5t-39 257.5z" />
<glyph unicode="(" horiz-adv-x="722" d="M72 492q0 168 29.5 311t84 268t129 234.5t166.5 212.5q76 0 133 -45q-59 -96 -104 -192.5t-73.5 -206t-43 -238.5t-14.5 -291q0 -354 70.5 -621.5t177.5 -447.5q-53 -31 -135 -31q-80 84 -156 196.5t-134.5 247t-94 287t-35.5 316.5z" />
<glyph unicode=")" horiz-adv-x="714" d="M80 -524q68 113 115 221t76.5 229t43 261.5t13.5 312.5q0 164 -14.5 300t-44 253.5t-73.5 220t-104 199.5q57 45 133 45q92 -102 167 -211t129 -229t84 -251t30 -274q0 -186 -36 -351t-94.5 -305.5t-134 -254t-155.5 -197.5q-84 0 -135 31z" />
<glyph unicode="*" horiz-adv-x="1040" d="M123 1071q20 66 56 130.5t87 111.5q53 -66 97.5 -115t111.5 -113q0 80 -4 154t-14 158q72 0 147.5 -15.5t134.5 -46.5q-25 -35 -44 -66l-38 -63l-35.5 -63.5t-35.5 -71.5l78 26q35 11 67 24l69 28q36 14 79 35q29 -74 35 -145.5t-5 -157.5q-49 14 -88 24l-74.5 18.5 t-72.5 15.5t-80 13l103 -116l112 -119q-59 -47 -133 -82t-152 -41q-4 86 -10 157.5t-22 157.5q-47 -66 -85 -126l-85 -138q-63 45 -108.5 96.5t-72.5 122.5l143 63q65 30 134 68q-72 27 -137.5 42.5t-157.5 33.5z" />
<glyph unicode="+" horiz-adv-x="1183" d="M88 442q0 53 3 93t24 94h383v121q0 55 -1 116.5t-1 141.5q41 16 78.5 21t105.5 5v-405h414q0 -53 -3.5 -96.5t-23.5 -88.5q-80 0 -142.5 1t-119.5 1h-125v-413q-25 -16 -80 -21.5t-106 -5.5q2 57 3 111.5t1 113.5v215h-78q-61 0 -116 -1l-105 -2q-52 -1 -111 -1z" />
<glyph unicode="," horiz-adv-x="647" d="M123 27q0 35 1 62.5t4 55t10 55t18 62.5q82 4 146.5 19.5t111.5 46.5q59 -16 84.5 -60.5t25.5 -154.5q0 -129 -61.5 -262.5t-167.5 -233.5q-51 4 -95 19.5t-69 35.5q137 156 137 256q0 39 -37.5 64t-107.5 35z" />
<glyph unicode="-" horiz-adv-x="858" d="M123 453q0 43 8 103t27 112h577q0 -39 -5 -92.5t-21 -106.5q-129 0 -278.5 -2t-307.5 -14z" />
<glyph unicode="." horiz-adv-x="669" d="M123 190q0 96 63.5 149.5t159.5 53.5q45 0 83 -16.5t63.5 -43t40 -61t14.5 -71.5q0 -88 -54.5 -152.5t-158.5 -64.5q-98 0 -154.5 55t-56.5 151z" />
<glyph unicode="/" horiz-adv-x="821" d="M59 16l543 1452q47 0 91 -12t79 -33l-534 -1441q-122 -1 -179 34z" />
<glyph unicode="0" horiz-adv-x="1288" d="M61 522q0 129 48.5 226.5t129 161t188.5 95t224 31.5q129 0 235.5 -33.5t182.5 -99t117 -162t41 -219.5q0 -129 -44 -229t-122 -170t-183.5 -105.5t-226.5 -35.5q-127 0 -234.5 35.5t-186 104t-124 170t-45.5 230.5zM444 584q0 -72 15.5 -149t46.5 -141.5t74 -105.5 t98 -41q39 0 69.5 26t50 69t30 99t10.5 118q0 70 -15.5 144.5t-44 137t-69.5 102.5t-95 40q-37 0 -68.5 -26t-54 -66.5t-35 -95t-12.5 -111.5z" />
<glyph unicode="1" horiz-adv-x="847" d="M72 -6q0 45 4 88t12 72q45 6 73.5 16t43 33.5t19.5 65.5t5 114v268q0 70 -6 112t-21.5 65.5t-43 31.5t-70.5 10q-10 37 -13 75t-3 85q25 -2 73 -3l103 -2q53 -1 102 -1h156q49 0 101 1t98.5 2t70.5 3q0 -45 -3 -84t-13 -76q-43 -2 -70.5 -10t-43 -31.5t-22 -65.5 t-6.5 -112v-264q0 -76 5.5 -121t20.5 -69.5t43 -32.5t73 -10q10 -37 13 -77t3 -83q-31 2 -82 3l-105 2q-54 1 -102 1h-141q-47 0 -99 -1l-101 -2q-47 -1 -74 -3z" />
<glyph unicode="2" horiz-adv-x="1032" d="M61 199q55 55 121 110l162 135q68 57 110 98.5t65.5 76t31.5 65.5t8 66q0 55 -30.5 91t-94.5 36q-31 0 -53.5 -12.5t-38.5 -41t-27.5 -76t-17.5 -118.5q-68 0 -113 8t-88 22q2 27 4 64t2 75t-3 74.5t-9 65.5q90 47 197.5 72.5t273.5 25.5q207 0 299 -65.5t92 -175.5 q0 -51 -16 -93.5t-52 -83t-93.5 -83.5t-141.5 -97l-125 -80l-45 -30h117q57 0 91 3t52.5 14t26.5 31.5t14 55.5q47 0 98.5 -4t79.5 -14q0 -94 5.5 -183.5t17.5 -146.5q-14 -43 -47 -65.5t-80 -22.5q-31 0 -75 1t-94 2t-105 1h-109q-109 0 -204 -1t-154 -3q-52 78 -52 203z " />
<glyph unicode="3" horiz-adv-x="1052" d="M31 -270q4 39 22.5 76.5t48.5 66.5q51 -33 101.5 -44t109.5 -11q45 0 95.5 13t92.5 41t69.5 73t27.5 106q0 72 -37 116t-112 44q-29 0 -41.5 -1t-30.5 -7q-27 29 -40 69.5t-9 81.5l146 180q67 83 124 162h-149q-43 0 -73 -5t-51.5 -22.5t-38 -48t-34.5 -81.5q-47 0 -95 8 t-81 33q8 57 13 110t8 106.5t3 110.5v125q35 -2 85.5 -3t106.5 -2l117 -2q60 -1 113 -1q51 0 109 1l111 2q54 1 100.5 2t75.5 3q23 -35 36 -78t9 -90l-167 -216l-165 -222q360 -18 360 -328q0 -96 -43 -179t-125 -142.5t-202.5 -93t-274.5 -33.5q-113 0 -192.5 22.5 t-122.5 57.5z" />
<glyph unicode="4" horiz-adv-x="1259" d="M31 262l70 72l64 67l66 76l78 94l213 255q109 124 193 210q150 6 289 -12v-694h104q43 0 70.5 -13.5t50.5 -50.5q-16 -39 -25.5 -69.5t-14.5 -59t-7 -61.5t-2 -76h-176v-291q-100 0 -178 -14t-158 -45q-29 23 -41.5 50.5t-12.5 80.5v219h-59q-109 0 -216.5 -2t-236.5 -12 q-33 63 -52 132.5t-19 143.5zM319 328h295v381z" />
<glyph unicode="5" horiz-adv-x="985" d="M61 -303q0 43 9.5 79t31.5 64q18 -10 55.5 -17t114.5 -7q119 0 194 56t75 155q0 43 -16.5 78.5t-60.5 67.5t-121 59.5t-198 50.5q-29 33 -44 65.5t-21 73.5l127 612q51 -4 94 -5t89 -3t104 -2h137q47 0 72.5 29.5t25.5 83.5q37 12 86 14t90 2q-10 -88 -12 -190.5 t-2 -198.5q-23 -61 -105 -62q-166 0 -286.5 -1t-202.5 -7l-23 -108q190 -29 317.5 -72t203 -104.5t107.5 -140.5t32 -177q0 -117 -51.5 -201t-135 -137t-190 -78.5t-217.5 -25.5t-174.5 12t-104.5 35z" />
<glyph unicode="6" horiz-adv-x="1204" d="M72 492q0 152 41 270.5t108.5 208.5t155.5 152.5t183 101.5t189.5 58.5t174.5 23.5q20 -23 28.5 -63t3.5 -87q-145 -31 -240 -89t-153 -142q-47 -72 -71 -160l32 12q94 31 197 31q203 0 312.5 -102.5t109.5 -272.5q0 -133 -51.5 -221t-129 -139t-172 -71.5t-182.5 -20.5 q-123 0 -222 26.5t-169 87t-107.5 158t-37.5 238.5zM461 494q0 -166 44 -253t113 -87q63 0 98.5 59t35.5 166q0 123 -54.5 193.5t-132.5 70.5q-23 0 -49 -6q-25 -4 -49 -12q-6 -63 -6 -131z" />
<glyph unicode="7" horiz-adv-x="966" d="M41 580q8 39 15 91t11.5 112.5t6.5 123t2 121.5q49 -2 155.5 -3t229.5 -1h125q66 0 124 1t102 2t67 1q25 -29 36 -77t11 -89l-80 -121l-73 -118q-34 -57 -57.5 -105.5t-33.5 -81.5q-16 -51 -29.5 -100t-24 -119t-15.5 -173t-5 -263q-82 -18 -168 -56t-151 -85 q-29 4 -49.5 33.5t-20.5 107.5q0 37 4 81t13.5 90t21.5 91t31 84q18 43 55 109.5t85 143.5l101 160q53 83 107 156h-160q-55 0 -93 -6t-63.5 -22.5t-42 -46t-30.5 -76.5q-66 0 -110 4t-97 31z" />
<glyph unicode="8" horiz-adv-x="1196" d="M82 330q0 55 15.5 109.5t51 102.5t93.5 89q12 8 26 16q-57 39 -98 88q-76 86 -76 203q0 166 128 266.5t376 100.5q102 0 187 -17.5t146.5 -52.5t96.5 -85t35 -118q0 -63 -33 -118.5t-86 -98.5q-41 -31 -90 -53q92 -57 150 -117q100 -106 100 -258q0 -213 -135 -309 t-383 -96q-141 0 -238.5 22.5t-156 67.5t-84 109.5t-25.5 148.5zM473 379q0 -104 40 -171t105 -67q47 0 72 35t25 90q0 37 -13.5 76t-52.5 80t-106 84q-23 14 -51 29l-3 -7q-16 -65 -16 -149zM481 1055q0 -31 9.5 -55.5t34 -49t65.5 -49.5q29 -18 69 -39q35 53 35 144 q0 72 -32.5 115.5t-88.5 43.5q-43 0 -67.5 -29.5t-24.5 -80.5z" />
<glyph unicode="9" horiz-adv-x="1193" d="M61 580q0 137 50.5 225t129 139t173 71.5t182.5 20.5q123 0 222.5 -26.5t169 -87t107.5 -158.5t38 -240q0 -154 -44.5 -276.5t-119 -219t-169.5 -165t-197.5 -114.5t-204 -68.5t-185.5 -26.5q-18 23 -27.5 62.5t-5.5 86.5q150 31 257.5 94.5t174.5 151.5q61 80 93 178 l-25 -8q-94 -31 -197 -31q-100 0 -179 30t-132 82t-82 124t-29 156zM453 639q0 -61 14 -112.5t39.5 -90.5t59.5 -60.5t73 -21.5q23 0 49 4q25 4 47 13q8 57 8 116q0 195 -44 286t-113 91q-63 0 -98 -59.5t-35 -165.5z" />
<glyph unicode=":" horiz-adv-x="669" d="M123 190q0 96 63.5 149.5t159.5 53.5q45 0 83 -16.5t63.5 -43t40 -61t14.5 -71.5q0 -88 -54.5 -152.5t-158.5 -64.5q-98 0 -154.5 55t-56.5 151zM123 753q0 96 63.5 149.5t159.5 53.5q45 0 83 -16.5t63.5 -43t40 -61t14.5 -71.5q0 -88 -54.5 -152.5t-158.5 -64.5 q-98 0 -154.5 55t-56.5 151z" />
<glyph unicode=";" horiz-adv-x="669" d="M123 753q0 96 63.5 149.5t159.5 53.5q45 0 83 -16.5t63.5 -43t40 -61t14.5 -71.5q0 -88 -54.5 -152.5t-158.5 -64.5q-98 0 -154.5 55t-56.5 151zM137 27q0 35 1 62.5t4 55t10 55t18 62.5q82 4 146.5 19.5t111.5 46.5q59 -16 84.5 -60.5t25.5 -154.5q0 -129 -61.5 -262.5 t-167.5 -233.5q-51 4 -95 19.5t-69 35.5q137 156 137 256q0 39 -37.5 64t-107.5 35z" />
<glyph unicode="&#x3c;" horiz-adv-x="1019" d="M125 459q-4 43 5 86t38 82l614 493q102 -18 179 -96l-617 -487l551 -392q6 -29 7 -59.5t-2 -61t-11 -57t-21 -43.5l-399 296q-188 137 -344 239z" />
<glyph unicode="=" d="M84 240q0 47 6 95t23 87h901q0 -47 -6.5 -93t-22.5 -87q-61 0 -110.5 1t-96.5 1h-342q-55 0 -110 -1l-114 -2q-58 -1 -128 -1zM90 618q0 57 6 99.5t23 83.5h897q0 -51 -4 -93t-25 -87q-61 0 -109.5 1t-95.5 1h-342q-55 0 -110 -1l-113 -2q-57 -2 -127 -2z" />
<glyph unicode="&#x3e;" horiz-adv-x="1007" d="M37 1051q33 33 80 52t102 23l631 -501q20 -41 25.5 -88.5t1.5 -87.5l-199 -137l-171 -122l-170 -122l-192 -144q-35 43 -46 96.5t-1 98.5l586 416z" />
<glyph unicode="?" horiz-adv-x="1099" d="M221 1083q6 74 7 151t-7 142q72 35 177.5 63.5t246.5 28.5q199 0 291 -66.5t92 -182.5q0 -74 -24.5 -126.5t-61.5 -92t-81 -73.5t-81 -71t-61.5 -82t-24.5 -108q0 -47 7.5 -85t23.5 -85q-35 -18 -87 -28.5t-97 -10.5q-51 31 -87 105.5t-36 156.5q0 94 34.5 150.5 t75.5 99.5t76 88t35 119t-27.5 104.5t-64.5 30.5q-20 0 -37.5 -11.5t-32 -42t-27 -84t-20.5 -137.5q-68 0 -116 11t-93 36zM410 190q0 96 63.5 149.5t159.5 53.5q45 0 83 -16.5t63.5 -43t40 -61t14.5 -71.5q0 -88 -54.5 -152.5t-158.5 -64.5q-98 0 -154.5 55t-56.5 151z" />
<glyph unicode="@" horiz-adv-x="2050" d="M162 467q0 184 62.5 345t183 280.5t296 189.5t400.5 70q201 0 347 -51.5t242.5 -139.5t143.5 -209t47 -258q0 -164 -38 -295t-107.5 -224t-170 -143t-225.5 -50q-84 0 -139 53t-55 147v6l-8 -12q-55 -92 -137 -143t-191 -51q-158 0 -230.5 111.5t-72.5 326.5 q0 119 36 218t95 170t137 109.5t162 38.5q66 0 121 -6q53 -4 121 -18q92 0 161 4q78 6 125 20q18 -10 29.5 -22t19 -32.5t9.5 -54.5t2 -87v-293q0 -84 3 -134t10 -77t18.5 -35t27.5 -8q18 0 39 21.5t39 70.5t29.5 129t11.5 197q0 115 -34 218t-109.5 181t-196.5 124t-295 46 q-178 0 -312 -56.5t-223.5 -154.5t-134.5 -229t-45 -281q0 -145 41 -277t129 -233.5t226.5 -162t334.5 -60.5q168 0 316.5 51t257.5 162q35 -12 59.5 -38.5t40.5 -59.5q-49 -66 -122.5 -117t-165 -86t-197 -53.5t-215.5 -18.5q-233 0 -403.5 65.5t-281 183.5t-162.5 280 t-52 352zM899 498q0 -160 23.5 -227.5t66.5 -67.5q68 0 111 119q33 94 51 251l4 179v4q-25 18 -49 28q-37 14 -72 15q-37 0 -63.5 -10.5t-42 -43t-22.5 -91t-7 -156.5z" />
<glyph unicode="A" horiz-adv-x="1468" d="M20 -6q0 47 4.5 84t16.5 76q25 4 44 15t37.5 33.5t38 60.5t44.5 97l434 1024q41 10 75 11.5t81 1.5l454 -998q37 -80 61.5 -127t44 -72.5t37 -34.5t40.5 -11q8 -27 12 -69t4 -91q-31 2 -76 3l-91 2q-46 1 -89 1h-139q-47 0 -102 -1l-105 -2q-51 -1 -80 -3q0 57 4 93 t12 67q68 16 81 51q4 11 4 24q0 32 -21 80l-15 31q-119 -2 -241 -6q-111 -4 -225 -15l-3 -8q-10 -23 -11 -48t8.5 -47.5t29 -39t51.5 -22.5q8 -33 12.5 -72t4.5 -88q-18 2 -48 3t-64 2t-69 1h-59q-51 0 -108.5 -1t-88.5 -5zM424 473h348l-76 174q-55 123 -88 232l-16 51 l-17 -53q-33 -106 -81 -230z" />
<glyph unicode="B" horiz-adv-x="1460" d="M61 -6q0 45 4.5 88t12.5 72q41 2 67.5 12t42 34.5t20.5 67.5t5 115v623q0 70 -5 110.5t-20.5 64t-42 34t-69.5 16.5q-8 31 -11.5 78t-3.5 82q39 -4 103.5 -5.5t118.5 -1.5q41 0 102 1t128 1t130.5 1.5t108.5 1.5q166 0 275.5 -20.5t176 -60.5t94 -99.5t27.5 -137.5 q0 -119 -83 -205t-243 -108q109 -6 185 -34t124 -74t69.5 -110.5t21.5 -142.5q0 -90 -35 -162.5t-111.5 -125t-199.5 -81t-301 -28.5q-182 0 -356.5 -1t-334.5 -5zM623 365q0 -68 11 -110t30.5 -65.5t45 -30.5t54.5 -7q76 0 130 57t54 166q0 143 -69.5 197.5t-204.5 54.5 h-51v-262zM623 797h73q100 0 159.5 54t59.5 165q0 100 -55 157.5t-141 57.5q-39 0 -68 -8q-14 -4 -28 -13v-413z" />
<glyph unicode="C" horiz-adv-x="1298" d="M72 700q0 174 59 305.5t155.5 219.5t221.5 133t258 45q125 0 238.5 -27.5t222.5 -79.5q-12 -72 -17.5 -151.5t-5.5 -165.5q-14 -8 -38.5 -13t-53.5 -8.5t-57.5 -5.5t-53.5 -2q-2 88 -18 144.5t-47 90.5t-72 47t-92 13q-76 0 -129 -41t-87 -110.5t-49 -158.5t-15 -183 q0 -123 23.5 -228.5t69.5 -183.5t114.5 -122t158.5 -44q88 0 181.5 24.5t160.5 61.5q23 -20 37 -50t20 -63q-37 -33 -87 -62.5t-110.5 -53t-130 -36.5t-143.5 -13q-166 0 -298 52t-224 147t-142 227t-50 292z" />
<glyph unicode="D" horiz-adv-x="1513" d="M61 -6q0 45 4.5 88t12.5 72q41 2 67.5 12t42 34.5t20.5 67.5t5 115v623q0 70 -5 110.5t-20.5 64t-42 34t-69.5 16.5q-8 31 -11.5 78t-3.5 82q33 -2 78 -3.5t96.5 -2.5t106.5 -1h109q49 0 110.5 2.5t143.5 2.5q150 0 283.5 -25t234 -97.5t160 -201.5t59.5 -338 q0 -166 -41 -284.5t-107.5 -198.5t-149.5 -129t-166 -74t-158 -33t-126 -8q-53 0 -145 -1l-190 -2q-97 -1 -180 -2t-118 -1zM623 393q0 -72 7 -118t25.5 -72.5t49 -37.5t77.5 -11q23 0 65 14t82 68.5t69.5 161t29.5 292.5q0 164 -26.5 269.5t-71.5 167t-103.5 85 t-121.5 23.5q-45 0 -82 -16v-826z" />
<glyph unicode="E" horiz-adv-x="1323" d="M61 -6q0 45 4.5 88t12.5 72q41 2 67.5 12t42 34.5t20.5 67.5t5 115v623q0 70 -5 110.5t-20.5 64t-42 34t-69.5 16.5q-8 31 -11.5 78t-3.5 82q45 -2 114 -3.5t144.5 -2.5t149.5 -1h334q88 0 154.5 1t117.5 2.5t94 3.5q0 -39 3.5 -87.5t9.5 -98.5t13 -96t17 -83 q-41 -16 -88 -26.5t-118 -10.5q-10 55 -26.5 100.5t-48.5 76t-82 48t-126 17.5h-100v-465q51 0 82.5 8t50 24.5t27 44t8.5 68.5q35 14 84 19.5t96 5.5q-4 -49 -6 -105.5t-2 -134.5q0 -86 2 -142t6 -101q-57 0 -99.5 4t-76.5 16q-8 84 -44 111.5t-128 27.5v-219q0 -72 7 -118 t25.5 -72.5t49 -37.5t77.5 -11h35q104 0 164.5 65.5t101.5 212.5q68 -6 125.5 -25.5t83.5 -44.5q-23 -72 -39 -169t-24 -197q-45 0 -110.5 1t-138.5 2t-149 1h-137q-53 0 -145 -1l-190 -2q-97 -1 -180 -2t-118 -1z" />
<glyph unicode="F" horiz-adv-x="1243" d="M61 -6q0 55 3.5 93t11.5 67q41 2 67.5 12t42 34.5t21.5 67.5t6 115v623q0 70 -5 110.5t-18.5 64t-40 34t-69.5 16.5q-8 31 -13.5 70.5t-5.5 89.5q45 -2 115 -3.5t146.5 -2.5t150.5 -1h330q88 0 154.5 1t117.5 2.5t94 3.5q0 -39 3.5 -87.5t9.5 -98.5t13 -96t17 -83 q-41 -16 -88 -26.5t-118 -10.5q-10 55 -26.5 100.5t-48.5 76t-82 48t-126 17.5h-100v-537h22q100 0 132 33t34 113q35 14 84 19t96 5q-4 -49 -6 -105.5t-2 -133.5q0 -86 2 -142.5t6 -101.5q-57 0 -99 4t-77 16q-8 84 -44 112t-126 28h-22v-138q0 -66 10 -111.5t36.5 -74.5 t68.5 -44t108 -19q12 -35 15 -78t3 -82q-29 2 -75 3t-100 2t-109 1h-220q-57 0 -112 -1t-103.5 -2t-83.5 -3z" />
<glyph unicode="G" horiz-adv-x="1411" d="M72 702q0 174 58 306.5t158.5 219.5t230.5 131t276 44q133 0 258 -33t215 -74q-12 -72 -17.5 -151.5t-5.5 -165.5q-45 -23 -100 -26t-103 -3q-8 162 -74.5 227.5t-185.5 65.5q-82 0 -138 -42t-91 -110.5t-50.5 -156.5t-15.5 -182q0 -133 22.5 -245t65.5 -191.5 t103.5 -125t134.5 -45.5q27 0 41 2.5t27 6.5q29 10 46 38.5t17 108.5v70q0 45 -6 73.5t-21.5 46t-44 24.5t-71.5 9q-12 63 -13 158q59 -4 136 -5t145 -1h143q82 0 148 4q0 -41 -2 -80t-10 -76q-53 -4 -64.5 -28.5t-11.5 -92.5v-49q0 -41 2 -69.5t6 -52t10 -45t17 -46.5 q-94 -70 -229.5 -114.5t-291.5 -44.5q-166 0 -298 52t-224 147t-142 228t-50 293z" />
<glyph unicode="H" horiz-adv-x="1642" d="M61 -6q0 37 6.5 84t14.5 76q41 2 66.5 12t40 34.5t19.5 67.5t5 115v623q0 70 -5 110.5t-18.5 64t-40 34t-69.5 16.5q-8 31 -13.5 75t-5.5 85q25 -2 72 -3.5t100.5 -2.5t104.5 -1h174q47 0 95 1l92 3q44 1 75 3q0 -41 -2 -80t-16 -80q-43 -4 -68.5 -14.5t-40 -34 t-19.5 -65.5t-5 -111v-213h397v213q0 70 -5 110.5t-18.5 64t-40 34t-69.5 16.5q-8 31 -13.5 75t-5.5 85q25 -2 72 -3.5t100.5 -2.5t104.5 -1h174q47 0 95 1l92 3q44 1 75 3q0 -41 -2 -80t-16 -80q-43 -4 -69 -14.5t-40 -34t-19 -65.5t-5 -111v-623q0 -72 5 -115t20 -67.5 t42 -34.5t68 -12q8 -29 12 -74t4 -86q-47 4 -133 5t-193 1q-106 0 -210.5 -1t-176.5 -5q0 37 6.5 84t14.5 76q41 2 66.5 12t40 34.5t19.5 67.5t5 115v260q-47 0 -96 -2q-84 0 -168 -2q-68 -2 -133 -6v-250q0 -72 5 -115t20.5 -67.5t42 -34.5t67.5 -12q8 -29 12 -74t4 -86 q-47 4 -133 5t-192 1t-211 -1t-177 -5z" />
<glyph unicode="I" horiz-adv-x="835" d="M61 -6q0 37 6.5 84t14.5 76q41 2 66.5 12t40 34.5t19.5 67.5t5 115v623q0 70 -5 110.5t-18.5 64t-40 34t-69.5 16.5q-8 31 -13.5 75t-5.5 85q25 -2 72 -3.5t100.5 -2.5t104.5 -1h174q47 0 95 1l92 3q44 1 75 3q0 -41 -2 -80t-16 -80q-43 -4 -68.5 -14.5t-40 -34 t-19.5 -65.5t-5 -111v-623q0 -72 5 -115t20.5 -67.5t42 -34.5t67.5 -12q8 -29 12 -74t4 -86q-47 4 -133 5t-192 1t-211 -1t-177 -5z" />
<glyph unicode="J" horiz-adv-x="835" d="M0 -358q55 37 96 77.5t66.5 95t38 129t12.5 183.5v872q0 72 -5 116t-19.5 67.5t-40 34t-68.5 14.5q-10 31 -14.5 77t-4.5 83q33 -2 77 -3l92 -3q48 -1 96 -1h182q47 0 95 1l92 3q44 1 79 3q0 -47 -4 -86t-14 -74q-47 -4 -74 -16.5t-40 -39t-16 -69.5t-3 -107v-723 q0 -141 -20.5 -258.5t-80 -214t-166 -173t-280.5 -140.5q-37 29 -54.5 68t-21.5 84z" />
<glyph unicode="K" horiz-adv-x="1570" d="M61 -6q0 37 6.5 84t14.5 76q41 2 66.5 12t40 34.5t19.5 67.5t5 115v623q0 70 -5 110.5t-18.5 64t-40 34t-69.5 16.5q-8 31 -13.5 75t-5.5 85q25 -2 72 -3.5t100.5 -2.5t104.5 -1h174q47 0 95 1l92 3q44 1 75 3q0 -41 -2 -80t-16 -80q-43 -4 -68.5 -14.5t-40 -34 t-19.5 -65.5t-5 -111v-238l276 274q47 47 70.5 82t26.5 58.5t-12 35t-42 13.5q-10 35 -14 79t-4 81q39 -4 105.5 -5.5t125.5 -1.5h76q45 0 92 1t87 2.5t58 3.5q0 -35 -6 -83t-16 -77q-78 -4 -147.5 -42t-141.5 -112l-219 -227q98 -121 176 -234q88 -125 168 -256 q68 -109 129.5 -153.5t138.5 -52.5q0 -47 -4 -85t-20 -69q-39 0 -109.5 -1t-149.5 -3t-149.5 -5t-109.5 -9q-92 188 -201 368q-80 135 -184 262v-229q0 -72 5 -115t20.5 -67.5t42 -34.5t67.5 -12q8 -29 12 -74t4 -86q-47 4 -133 5t-192 1t-211 -1t-177 -5z" />
<glyph unicode="L" horiz-adv-x="1312" d="M61 -6q0 45 4.5 88t12.5 72q41 2 67.5 12t42 34.5t20.5 67.5t5 115v623q0 70 -5 110.5t-20.5 64t-42 34t-69.5 16.5q-8 31 -11.5 78t-3.5 82q49 -2 90 -3l80 -3q41 -1 84 -1h189q49 0 98 1l95 3q46 1 77 3q0 -41 -2 -84t-16 -76q-43 -4 -68.5 -14.5t-40 -34t-19.5 -65.5 t-5 -111v-613q0 -72 7 -118t25.5 -72.5t49 -37.5t77.5 -11h35q104 0 164.5 65.5t101.5 212.5q68 -6 125.5 -25.5t83.5 -44.5q-23 -72 -39 -169t-24 -197q-45 0 -110.5 1t-138.5 2t-149 1h-137q-53 0 -145 -1l-190 -2q-97 -1 -180 -2t-118 -1z" />
<glyph unicode="M" horiz-adv-x="2043" d="M20 -6q0 45 3.5 85t13.5 75q39 2 67.5 18t50 55t35 104.5t23.5 164.5l45 499q5 55 5 95q0 13 -1 25q-2 46 -16.5 71.5t-43 35t-71.5 9.5q-10 37 -13 73.5t-3 86.5q23 -2 61 -3l81 -3q42 -1 81 -1h129q41 0 83 1t77 1q37 2 53 5l371 -885l319 885q27 -2 68 -3l83 -3 q42 -1 81 -1h124q39 0 79 1l77 3q37 1 60 3q0 -43 -3.5 -86t-13.5 -74q-47 0 -75.5 -11.5t-43 -39t-16.5 -73.5q-1 -12 -1 -24q0 -39 5 -90l57 -561q8 -92 18.5 -144t28 -80t44 -38t67.5 -14q14 -66 14 -162q-20 2 -70 3t-110.5 2t-122.5 1h-96q-37 0 -84 -1l-92 -2 q-45 -1 -83 -2t-56 -1q0 51 5 87t13 73q47 6 73.5 16t39 36.5t12.5 75t-8 128.5l-62 563l-381 -975q-27 -10 -71.5 -13t-81.5 -3l-432 985l-49 -463q-9 -99 -10 -163v-12q1 -67 16.5 -105t43 -53t70.5 -17q10 -35 13.5 -75t3.5 -85q-31 4 -95.5 5t-129.5 1q-33 0 -71 -1 l-75 -2q-37 -1 -68 -2t-45 -1z" />
<glyph unicode="N" horiz-adv-x="1488" d="M61 0q0 49 3.5 84t13.5 70q47 6 78.5 19t51 45t28 86t8.5 142v689l-29 39q-16 29 -44 40t-93 17q-10 35 -13.5 73.5t-3.5 86.5q20 -2 55.5 -3.5t75 -2.5t78.5 -1h119q33 0 65 1l61 3q30 1 50 3l563 -777v324q0 88 -6 142.5t-25.5 86t-53 45t-89.5 19.5q-10 35 -12 80 t-2 80q20 -2 55 -3.5t74 -2.5t76 -1h63q53 0 117 1t100 6q0 -39 -1 -80t-13 -80q-41 -6 -65.5 -18.5t-39 -43t-19.5 -86t-5 -145.5v-938q-41 -12 -85 -15t-101 -3l-699 944v-480q0 -88 6.5 -142t24.5 -86t50 -45t81 -19q10 -35 12 -77t2 -83q-23 2 -53.5 3t-65 2t-69.5 1 h-59q-27 0 -65 1t-77 1h-71q-34 0 -52 -2z" />
<glyph unicode="O" horiz-adv-x="1558" d="M72 698q0 164 52 294t145 221.5t223.5 140.5t285.5 49q160 0 291 -48t224 -136.5t143.5 -214t50.5 -279.5q0 -166 -50.5 -302t-142.5 -234.5t-223 -152.5t-293 -54q-166 0 -297 52t-222 146t-139 226t-48 292zM492 748q0 -123 18 -234t56 -193.5t96.5 -131t140.5 -48.5 q63 0 112.5 38t83 108.5t51 171t17.5 223.5q0 117 -21.5 220.5t-62.5 180t-99.5 121.5t-131.5 45q-125 0 -192.5 -129.5t-67.5 -371.5z" />
<glyph unicode="P" horiz-adv-x="1357" d="M61 -6q0 55 3.5 93t11.5 67q41 2 67.5 12t42 34.5t21.5 67.5t6 115v623q0 70 -5 110.5t-18.5 64t-40 34t-69.5 16.5q-8 31 -13.5 70.5t-5.5 89.5q98 -4 180.5 -5.5t174.5 -1.5t195.5 2.5t248.5 2.5q127 0 214 -36t141.5 -97.5t78 -142.5t23.5 -171q0 -104 -34 -196.5 t-97.5 -160t-153.5 -106.5t-201 -39q-88 0 -141 21q-4 26 -4 49q0 54 23 98q12 -4 22 -4h23q33 0 63.5 15.5t55 51.5t40 93t15.5 141q0 70 -13.5 128.5t-41 101.5t-68.5 67.5t-94 24.5q-51 0 -88 -15v-809q0 -66 10 -111.5t36.5 -74.5t68.5 -44t108 -19q12 -35 15 -78t3 -82 q-29 2 -75 3t-100 2t-109 1h-220q-57 0 -112 -1t-103.5 -2t-83.5 -3z" />
<glyph unicode="Q" horiz-adv-x="1546" d="M72 698q0 164 52 294t145 221.5t223.5 140.5t285.5 49q160 0 291 -48t224 -136.5t143.5 -214t50.5 -279.5q0 -166 -50.5 -302t-142.5 -234.5t-221 -151.5q29 -8 51 -21q53 -25 97 -52l81 -54q38 -27 80.5 -47.5t97.5 -31.5q40 -8 90 -8q18 0 38 1q1 -11 0 -22 q0 -33 -4 -68q-6 -47 -17 -82q-100 -10 -198.5 -36t-180.5 -65q-53 23 -89 62t-63.5 84t-53 91t-55 87t-69.5 69.5t-100 37.5q-166 0 -297 52t-222 146t-139 226t-48 292zM492 748q0 -123 18 -234t56 -193.5t96.5 -131t140.5 -48.5q63 0 112.5 38t83 108.5t51 171 t17.5 223.5q0 117 -21.5 220.5t-62.5 180t-99.5 121.5t-131.5 45q-125 0 -192.5 -129.5t-67.5 -371.5z" />
<glyph unicode="R" horiz-adv-x="1470" d="M61 -6q0 53 4.5 92t12.5 68q41 2 67.5 12t42 34.5t20.5 67.5t5 115v627q0 70 -5 110.5t-20.5 64t-42 34t-69.5 16.5q-4 14 -7 36.5t-4.5 46t-2.5 44t-1 31.5q61 -4 153.5 -6.5t199.5 -2.5q59 0 175 5.5t249 5.5t229 -31t158.5 -83t92.5 -123t30 -148q0 -104 -29 -183 t-79 -134.5t-118 -86.5q-29 -14 -59 -22q23 -8 39 -19q33 -16 60.5 -49t56 -85t69.5 -134q20 -41 36.5 -65.5t35 -40t39 -22.5t51.5 -9q0 -84 -23 -162q-162 0 -288.5 -4t-180.5 -12l-52 153q-28 82 -60 160l-40.5 97t-36.5 68.5t-42 49.5q-12 10 -27 20h-18h-45h-14v-127 q0 -84 5 -133t17 -74.5t30.5 -32.5t47.5 -9q8 -23 11 -69t3 -91q-29 2 -75 3t-97 2t-100 1h-86q-84 0 -165 -1t-153 -5zM623 717q20 -4 30 -4q16 -2 31 -2q43 0 86 15t76 46t53.5 78t20.5 111q0 133 -57.5 203.5t-153.5 70.5q-45 0 -86 -14v-504z" />
<glyph unicode="S" horiz-adv-x="1095" d="M57 94q16 86 21.5 175t5.5 173q59 16 122.5 20.5t123.5 4.5q6 -96 17 -157.5t35 -96.5t60.5 -49t96.5 -14q76 0 126 37.5t50 101.5q0 61 -46 100t-117 73l-152 73q-81 39 -151.5 98t-116.5 148t-46 227q0 98 38 171.5t102.5 123t151.5 75t185 25.5q133 0 235.5 -22.5 t155.5 -53.5q0 -92 3.5 -181t11.5 -142q-43 -25 -110.5 -34t-119.5 -9q-12 84 -31.5 138t-47 84.5t-62.5 43t-78 12.5q-53 0 -97 -29.5t-44 -95.5t50 -108.5t125 -79.5t163 -75t162.5 -93.5t125 -137t50.5 -204.5q0 -98 -40 -178t-112 -137.5t-169 -88t-214 -30.5 q-80 0 -142.5 6t-114.5 19t-101.5 34.5t-104.5 52.5z" />
<glyph unicode="T" horiz-adv-x="1472" d="M51 999q10 41 19.5 91.5t16.5 102.5t11 103.5t4 94.5q63 -2 126 -3.5t135.5 -2.5t162.5 -1h416q88 0 162 1t139.5 2.5t128.5 3.5q0 -86 13.5 -191.5t35.5 -198.5q-41 -16 -95 -24t-118 -8q-29 137 -78 199.5t-153 62.5h-41v-848q0 -72 8 -115t29.5 -67.5t60.5 -34.5 t103 -12q10 -29 15 -74t5 -86q-57 4 -162.5 5t-236.5 1h-135q-70 0 -133.5 -1t-118 -2t-86.5 -3q0 37 7 84t17 76q63 2 105.5 12t67 34.5t34.5 67.5t10 115v848h-4q-113 0 -170 -64.5t-90 -197.5q-57 0 -112.5 5t-98.5 25z" />
<glyph unicode="U" horiz-adv-x="1406" d="M41 1391q41 -4 118 -5.5t160 -1.5h103q63 0 126.5 1t118 2.5t78.5 3.5q0 -49 -2 -87t-10 -73q-41 -6 -66.5 -17.5t-40 -36t-19.5 -68.5t-5 -114v-471q0 -193 56.5 -285t172.5 -92q47 0 95.5 20.5t81.5 68.5q27 39 42 116.5t15 235.5v368q0 76 -7 126.5t-22.5 81t-42 45 t-63.5 22.5q-12 82 -12 160q20 -2 49.5 -3.5t62.5 -2.5t64 -1h53q59 0 119.5 1t99.5 6q0 -45 -3 -85t-13 -75q-41 -6 -65.5 -19.5t-39 -43t-19.5 -77t-5 -116.5v-408q0 -178 -26 -291.5t-97 -185.5q-63 -59 -153.5 -83.5t-209.5 -24.5q-154 0 -258 28.5t-167.5 90t-90 157.5 t-26.5 231v506q0 72 -6.5 115t-21.5 67.5t-41 36t-67 17.5q-16 70 -16 160z" />
<glyph unicode="V" horiz-adv-x="1447" d="M20 1391q27 -2 73 -3l96 -3q50 -1 96 -1h133q39 0 86 1l98 3q51 1 100 3q0 -59 -4 -97.5t-12 -62.5q-39 -6 -59.5 -18.5t-24.5 -35t6 -58.5t33 -89l71 -160l65 -153q32 -78 61 -164q16 -45 30 -94l37 90l62 168l57 168l61 190q10 32 10 60q0 23 -6 43q-15 43 -81 53 q-8 27 -12.5 63.5t-4.5 96.5q18 -2 47 -3.5t62 -2.5t65 -1h60q51 0 111.5 1t90.5 6q0 -47 -6 -87t-14 -73q-27 -6 -48.5 -17.5t-40 -35t-36.5 -61.5t-39 -93l-187 -504l-200 -520q-35 -14 -88 -16t-100 -2l-222 516q-111 252 -227 489l-58 117q-24 45 -44.5 71.5t-39 39 t-40.5 16.5q-17 56 -17 160z" />
<glyph unicode="W" horiz-adv-x="2017" d="M20 1391q25 -2 73 -3l101 -3q52 -1 99 -1h139q45 0 96 1l102 3q50 1 87 3q0 -43 -3 -83t-14 -77q-47 -6 -73.5 -19.5t-35.5 -39.5q-5 -14 -5 -32q0 -17 4 -37q8 -44 33 -112l84 -252l49 -155l278 800q39 10 85 13.5t87 3.5l104 -252l94 -236l93 -237l45 -119l111 381 q23 78 27 130q1 15 2 28q0 34 -10 58q-13 34 -44 51.5t-80 25.5q-14 35 -17 78t-3 82q20 -2 51 -3.5t64.5 -2.5t66.5 -1h117q31 0 61 1l60 3q29 1 49 3q0 -41 -2 -81t-17 -79q-29 -10 -50 -27.5t-40.5 -49.5t-38 -84t-41.5 -132l-264 -938q-16 -4 -42.5 -8t-57.5 -6 t-62.5 -3t-58.5 -1l-91 240l-89 225l-92 227l-52 125l-276 -803q-20 -4 -49 -7t-58.5 -5t-58.5 -2h-47l-167 528l-146 446l-50.5 142.5t-36 80t-34 36t-41.5 10.5q-10 37 -12.5 79t-2.5 87z" />
<glyph unicode="X" horiz-adv-x="1474" d="M31 -6q0 47 4 91t14 73q45 12 84 29.5t77 47t75 71.5t80 102l167 237l-26 43l-100 159l-103 159q-47 70 -78.5 111.5t-56.5 65t-46.5 32t-49.5 14.5q-12 41 -15.5 79t-3.5 83q27 -2 79 -3.5t113.5 -2.5t123.5 -1h108q94 0 174 1t127 4q0 -39 -3 -78t-11 -80 q-31 -6 -50.5 -15.5t-21.5 -30t14.5 -56t55.5 -93.5l96 -149l76 117q75 117 75 166q0 50 -69 61q-10 35 -12 77t-2 83q25 -2 59 -5l70 -2h67h111q33 0 65 1l64 3q31 1 49 3q0 -45 -2 -84t-12 -76q-47 -12 -80 -25.5t-61.5 -37t-58.5 -61.5t-69 -99l-176 -269q6 -10 15 -22 l83 -133l54 -90q68 -113 112 -178.5t77.5 -99.5t63 -45t68.5 -17q12 -35 15.5 -74t3.5 -86q-23 2 -67 3t-98 2t-112 1h-209q-53 0 -103 -1t-92 -2t-65 -1q0 43 2 80t13 78q35 2 52 12t12 38.5t-33.5 85t-86.5 154.5l-36 62l-70 -103q-49 -72 -72.5 -117.5t-25.5 -72.5 t17 -40t58 -19q10 -39 13.5 -78t3.5 -82q-53 4 -128 5t-132 1h-66q-35 0 -69 -1l-67 -2q-32 -1 -52 -3z" />
<glyph unicode="Y" horiz-adv-x="1269" d="M20 1389q37 -2 84.5 -3.5t94.5 -1.5h336q49 0 96 1t78 4q0 -53 -4.5 -88t-10.5 -70q-33 -4 -47 -17.5t-16 -33t6 -44t20 -51.5q33 -68 74 -170l57 -141q27 72 54 135q39 90 80 174q20 41 19 73q0 15 -4 29q-13 42 -71 46q-10 35 -14 69.5t-4 88.5q55 -4 102 -5h203 q47 0 96 5q0 -53 -5 -91t-13 -67q-18 -4 -33.5 -11.5t-31 -24.5t-35 -50t-46.5 -86l-233 -471v-182q0 -76 7 -123t28.5 -75t61.5 -39t106 -15q14 -43 17 -77t3 -83q-90 4 -205.5 5t-232.5 1t-228.5 -2t-207.5 -4q2 45 6 85t18 75q74 6 117 15t65.5 35.5t28.5 74t6 129.5v190 l-270 512q-37 72 -68.5 94.5t-66.5 26.5q-10 35 -13.5 71t-3.5 87z" />
<glyph unicode="Z" horiz-adv-x="1200" d="M61 139l171 302l152 277l144 273l121 240h-108q-47 0 -82 -12.5t-62.5 -45t-49 -91t-42.5 -148.5q-66 0 -122 6t-95 23q27 98 39 215.5t12 210.5q39 -2 99.5 -3.5t128.5 -1.5h483q61 0 118.5 1t104.5 4q18 -31 28.5 -65t14.5 -79l-148 -302l-145 -280l-151 -280 l-131 -229h73q68 0 115 11t82 43t59.5 86t47.5 140q133 -10 221 -59l-18.5 -83t-18.5 -100.5t-14.5 -104.5t-6.5 -93q-59 2 -128 3l-138 2q-70 1 -137 1h-125q-123 0 -239.5 -1t-211.5 -5q-18 27 -29.5 64.5t-11.5 80.5z" />
<glyph unicode="[" horiz-adv-x="667" d="M96 -551v2071q55 -2 103 -2h213q59 0 129 2q18 -39 21 -81t3 -89q-68 -6 -108.5 -14.5t-63 -27t-30 -50t-7.5 -80.5v-1375q0 -53 6.5 -86.5t27 -53t57 -29t96.5 -11.5q16 -47 19 -86t3 -88q-68 2 -122 3t-101 1q-57 0 -114.5 -1t-131.5 -3z" />
<glyph unicode="\" horiz-adv-x="829" d="M51 1452q29 8 66 12t90 4h20l545 -1468q-35 -10 -87 -14t-87 -4z" />
<glyph unicode="]" horiz-adv-x="690" d="M90 -551q0 49 3 88t20 86q59 2 96 11.5t56.5 29t26.5 53t7 86.5v1375q0 49 -7 80.5t-29.5 50t-63.5 26.5t-109 15q0 47 3 89t22 81q70 -2 127 -2h213q49 0 104 2v-2071q-74 2 -131 3t-115 1q-47 0 -101 -1t-122 -3z" />
<glyph unicode="^" horiz-adv-x="1138" d="M76 897l416 533q27 10 60.5 15t86.5 5l97 -150l111 -165l111 -163l101 -143q-33 -27 -77 -37t-89 -6l-324 459l-207 -247q-94 -118 -182 -244q-39 25 -69.5 66.5t-34.5 76.5z" />
<glyph unicode="_" horiz-adv-x="1306" d="M123 -313q0 47 6 88t23 78h1032q0 -37 -5 -83t-24 -81q-90 0 -157.5 1t-127.5 1h-360q-55 0 -114.5 -1t-125 -2t-147.5 -1z" />
<glyph unicode="`" horiz-adv-x="544" d="M-57 1403q74 31 159.5 48t176.5 17q23 -76 61.5 -169t79.5 -171q-39 -18 -88 -27t-121 -9q-57 80 -116.5 153.5t-151.5 157.5z" />
<glyph unicode="a" horiz-adv-x="1198" d="M51 231q0 104 67.5 170t165 105t204 57.5t184.5 28.5q0 70 -10.5 110.5t-36.5 69.5q-18 23 -47 33t-58 10q-70 0 -103.5 -60.5t-43.5 -162.5q-72 0 -123 4t-100 22q3 48 3 98v25q-1 63 -18 142q86 33 197.5 53t242.5 20q164 0 253.5 -24.5t138.5 -77.5q18 -20 35.5 -47 t31 -64.5t20.5 -91t7 -127.5v-135q0 -53 6 -87t18.5 -52.5t30 -24.5t41.5 -6q0 -47 -4 -89t-20 -83q-111 -6 -203 -22.5t-156 -42.5q-41 14 -62.5 37.5t-21.5 64.5q0 25 6 51l9 41q-12 -33 -37 -61q-29 -37 -47 -54q-47 -35 -106.5 -55t-135.5 -20q-328 -1 -328 245z M430 295q0 -49 22.5 -67.5t55.5 -18.5q29 0 57.5 14.5t52 42t39 67.5t15.5 93v35q-135 -27 -188.5 -67t-53.5 -99z" />
<glyph unicode="b" horiz-adv-x="1327" d="M-10 1247q0 39 5 80t21 74q76 0 145.5 6t127 15.5t101.5 21.5t69 24q35 -16 53 -46.5t18 -84.5v-354q0 -35 -1 -61.5t-3 -48t-6 -42.5q-2 -12 -6 -26q35 45 70 72q39 29 107.5 54t154.5 25q88 0 164.5 -23.5t133 -73.5t89.5 -129t33 -187q0 -127 -43 -230.5t-121 -177.5 t-189.5 -113.5t-246.5 -39.5q-86 0 -174.5 10t-166 30.5t-139 48t-94.5 62.5q49 57 49 197v774q0 72 -29.5 102.5t-121.5 40.5zM530 197q23 -29 48 -47q35 -23 81 -23q35 0 73 13.5t70 52t52 108.5t20 182q0 49 -7 97.5t-24.5 87.5t-48 63.5t-79.5 24.5q-35 0 -68 -16.5 t-58.5 -53.5t-42 -96.5t-16.5 -145.5v-247z" />
<glyph unicode="c" horiz-adv-x="991" d="M61 465q0 92 32 180t96.5 157.5t162 111.5t228.5 42q125 0 212 -20.5t158 -58.5q-14 -57 -20 -120t-6 -151q-47 -23 -104.5 -29t-110.5 -6q0 119 -33 178.5t-86 59.5q-37 0 -63.5 -24.5t-45 -67.5t-28 -100.5t-9.5 -122.5q0 -59 14.5 -117t46.5 -104t82 -74.5t122 -28.5 q66 0 117 12.5t87 34.5q23 -23 35.5 -56.5t12.5 -74.5q-53 -49 -147.5 -76.5t-209.5 -27.5q-127 0 -227.5 28.5t-170 88t-107.5 150.5t-38 216z" />
<glyph unicode="d" horiz-adv-x="1361" d="M61 395q0 127 43 230.5t123 177.5t191.5 113.5t247.5 39.5q37 0 71 -4q27 -4 60 -10v162q0 72 -30 102.5t-122 40.5q0 39 5 80t22 74q76 0 145.5 6t126.5 15.5t101.5 21.5t68.5 24q35 -16 53.5 -46.5t18.5 -84.5v-966q0 -45 6 -75t21.5 -48.5t44 -27.5t73.5 -13 q0 -41 -5 -80t-21 -74q-123 -4 -237 -21.5t-196 -49.5q-41 29 -59 67q-12 29 -16 64q-27 -31 -54 -52q-39 -29 -107.5 -54t-154.5 -25q-88 0 -164.5 23.5t-133 73.5t-89.5 128.5t-33 187.5zM453 455q0 -49 7 -98.5t24.5 -87.5t48 -62.5t79.5 -24.5q33 0 67 16.5t59.5 52.5 t41.5 95t17 146v247q-25 31 -49 47q-33 25 -80 25q-35 0 -73 -13.5t-69.5 -52t-52 -108t-20.5 -182.5z" />
<glyph unicode="e" horiz-adv-x="1116" d="M61 453q0 125 39 220t110 157.5t171 94t223 31.5q119 0 205 -39.5t141.5 -104t79.5 -146.5q23 -76 23 -152v-12q-16 -72 -68 -121q-68 0 -145 -1l-160 -2q-82 -1 -164 -5l-57 -4q18 -61 51 -109q68 -90 219 -90q66 0 139.5 21.5t118.5 56.5q23 -14 39 -55t16 -87 q-78 -55 -184 -89.5t-240 -34.5q-154 0 -259 35.5t-171.5 99t-96.5 150t-30 186.5zM444 524h275q0 123 -33 202t-98 79q-66 0 -105 -70q-37 -64 -39 -211z" />
<glyph unicode="f" horiz-adv-x="901" d="M55 756q0 43 6.5 88t22.5 74h125v59q0 125 38 217t106.5 153.5t162.5 91t207 29.5q43 0 88 -5t87 -14t77 -21.5t57 -26.5q-6 -31 -9 -68t-4 -76q-1 -19 -1 -37.5t1 -36.5q1 -36 3 -65q-18 -8 -49 -14t-65 -9t-67.5 -4t-62.5 1q0 104 -27.5 162.5t-70.5 58.5 q-23 0 -38 -10.5t-25.5 -39t-14.5 -81t-4 -135.5v-129h240q0 -49 -4.5 -96.5t-16.5 -73.5q-59 0 -109.5 -6.5t-109.5 -26.5v-312q0 -66 10 -111.5t37 -74.5t69 -44t107 -19q12 -35 15.5 -78t3.5 -82q-29 2 -72 3t-93 2t-104 1h-215q-57 0 -112.5 -1t-103.5 -2t-83 -3 q0 55 3 93t12 67q41 2 67.5 12t42 34.5t21.5 67.5t6 115v348q-47 14 -86 19.5t-68 5.5z" />
<glyph unicode="g" horiz-adv-x="1196" d="M41 -270q0 70 47 129q35 43 98 65q-35 27 -53 64q-27 53 -27 131q0 72 50 133q43 53 98 88q-31 14 -57 31q-129 82 -129 256q0 156 124.5 242.5t368.5 86.5q106 0 184 -18h394q16 -35 21 -82t5 -102q-72 29 -133 41l-47 8q39 -45 53 -90q20 -55 21 -86q0 -156 -130 -247 t-360 -91q-92 0 -168 10q-33 -18 -32 -41q0 -12 9 -22.5t48 -17.5t118 -10t216 -3q199 0 289 -73t90 -208q0 -98 -48.5 -178t-134.5 -137.5t-203.5 -88t-254.5 -30.5q-139 0 -227.5 17.5t-139.5 49t-70.5 76t-19.5 97.5zM336 -221q0 -66 47 -97.5t158 -31.5 q127 0 196.5 34.5t69.5 90.5q0 14 -5 25.5t-23.5 19.5t-53.5 11t-94 3q-145 0 -246 16l-29 5l-10 -17q-10 -22 -10 -59zM451 647q0 -109 36.5 -162t96.5 -53q47 0 75.5 47t28.5 135q0 94 -32.5 155.5t-100.5 61.5q-55 0 -79.5 -54t-24.5 -130z" />
<glyph unicode="h" horiz-adv-x="1431" d="M41 -6q0 47 5 89t15 71q80 0 106 37.5t26 140.5v792q-4 59 -35 86t-117 37q0 39 5 80t22 74q76 0 145.5 6t126.5 15.5t101 21.5t69 24q35 -16 53.5 -46.5t18.5 -84.5v-512q0 -25 -9 -57q-6 -31 -16 -63q16 39 33 69q18 35 47 64q49 49 119.5 78.5t156.5 29.5 q70 0 134.5 -18.5t113.5 -59.5t79 -104.5t30 -151.5v-280q0 -102 18.5 -140t69.5 -38q14 -35 18 -72t4 -88q-23 0 -56.5 1t-72.5 2l-79 2q-40 1 -76 1h-86q-47 0 -94.5 -1t-89.5 -2t-64 -3q0 43 3 83t17 77q43 0 71 43t28 157v142q0 117 -31 164t-96 47q-37 0 -69 -24 t-55.5 -66t-35.5 -100t-12 -128v-57q0 -53 7 -88t19.5 -55.5t29.5 -27.5t40 -7q16 -39 19 -76t3 -84q-23 2 -60.5 3t-81.5 2t-89 1h-170q-49 0 -99 -1t-93 -2t-66 -3z" />
<glyph unicode="i" horiz-adv-x="798" d="M55 -6q0 51 4 91t15 69q41 2 66.5 11t41 28.5t20.5 53.5t5 85v260q0 72 -30 102.5t-122 40.5q0 39 5.5 80t21.5 74q76 0 145.5 6t127 15.5t101.5 21.5t68 24q35 -16 53.5 -46.5t18.5 -84.5v-493q0 -51 6 -85t21.5 -53.5t41 -28.5t66.5 -11q10 -29 13.5 -69t3.5 -91 q-18 2 -55.5 3t-84.5 2t-100 1h-213q-53 0 -100.5 -1t-84.5 -2t-55 -3zM141 1219q0 92 62.5 137t161.5 45q221 0 221 -178q0 -76 -62.5 -123t-173.5 -47q-98 0 -153.5 45t-55.5 121z" />
<glyph unicode="j" horiz-adv-x="679" d="M31 -358q49 49 82.5 96t54 97t30 108.5t9.5 132.5v516q0 72 -30 102.5t-122 40.5q0 39 5.5 80t21.5 74q76 0 145.5 6t127 15.5t101.5 21.5t68 24q35 -16 53.5 -46.5t18.5 -84.5v-655q0 -135 -47 -244.5t-117 -194.5t-152.5 -145.5t-152.5 -95.5q-39 20 -64.5 61.5 t-31.5 90.5zM164 1219q0 92 62.5 137t160.5 45q221 0 221 -178q0 -76 -62.5 -123t-172.5 -47q-98 0 -153.5 45t-55.5 121z" />
<glyph unicode="k" horiz-adv-x="1355" d="M41 -6q0 51 4 91t14 69q41 2 67 11t41 28.5t20.5 53.5t5.5 85v772q0 72 -30 102.5t-122 40.5q0 39 5 80t22 74q76 0 145.5 6t126.5 15.5t101 21.5t69 24q35 -16 53.5 -46.5t18.5 -84.5v-796l135 118q47 41 60.5 59.5t13.5 31.5q0 16 -10.5 23t-43.5 11q-16 41 -21 79 t-5 79q18 0 56 -1t85 -2t100 -1h107q57 0 104 1t88 3q0 -47 -5 -83t-19 -75q-45 -4 -79 -10t-64.5 -20.5t-59.5 -36t-66 -55.5l-75 -70q68 -61 125 -123q94 -104 178 -223q20 -29 34.5 -46.5t28 -26.5t30.5 -13t46 -6q0 -37 -6 -78t-23 -76q-39 0 -92 -1t-107.5 -3 t-104.5 -5t-83 -9q-27 43 -69 102l-96 127l-111 139l-51 64v-82q0 -98 18 -135t74 -43q10 -29 13 -69t3 -91q-18 2 -43.5 3t-73 2t-100.5 1h-192q-53 0 -100.5 -1t-84.5 -2t-55 -3z" />
<glyph unicode="l" horiz-adv-x="784" d="M41 -6q0 51 4 91t14 69q41 2 67 11t41 28.5t20.5 53.5t5.5 85v792q-4 59 -35 86t-117 37q0 39 5 80t22 74q76 0 145.5 6t126.5 15.5t101 21.5t69 24q35 -16 53.5 -46.5t18.5 -84.5v-1005q0 -51 6 -85t21.5 -53.5t41 -28.5t66.5 -11q10 -29 13 -69t3 -91q-18 2 -55 3 t-84 2t-100 1h-213q-53 0 -100.5 -1t-84.5 -2t-55 -3z" />
<glyph unicode="m" horiz-adv-x="2113" d="M55 -6q0 43 4 83t17 75q41 2 66.5 12t40 29.5t19.5 53.5t5 85v190q0 63 -4 102.5t-18.5 62t-44 32.5t-81.5 16q0 37 6.5 76t22.5 78q63 0 128 5t123 13t107.5 20.5t79.5 28.5q29 -10 49.5 -41.5t20.5 -89.5q0 -18 -3 -36.5t-9 -43.5q-6 -23 -17 -53l33 70q27 51 51 76 q51 51 122 82.5t155 31.5q104 0 182 -42t121 -113q25 -43 33 -82q39 90 86 131q47 45 109.5 69.5t137.5 24.5q178 0 266.5 -84t88.5 -276v-150q0 -92 2 -146.5t11 -82t26.5 -36.5t50.5 -11q12 -35 16 -76t4 -84q-55 4 -131 5t-155 1h-88q-45 0 -90 -1l-85 -2q-41 -1 -67 -3 q0 51 3 86t13 74q27 2 45.5 12t30.5 37.5t18.5 77t6.5 129.5v92q0 121 -29 163t-78 42q-92 0 -137 -86t-45 -232v-45q0 -104 19.5 -145t82.5 -45q10 -29 15.5 -73t5.5 -87q-25 2 -59.5 3t-76.5 2t-87 1h-89q-88 0 -177 -1t-144 -5q0 43 5 86t15 74q31 2 51.5 11t33 37.5 t16.5 82t4 145.5v94q0 102 -29 142.5t-92 40.5q-39 0 -70.5 -26t-54 -69t-35 -101t-12.5 -122v-45q0 -55 4 -91t14.5 -57.5t30 -30.5t49.5 -11q12 -33 16.5 -75t4.5 -85q-25 2 -66 3t-89 2t-97 1h-172q-47 0 -92 -1t-84.5 -2t-59.5 -3z" />
<glyph unicode="n" horiz-adv-x="1445" d="M55 -6q0 47 5.5 89t15.5 71q80 0 105.5 37.5t25.5 140.5v221q0 49 -4 83t-18.5 54.5t-44 30.5t-79.5 14q0 39 5.5 80t21.5 74q154 0 271.5 21.5t166.5 45.5q35 -16 52.5 -46.5t17.5 -84.5q0 -25 -8 -57q-6 -31 -17 -63q16 39 33 69q18 35 47 64q49 49 120 78.5t157 29.5 q70 0 134 -18.5t113.5 -59.5t79 -104.5t29.5 -151.5v-280q0 -102 18.5 -140t69.5 -38q14 -35 18.5 -72t4.5 -88q-23 0 -56.5 1t-72.5 2l-79 2q-40 1 -77 1h-86q-47 0 -94 -1t-89 -2t-65 -3q0 43 3 83t18 77q43 0 70.5 43t27.5 157v142q0 117 -30.5 164t-96.5 47 q-37 0 -68.5 -24t-55 -66t-36 -100t-12.5 -128v-57q0 -53 7 -88t19.5 -55.5t30 -27.5t39.5 -7q16 -39 19.5 -76t3.5 -84q-23 2 -61 3t-82 2t-89 1h-170q-49 0 -99 -1t-93 -2t-66 -3z" />
<glyph unicode="o" horiz-adv-x="1245" d="M61 451q0 129 44.5 224t121 157.5t180 93t222.5 30.5q141 0 245.5 -34.5t173 -98t102.5 -149.5t34 -189q0 -242 -152.5 -372.5t-421.5 -130.5q-276 0 -412.5 126t-136.5 343zM451 528q0 -80 12 -150.5t36.5 -123.5t62.5 -84t87 -31q70 0 108 81t38 198q0 100 -16.5 174 t-44 122t-63.5 71.5t-73 23.5t-64.5 -22.5t-46 -60.5t-27.5 -89.5t-9 -108.5z" />
<glyph unicode="p" horiz-adv-x="1388" d="M51 -502q0 55 3 93t12 67q41 2 67.5 12.5t41.5 35t21.5 67.5t6.5 114v666q0 49 -4 83t-18.5 54.5t-44.5 30.5t-79 14q0 39 5.5 80t21.5 74q154 0 271.5 21.5t166.5 45.5q35 -16 52.5 -46.5t17.5 -84.5q27 31 53 52q39 29 107.5 54t154.5 25q88 0 165 -23.5t133.5 -73.5 t89 -129t32.5 -187q0 -127 -43 -230.5t-123 -177.5t-191.5 -113.5t-246.5 -39.5q-37 0 -72 4q-29 4 -59 10v-113q2 -119 51 -168t172 -57q12 -35 15.5 -78t3.5 -82q-29 2 -72 3t-93.5 2t-103.5 1h-215q-57 0 -112.5 -1t-103.5 -2t-83 -3zM592 197q23 -29 47 -47 q35 -23 82 -23q35 0 72.5 13.5t69.5 52t52.5 108.5t20.5 182q0 49 -7 98.5t-24.5 87.5t-48.5 62.5t-80 24.5q-35 0 -67.5 -16.5t-58 -52.5t-42.5 -95q-16 -59 -16 -146v-249z" />
<glyph unicode="q" horiz-adv-x="1325" d="M61 410q0 127 44.5 228t124 172t191 108.5t245.5 37.5q180 0 325.5 -39.5t237.5 -111.5q-12 -35 -21.5 -65.5t-14.5 -69.5t-7 -89.5t-2 -119.5v-533q0 -84 4 -135t17.5 -79.5t38 -40t65.5 -17.5q10 -39 13 -76t3 -82q-33 2 -78 3t-96 2t-104 1h-218q-59 0 -113 -1 t-99.5 -2t-71.5 -3q0 45 3 83t15 75q70 4 115 17.5t71.5 42t36 76.5t9.5 124v43q0 74 6 131q4 39 14 82q-37 -61 -80 -96q-47 -39 -116.5 -59.5t-155.5 -20.5q-186 0 -294 109.5t-108 304.5zM453 449q0 -154 41 -213.5t118 -59.5q33 0 66 16.5t58.5 53.5t41.5 94 q16 59 17 145v252q-16 33 -49 52.5t-80 19.5q-43 0 -82 -19.5t-68 -62.5t-46 -111.5t-17 -166.5z" />
<glyph unicode="r" horiz-adv-x="1067" d="M55 -6q0 55 3 93t12 67q41 2 67.5 12t42 34.5t21.5 67.5t6 115v170q0 49 -4 83t-18.5 54.5t-44 30.5t-79.5 14q0 39 5.5 80t21.5 74q154 0 271.5 21.5t166.5 45.5q35 -16 52.5 -46.5t17.5 -84.5q0 -35 -10 -82q-8 -39 -23 -100l2 4q8 27 18 51l18 47q9 23 17 35 q45 72 114 119t153 47q82 0 151 -49q-6 -35 -11 -80t-8 -92t-4 -93v-18q0 -35 3 -65q-20 -10 -49 -15.5t-58.5 -8.5t-59.5 -4t-50 -1q-2 131 -80 131q-20 0 -42 -19.5t-40.5 -50t-29.5 -70.5t-11 -83v-25q0 -66 10 -111.5t37 -74.5t69 -44t107 -19q12 -35 15.5 -78t3.5 -82 q-29 2 -72 3t-93 2t-104 1h-215q-57 0 -112.5 -1t-103.5 -2t-83 -3z" />
<glyph unicode="s" horiz-adv-x="1009" d="M74 49q9 60 9 123v12q-1 70 -5 119q37 23 96 34t111 11q10 -102 55 -152.5t109 -50.5q41 0 69.5 18.5t28.5 55.5q0 20 -7.5 38.5t-26.5 35t-54 34t-88 38.5q-61 23 -114.5 49t-92.5 63t-60.5 87t-21.5 120q0 141 112.5 206.5t307.5 65.5q123 0 206 -14t154 -45 q-2 -30 -1 -59q0 -80 11 -162q-35 -23 -90 -35t-112 -12q-10 72 -47 121t-121 49q-35 0 -53.5 -18.5t-18.5 -47.5q0 -18 6 -33.5t26.5 -34t61.5 -40t111 -50.5q90 -37 150.5 -70.5t96.5 -68.5t51 -73.5t15 -88.5q0 -147 -124 -219.5t-353 -72.5q-66 0 -120 4t-101 12 t-90 21.5t-86 29.5z" />
<glyph unicode="t" horiz-adv-x="817" d="M10 756q0 47 6.5 85t22.5 77h125v235q92 10 181 43t142 74q37 -16 51.5 -45t14.5 -99v-208h240q0 -53 -5.5 -91.5t-15.5 -72.5q-125 0 -219 -37v-336q0 -72 5 -115t16.5 -66.5t30 -31.5t44.5 -8q25 0 57.5 6t59.5 16q14 -20 22.5 -55t8.5 -76q-45 -31 -128 -50t-175 -19 q-164 0 -247 84t-83 290v375q-33 14 -70 19.5t-84 5.5z" />
<glyph unicode="u" horiz-adv-x="1357" d="M31 735q0 39 5 80t21 74q154 0 262.5 21.5t157.5 45.5q35 -16 52.5 -46.5t17.5 -84.5v-401q0 -72 6 -117t17.5 -69.5t29.5 -32.5t43 -8q27 0 55.5 18t52 56t38 95.5t14.5 137.5v59q0 49 -5 83t-21.5 54.5t-45.5 30.5t-74 14q0 39 5.5 80t21.5 74q154 0 271.5 16.5 t166.5 40.5q35 -16 52.5 -46.5t17.5 -84.5v-424q0 -61 4 -97t18.5 -56.5t41 -28.5t71.5 -12q0 -41 -5 -80t-22 -74q-123 -4 -206.5 -21.5t-165.5 -49.5q-41 29 -58.5 67.5t-17.5 85.5q0 16 2 35l4 16q-31 -70 -86 -112q-51 -41 -119.5 -64.5t-160.5 -23.5q-82 0 -144.5 19.5 t-104.5 63.5t-63.5 117.5t-21.5 184.5v182q0 49 -4 83t-17.5 54.5t-38 30.5t-67.5 14z" />
<glyph unicode="v" horiz-adv-x="1193" d="M20 944q47 -4 134.5 -5t185.5 -1h96q51 0 98.5 1t86 2t63.5 3q0 -39 -7 -85t-15 -75q-68 -10 -78 -35q-2 -6 -3 -14q0 -28 27 -84l47 -97q23 -46 43 -95l35 -86l29 86l37 94l39 98q20 48 20 75q0 14 -5 23q-15 26 -79 35q-8 29 -15 74t-7 86q80 -6 206 -6q125 0 216 6 q0 -41 -6.5 -87t-20.5 -73q-53 -12 -82 -38.5t-57 -92.5l-279 -671q-30 -4 -61 -4.5t-64 4.5q-66 8 -106 30l-79 165l-86 173l-86 168l-79 148q-35 63 -60.5 85.5t-64.5 32.5q-10 29 -16.5 74t-6.5 86z" />
<glyph unicode="w" horiz-adv-x="1632" d="M20 944q156 -6 299 -6q84 0 176.5 1t170.5 5q0 -47 -7.5 -88t-17.5 -70q-29 -2 -44 -7t-19.5 -20.5t2 -44t20.5 -75.5q23 -80 45 -178q6 -18 10 -41l205 530q41 0 87 -3t81 -15q82 -174 154 -357q35 -88 65 -174l58 238q8 37 8 63q0 25 -7 40q-15 32 -73 44 q-12 37 -17.5 76t-5.5 82q41 -4 87 -5t110 -1q63 0 111.5 1t93.5 5q0 -35 -6.5 -82t-18.5 -76q-47 -10 -73.5 -37.5t-47.5 -95.5l-196 -671q-20 0 -53 1l-68 2q-35 1 -65.5 5t-47.5 10l-75 156l-60 132t-47 124q-4 16 -10 34l-207 -464q-20 0 -53 1l-68 2q-35 1 -65.5 5 t-47.5 10l-60 176l-64 185l-62 171l-49 134q-23 59 -51.5 86.5t-71.5 31.5q-10 29 -17.5 71t-7.5 89z" />
<glyph unicode="x" horiz-adv-x="1243" d="M51 -4q0 96 25 158q23 2 41 9t39.5 28.5t52.5 62.5t78 113l78 116l-60 97q-51 78 -98 137q-25 35 -53.5 49t-75.5 18q-10 35 -16.5 77t-6.5 81q63 -4 148 -4h356q92 0 160 4q0 -41 -4 -87t-13 -71q-44 -4 -44 -29t47 -98l38 -61l5 -10l51 76q45 68 47 91t-35 31 q-10 29 -16.5 71t-6.5 87q53 -4 101 -4h205q37 0 84 4q0 -92 -23 -158q-23 -2 -39 -7t-31.5 -17t-32 -33.5t-38.5 -56.5l-129 -193l88 -135q33 -53 57.5 -88t46 -55.5t43 -29.5t49.5 -11q12 -35 17.5 -73t5.5 -85q-31 1 -62 1h-30q-45 -1 -129 -1h-238q-66 0 -124 -1t-85 -3 q0 53 4 91t15 67q16 4 26.5 12t10.5 24.5t-12.5 44t-37.5 70.5l-28 45l-19 -26q-31 -47 -48 -79t-22 -50.5t1 -27.5t20 -13q12 -35 14.5 -71t2.5 -87q-41 4 -101 4h-213q-53 0 -86 -4z" />
<glyph unicode="y" horiz-adv-x="1185" d="M20 944q59 -4 143.5 -5t170.5 -1q92 0 189.5 1t160.5 5q0 -41 -7 -88t-18 -72q-37 -6 -57 -15t-25.5 -25.5t4 -44t31.5 -70.5q45 -86 84 -187q16 -39 31 -82l100 250q20 49 26.5 80t1.5 50.5t-22.5 29.5t-46.5 14q-10 29 -16 73t-6 87q47 -4 103.5 -5t103.5 -1q51 0 99 2 t95 6q0 -37 -6 -82t-20 -80q-47 -12 -75 -40.5t-60 -102.5l-302 -717q-59 -139 -108 -225t-96 -132t-94.5 -61.5t-100.5 -15.5q-68 0 -134.5 32t-98.5 79q-3 20 -3 46t3 58q6 63 26 117q35 -14 97.5 -26.5t140.5 -12.5q37 0 63.5 4t47 14.5t38 26.5t33.5 43q4 6 10 18 q-37 90 -80 185l-89 202l-92 197l-87 180q-18 39 -35.5 62.5t-33 38t-33 20.5t-35.5 10q-10 31 -15.5 77t-5.5 83z" />
<glyph unicode="z" horiz-adv-x="1060" d="M82 147l127 178l128 187l118 182q31 47 55 90h-35q-43 0 -70.5 -8t-47 -30.5t-33 -61.5t-23.5 -98l-43 -2l-76 5q-59 7 -100 29q14 72 19 160t5 166q125 -6 437 -6h139q61 0 107.5 1t83 2t71.5 3q16 -23 24.5 -57.5t8.5 -71.5q-96 -174 -213 -354l-203 -307h80 q47 0 77 12t47 41t25.5 74t12.5 110q24 2 46 2q29 0 56 -3q49 -5 99 -21q0 -39 1 -84t3 -89t5 -84t7 -67q-23 -49 -96 -49q-35 0 -87.5 1t-110.5 1t-114.5 1t-99.5 1q-135 0 -233.5 -1t-153.5 -3q-18 29 -30.5 69.5t-12.5 81.5z" />
<glyph unicode="{" horiz-adv-x="862" d="M72 436v27q0 18 1 36.5t3 36t6 27.5q59 18 97 46t60.5 63t32 74.5t11.5 82.5q2 72 -8.5 151t-8.5 157q2 66 17.5 127t62.5 113.5t133 95.5t228 71q27 -23 35 -63.5t8 -77.5q-104 -35 -139.5 -100.5t-32.5 -147.5q0 -45 8 -93l16 -97l15.5 -97.5t7.5 -93.5 q0 -49 -12.5 -94t-44 -80t-87 -59.5t-141.5 -36.5q86 -12 140.5 -39t87 -63.5t46 -82t13.5 -96.5q0 -47 -6.5 -96t-14.5 -98l-14 -99q-6 -49 -6 -94q0 -43 7 -82t26.5 -71.5t54.5 -58t88 -40.5q12 -39 6 -82t-35 -82q-143 20 -233 65.5t-141.5 105t-70 129t-20.5 139.5 q-2 74 5.5 147.5t5.5 143.5q-2 49 -11.5 92t-32 79.5t-62.5 66.5t-101 48z" />
<glyph unicode="|" horiz-adv-x="430" d="M127 -487v1953q49 0 104.5 -8t77.5 -22q0 -86 -1 -194.5t-2 -232.5l-2 -258q-1 -134 -1 -272q0 -137 1 -274l2 -266q1 -129 2 -244t1 -205q-45 0 -98 5.5t-84 17.5z" />
<glyph unicode="}" horiz-adv-x="849" d="M72 -498q-6 43 6 82q106 31 142 98.5t34 153.5q0 45 -7 94.5t-15.5 98.5t-13.5 98t-5 96q0 51 13.5 96.5t45 82t87 63.5t141.5 39q-86 12 -141.5 36.5t-87 59.5t-44 80t-12.5 94q0 45 7 93t16 98l16 97q8 48 8 93q2 82 -32.5 147.5t-139.5 100.5q0 37 8 78t35 63 q141 -29 227 -71.5t133.5 -95t62.5 -114t17 -126.5q2 -78 -8 -157t-8 -151q2 -43 11.5 -82.5t32 -74.5t60 -62.5t97.5 -46.5q4 -10 6 -27.5t3 -36t1 -36.5v-27q-61 -18 -101 -48t-62.5 -66.5t-32 -79.5t-11.5 -92q-2 -70 5 -144t5 -147q-2 -70 -20.5 -139.5t-69.5 -129 t-141 -104.5t-234 -66q-28 39 -34 82z" />
<glyph unicode="~" horiz-adv-x="1243" d="M80 463q47 88 94 146.5t92 93t86 49t78 14.5q66 0 122 -29.5t110.5 -65.5t106.5 -66t108 -30q51 0 95 33t99 117q31 -10 64.5 -38t50.5 -52q-47 -88 -92 -143.5t-86 -86t-77 -42t-65 -11.5q-70 0 -126 31t-107 68.5t-102.5 68.5t-108.5 31q-59 0 -116.5 -39t-112.5 -143 q-39 14 -68 34.5t-45 59.5z" />
<glyph unicode="&#xa1;" horiz-adv-x="841" d="M178 739q0 88 54.5 152.5t158.5 64.5q98 0 154.5 -55t56.5 -151t-63.5 -149.5t-159.5 -53.5q-47 0 -84 16.5t-62.5 43t-40 61t-14.5 71.5zM240 -336l19 162l22.5 196.5t21.5 213l19 210.5q55 0 110 -3t98 -23q20 -213 48 -422t65 -416q-41 -2 -88 -10t-93 -20.5 t-89 -25.5t-76 -28q-43 10 -56 47t-1 119z" />
<glyph unicode="&#xa2;" horiz-adv-x="1026" d="M61 465q0 92 32 180t96.5 157.5t160.5 110.5q68 29 152 39v289q49 0 104.5 -8t77.5 -23q-4 -76 -4 -127v-131q61 -6 111 -16q88 -20 159 -59q-14 -57 -20 -120t-6 -151q-47 -23 -104.5 -29t-110.5 -6q0 119 -33 178.5t-86 59.5q-37 0 -63.5 -24.5t-45 -67.5t-28 -100.5 t-9.5 -122.5q0 -59 14.5 -117t46.5 -104t82 -74.5t122 -28.5q66 0 117 12.5t87 34.5q23 -23 35.5 -56.5t12.5 -74.5q-53 -49 -148 -78q-61 -16 -133 -22v-115q0 -63 4 -156q-45 0 -98.5 5.5t-83.5 17.5v250q-68 6 -125 22q-100 29 -170 88.5t-108 150.5t-38 216z" />
<glyph unicode="&#xa3;" horiz-adv-x="1228" d="M72 117q121 78 165 169t44 201q0 61 -11 107q-53 0 -100 -2q-49 -2 -80 -2q0 45 7 91t26 83h82q-23 51 -43 110q-23 63 -23 164q0 164 143.5 264.5t422.5 100.5q43 0 98 -3t111.5 -11.5t106.5 -20.5t85 -31q-8 -63 -12 -142t0 -157q-57 -27 -124 -33t-136 -6 q-16 133 -50 187.5t-112 54.5q-53 0 -83 -36t-30 -99t24.5 -107.5t53.5 -88.5t53 -97q10 -23 17 -49h221q0 -47 -5 -89t-26 -83q-35 0 -79 1t-91 1h-31q-8 -23 -20 -47q-39 -74 -101 -152q-35 -43 -75 -86q33 23 65 41q70 41 131.5 64.5t110.5 23.5q33 0 53.5 -5t34.5 -11 l26 -11q11 -5 27 -5q29 0 46.5 13t39.5 54q51 -8 100.5 -36.5t69.5 -57.5q-74 -104 -115.5 -203.5t-64.5 -193.5q-80 0 -139.5 9t-118.5 32q-96 35 -170 50t-133 15q-80 0 -156 -22.5t-143 -81.5q-33 23 -57.5 57.5t-34.5 75.5z" />
<glyph unicode="&#xa4;" d="M78 879q49 55 127 63l121 -119q39 27 86 43q68 27 141 27q74 0 139 -27q35 -14 64 -32l114 116q43 -10 71 -24.5t52 -44.5l-141 -140q23 -29 37 -61q29 -66 29 -143q0 -96 -37 -166q-12 -27 -29 -49l168 -162q-41 -53 -131 -66l-135 131q-39 -25 -80 -39 q-63 -23 -121 -22q-84 0 -154 31q-23 10 -43 22l-125 -129q-45 2 -77.5 18.5t-55.5 38.5l156 164q-29 39 -49 86q-27 68 -27 142q0 80 31 145q10 23 22 43zM344 547q0 -45 16.5 -89t46 -80t68.5 -58.5t86 -22.5q86 0 139.5 61.5t53.5 163.5q0 45 -16.5 88t-45 78t-68.5 56.5 t-87 21.5q-86 0 -139.5 -60.5t-53.5 -158.5z" />
<glyph unicode="&#xa5;" horiz-adv-x="1269" d="M20 1389q37 -2 84.5 -3.5t94.5 -1.5h336q49 0 96 1t78 4q0 -53 -4.5 -88t-10.5 -70q-33 -4 -47 -17.5t-16 -33t6 -44t20 -51.5q33 -68 74 -170l57 -141q27 72 54 135q39 90 80 174q29 59 15.5 101.5t-71.5 46.5q-10 35 -14 69.5t-4 88.5q55 -4 102 -5h203q47 0 96 5 q0 -53 -5 -91t-13 -67q-18 -4 -33.5 -11.5t-31 -24.5t-35 -50t-46.5 -86l-131 -264h183q0 -47 -5.5 -83t-17.5 -75l-237 2l-25 -51v-70h281q0 -47 -7.5 -84t-17.5 -74h-256q2 -45 6 -77q8 -47 29.5 -75t61.5 -39t106 -15q14 -43 17 -77t3 -83q-90 4 -205.5 5t-232.5 1 t-228.5 -2t-207.5 -4q2 45 6 85t18 75q74 6 117 15t65.5 35.5t28.5 74.5q4 33 6 81h-270q0 45 4 83t21 75h245v82l-20 39l-256 -2q0 47 4 86t18 72h150l-166 315q-37 72 -68.5 94.5t-66.5 26.5q-10 35 -13.5 71t-3.5 87z" />
<glyph unicode="&#xa6;" horiz-adv-x="428" d="M127 375q55 0 95 -6.5t83 -26.5q0 -33 -1 -85t-1 -111.5t-1 -119t-1 -104.5q0 -39 1 -93t1 -113.5t1 -118t1 -107.5q-39 0 -95 8t-83 25v852zM127 655v813q45 0 91 -7t87 -25q0 -66 -2 -169.5t-2 -207.5q0 -45 1 -107.5t1 -126t1 -119t1 -83.5q-43 0 -90 7t-88 25z" />
<glyph unicode="&#xa7;" horiz-adv-x="1247" d="M61 451q0 98 38 165.5t98 110.5q57 43 129 70q-39 39 -66 75q-39 57 -56.5 122t-17.5 143q0 72 31 131t86 102t133 67.5t172 24.5q117 0 197 -11t139 -40q-6 -59 -6 -137t6 -137q-33 -10 -77 -17.5t-89 -7.5q-18 106 -69.5 149.5t-104.5 43.5q-137 0 -137 -91 q0 -25 9 -48t43 -52t99.5 -66.5t178.5 -91.5q186 -90 264 -196.5t78 -243.5q0 -98 -38 -165.5t-97.5 -111.5t-131.5 -71q39 -37 66 -76q41 -55 58.5 -119.5t17.5 -142.5q0 -72 -31 -131t-86 -102t-132 -68t-171 -25q-117 0 -198 11.5t-140 40.5q6 59 6 137t-6 137 q33 10 77 17.5t89 7.5q18 -106 69.5 -149.5t104.5 -43.5q137 0 137 90q0 25 -9 48.5t-43 52t-99.5 66.5t-175.5 91q-188 88 -266.5 196t-78.5 245zM385 575q0 -29 7 -53t36 -52t84 -64.5t154 -92.5l55 -32q31 14 49 28q29 20 37 43t8 39q0 29 -7 53.5t-36 52t-84 64.5 t-153 92q-29 14 -56 31q-31 -12 -51 -27q-27 -20 -35 -43t-8 -39z" />
<glyph unicode="&#xa8;" d="M246 1200q0 37 11 70t34.5 58.5t59.5 40.5t87 15q104 0 151.5 -51t47.5 -129q0 -72 -54.5 -120t-138.5 -48q-90 0 -144 48t-54 116zM764 1221q0 78 54 120.5t143 42.5q86 0 142 -47t56 -116q0 -37 -10 -70t-32.5 -58.5t-58.5 -41t-87 -15.5q-104 0 -155.5 51.5 t-51.5 133.5z" />
<glyph unicode="&#xa9;" horiz-adv-x="1572" d="M72 471q0 150 55 280t150.5 225t225.5 150.5t279 55.5q147 0 277.5 -55.5t226.5 -150.5t151.5 -225t55.5 -280t-55.5 -279t-151.5 -225t-226 -151.5t-278 -55.5q-152 0 -281.5 54.5t-225 150.5t-149.5 225t-54 281zM209 471q0 -121 44 -225.5t121 -181t182.5 -120.5 t225.5 -44q121 0 226.5 44t182.5 120.5t121 181t44 225.5t-44 226.5t-121 182t-182.5 120.5t-226.5 44t-225 -44t-182 -120.5t-122 -182t-44 -226.5zM365 467q0 104 30.5 189t88 145.5t140.5 93.5t189 33q84 0 150.5 -19.5t132.5 -54.5q-10 -55 -12.5 -122.5t-2.5 -123.5 q-33 -16 -69.5 -23t-71.5 -7q-10 102 -45 155t-100 53q-61 0 -88 -66.5t-27 -207.5q0 -68 9 -130.5t30.5 -108.5t56.5 -73.5t88 -27.5q45 0 91 18.5t87 57.5q23 -16 40.5 -47t17.5 -68q-53 -49 -134 -86t-200 -37q-80 0 -152.5 30t-128 87t-88 143t-32.5 197z" />
<glyph unicode="&#xaa;" horiz-adv-x="868" d="M61 924q0 68 32 114.5t85 77.5t126 50.5t153 33.5q0 57 -4 85t-17 46q-23 35 -65 35q-31 0 -47.5 -38t-26.5 -128q-49 0 -91 3t-79 16q6 88 -10 170q51 33 124.5 57t159.5 24q61 0 104.5 -5t76 -15t56.5 -26.5t42 -37.5q33 -37 46 -88t13 -147v-111q0 -82 15.5 -105.5 t38.5 -23.5q0 -35 -3.5 -65.5t-13.5 -61.5q-80 -4 -143.5 -17t-106.5 -32q-57 18 -57 78q0 27 6 53q-6 -14 -16 -28q-18 -31 -37 -47q-29 -25 -66 -39.5t-84 -14.5q-211 1 -211 187zM332 971q0 -41 10 -55.5t27 -14.5q31 0 59.5 43t28.5 129v29q-70 -14 -97.5 -39.5 t-27.5 -91.5z" />
<glyph unicode="&#xab;" horiz-adv-x="1032" d="M123 436q0 51 8 89t27 79q72 59 138 121l132 127q96 0 162 -49l-105.5 -126.5t-87.5 -127.5q78 -180 178 -318q-23 -35 -61.5 -66.5t-79.5 -51.5l-160 176q-69 75 -151 147zM569 420q0 57 7.5 100t19.5 84q72 59 124 111.5t107 118.5q51 -6 96.5 -21.5t73.5 -38.5 l-86 -134q-39 -62 -73 -128q37 -68 77.5 -131.5t81.5 -112.5q-12 -29 -58 -70.5t-101 -70.5q-35 45 -67 82l-63 71q-32 34 -67 66z" />
<glyph unicode="&#xac;" horiz-adv-x="1136" d="M51 549q0 39 6 89t19 91h977v-473q-41 -20 -74 -30.5t-88 -10.5v342q-178 0 -346 -2q-234 0 -494 -6z" />
<glyph unicode="&#xad;" horiz-adv-x="858" d="M735 668q0 -39 -5 -92.5t-21 -106.5q-129 0 -278.5 -2t-307.5 -14q0 43 8 103t27 112h577z" />
<glyph unicode="&#xae;" horiz-adv-x="1169" d="M123 940q0 98 36 182t98 146.5t146 98.5t181 36q98 0 183 -36t147.5 -98.5t97.5 -146.5t35 -182t-35 -182t-97.5 -146.5t-147.5 -97.5t-183 -35q-96 0 -180.5 35t-146.5 97.5t-98 146.5t-36 182zM242 940q0 -72 26.5 -134.5t72.5 -108.5t108.5 -72.5t134.5 -26.5 q74 0 137 26.5t109.5 72.5t72 108.5t25.5 134.5q0 74 -25.5 136.5t-72 108.5t-110 72.5t-136.5 26.5q-72 0 -134.5 -26.5t-108.5 -72.5t-72.5 -108.5t-26.5 -136.5zM401 1155h211q90 0 128 -29.5t38 -83.5q0 -33 -15 -56t-40 -40q-18 -12 -39 -20q14 -14 25 -29 q12 -18 22 -41q16 -35 33.5 -50t42.5 -20q0 -14 -1 -26t-5 -23q-23 0 -64 -3t-69 -7q-23 57 -46.5 97t-52.5 77q-4 2 -12 2v-37q0 -47 6 -60t27 -20q4 -10 5 -24t1 -29q-23 2 -53 2h-86q-18 0 -54 -2q0 10 1.5 23.5t5.5 29.5q20 4 26 17.5t6 62.5v183q0 29 -6 37t-28 10 q-7 24 -7 59zM557 958q45 2 67.5 15.5t22.5 48.5q0 33 -13 54.5t-48 21.5q-16 0 -29 -6v-134z" />
<glyph unicode="&#xaf;" d="M158 1153q0 31 4 71t14 68h768q0 -23 -4 -55.5t-14 -62.5q-162 0 -358.5 -4.5t-409.5 -16.5z" />
<glyph unicode="&#xb0;" horiz-adv-x="892" d="M123 1143q0 61 23.5 114.5t65.5 91t100.5 60.5t129.5 23q160 0 244 -82t84 -205q0 -61 -23.5 -115.5t-66.5 -94.5t-103.5 -62.5t-134.5 -22.5q-154 0 -236.5 82t-82.5 211zM348 1182q0 -96 36 -152.5t83 -56.5q33 0 55.5 35.5t22.5 113.5q0 90 -30 140.5t-83 50.5 q-37 0 -60.5 -40t-23.5 -91z" />
<glyph unicode="&#xb1;" d="M117 100q0 18 1 42t3 47.5t6 44t8 32.5h889q0 -49 -3 -88t-17 -74q-80 0 -131.5 1t-92.5 1h-190q-127 0 -234.5 -2t-238.5 -4zM172 606v4q0 18 1 43t4 48.5t7 44t9 32.5h282v109q0 70 -4 162q39 14 85 17t99 3v-291h306q0 -51 -3.5 -92t-17.5 -76q-53 0 -90 1t-75 1 t-83 -2h-37v-256q-12 -4 -34.5 -8t-50 -7t-54.5 -4t-47 -1q0 61 1 101l2 81q1 41 1 90v4h-59q-99 0 -242 -4z" />
<glyph unicode="&#xb2;" horiz-adv-x="792" d="M72 840q31 35 72 71l77 70q94 86 136 140.5t42 115.5q0 45 -20.5 71.5t-52.5 26.5q-12 0 -21.5 -5t-17.5 -22.5t-16.5 -53t-16.5 -97.5q-41 0 -86 5t-76 16q6 53 6 122.5t-8 122.5q68 25 137.5 35t165.5 10q55 0 110.5 -9t99.5 -31.5t71.5 -58.5t27.5 -87 q0 -80 -38.5 -129t-77.5 -74l-92 -61q-47 -33 -78 -60h61q37 0 57.5 3.5t32 12.5t15.5 23.5t4 38.5q41 0 77.5 -3t71.5 -13q0 -53 1 -122t12 -124q-8 -16 -25.5 -28.5t-56.5 -12.5q-16 0 -46 1t-67 1t-77 1t-77 1q-98 0 -168.5 -1t-130.5 -3q-16 27 -22 49.5t-6 57.5z" />
<glyph unicode="&#x2072;" horiz-adv-x="792" d="M72 840q31 35 72 71l77 70q94 86 136 140.5t42 115.5q0 45 -20.5 71.5t-52.5 26.5q-12 0 -21.5 -5t-17.5 -22.5t-16.5 -53t-16.5 -97.5q-41 0 -86 5t-76 16q6 53 6 122.5t-8 122.5q68 25 137.5 35t165.5 10q55 0 110.5 -9t99.5 -31.5t71.5 -58.5t27.5 -87 q0 -80 -38.5 -129t-77.5 -74l-92 -61q-47 -33 -78 -60h61q37 0 57.5 3.5t32 12.5t15.5 23.5t4 38.5q41 0 77.5 -3t71.5 -13q0 -53 1 -122t12 -124q-8 -16 -25.5 -28.5t-56.5 -12.5q-16 0 -46 1t-67 1t-77 1t-77 1q-98 0 -168.5 -1t-130.5 -3q-16 27 -22 49.5t-6 57.5z" />
<glyph unicode="&#xb3;" horiz-adv-x="833" d="M68 557q4 33 20 70t37 59q25 -12 73 -21.5t103 -9.5q72 0 122 35t50 119q0 53 -29.5 91t-78.5 38q-16 0 -25.5 -1t-20.5 -5q-18 14 -37.5 47t-25.5 61q47 53 83 100.5t67 98.5h-82q-41 0 -66 -17.5t-43 -62.5q-35 0 -68.5 6t-48.5 17q8 33 13.5 71.5t8.5 77.5t4 75t1 60 q35 -2 117 -2h327q61 0 90 2q12 -23 18.5 -44t6.5 -54q-47 -57 -99.5 -129t-111.5 -166q121 0 196.5 -59.5t75.5 -194.5q0 -63 -27.5 -120.5t-82.5 -101.5t-141 -69.5t-203 -25.5q-74 0 -131 16t-92 39z" />
<glyph unicode="&#x2073;" horiz-adv-x="833" d="M68 557q4 33 20 70t37 59q25 -12 73 -21.5t103 -9.5q72 0 122 35t50 119q0 53 -29.5 91t-78.5 38q-16 0 -25.5 -1t-20.5 -5q-18 14 -37.5 47t-25.5 61q47 53 83 100.5t67 98.5h-82q-41 0 -66 -17.5t-43 -62.5q-35 0 -68.5 6t-48.5 17q8 33 13.5 71.5t8.5 77.5t4 75t1 60 q35 -2 117 -2h327q61 0 90 2q12 -23 18.5 -44t6.5 -54q-47 -57 -99.5 -129t-111.5 -166q121 0 196.5 -59.5t75.5 -194.5q0 -63 -27.5 -120.5t-82.5 -101.5t-141 -69.5t-203 -25.5q-74 0 -131 16t-92 39z" />
<glyph unicode="&#xb4;" d="M461 1126q47 92 75.5 164t49.5 156q41 14 96 20.5t113 6.5q35 0 68.5 -2.5t62.5 -6.5q-80 -96 -147.5 -190t-119.5 -189q-55 0 -111 12.5t-87 28.5z" />
<glyph unicode="&#xb5;" horiz-adv-x="1429" d="M63 735q0 39 5.5 80t21.5 74q154 0 262.5 21.5t157.5 45.5q35 -16 52.5 -46.5t17.5 -84.5v-407q0 -78 6 -125t17 -72.5t29.5 -35t43.5 -9.5q27 0 55.5 19.5t52 59.5t38 102.5t14.5 146.5v59q0 49 -5.5 83t-21.5 54.5t-45 30.5t-74 14q0 39 5 80t22 74q154 0 271.5 16.5 t166.5 40.5q35 -16 52.5 -46.5t17.5 -84.5v-424q0 -61 4 -97t18.5 -56.5t41 -28.5t71.5 -12q0 -41 -5 -80t-22 -74q-123 -4 -207 -21.5t-165 -49.5q-41 29 -58.5 67.5t-17.5 85.5q0 16 2 35l4 16q-31 -70 -86 -112q-51 -41 -121 -66q-63 -20 -149 -22v-68q0 -92 9 -175 t23 -136q-92 -14 -166.5 -42t-154.5 -77q-35 14 -51.5 37.5t-26.5 56.5q8 20 13 41t7 53.5t2 83.5v793q0 49 -4 83t-17 54.5t-38 30.5t-68 14z" />
<glyph unicode="&#xb6;" horiz-adv-x="1290" d="M76 985q0 90 32.5 166t106.5 130t192.5 85t290.5 31q86 0 163 -5.5t143 -5.5q53 0 118.5 1.5t112.5 7.5q0 -39 -3 -82t-13 -80q-45 -2 -73 -13.5t-42 -37t-18.5 -68.5t-4.5 -108v-1514q-39 0 -83 6t-80 29v1700q-29 8 -58 10l-29 4l3 -1749q-43 0 -84 5t-80 28v1065h-2 q-25 -2 -58 -2q-133 0 -233.5 19.5t-167 65.5t-100 122.5t-33.5 189.5zM477 1006q0 -72 19.5 -121t50.5 -82t67 -47q29 -10 56 -15v496q-90 -10 -133 -49q-60 -53 -60 -182z" />
<glyph unicode="&#xb7;" horiz-adv-x="665" d="M123 565q0 98 58.5 153.5t140.5 55.5q43 0 82.5 -14.5t70.5 -41t49.5 -61t18.5 -77.5q0 -33 -10.5 -70t-35 -68.5t-64.5 -52t-99 -20.5q-104 0 -157.5 55t-53.5 141z" />
<glyph unicode="&#xb8;" d="M424 -391q66 0 113 22.5t47 67.5q0 35 -34 55.5t-85 20.5q-37 43 -37 96l133 162h152l-92 -121q90 -14 136 -69.5t46 -125.5q0 -104 -93.5 -158.5t-267.5 -54.5q-10 23 -14 52.5t-4 52.5z" />
<glyph unicode="&#xb9;" horiz-adv-x="727" d="M109 731q0 92 14 152q63 6 81.5 34.5t18.5 106.5v129q0 78 -20.5 114t-81.5 42q-8 37 -10 74.5t-2 78.5q16 -2 52 -3l75.5 -2t76.5 -1h113q35 0 73 1l72 2q35 1 56 3q0 -39 -2 -76.5t-11 -76.5q-61 -6 -81.5 -42t-20.5 -114v-129q0 -78 18.5 -106.5t81.5 -34.5 q14 -59 15 -152q-25 2 -59 3l-69 2q-36 1 -71 1h-115q-35 0 -71 -1l-73 -2q-35 -1 -60 -3z" />
<glyph unicode="&#x2071;" horiz-adv-x="727" d="M109 731q0 92 14 152q63 6 81.5 34.5t18.5 106.5v129q0 78 -20.5 114t-81.5 42q-8 37 -10 74.5t-2 78.5q16 -2 52 -3l75.5 -2t76.5 -1h113q35 0 73 1l72 2q35 1 56 3q0 -39 -2 -76.5t-11 -76.5q-61 -6 -81.5 -42t-20.5 -114v-129q0 -78 18.5 -106.5t81.5 -34.5 q14 -59 15 -152q-25 2 -59 3l-69 2q-36 1 -71 1h-115q-35 0 -71 -1l-73 -2q-35 -1 -60 -3z" />
<glyph unicode="&#xba;" horiz-adv-x="927" d="M61 1083q0 100 32 173t86 120t128 69.5t158 22.5q100 0 174 -26.5t123 -73.5t72.5 -112.5t23.5 -143.5q0 -186 -107.5 -283.5t-299.5 -97.5q-199 0 -294.5 94t-95.5 258zM356 1145q0 -57 7.5 -110.5t22.5 -93.5t37.5 -63.5t55.5 -23.5q39 0 60.5 59.5t21.5 143.5 q0 154 -38 224.5t-81 70.5t-64.5 -60.5t-21.5 -146.5z" />
<glyph unicode="&#xbb;" horiz-adv-x="1146" d="M123 768q23 18 72 37.5t102 28.5l57 -66l49 -51l53 -50l66 -61q20 -47 24.5 -91t4.5 -91l-73 -78l-65 -73l-63 -71l-63 -75q-47 23 -89 60.5t-63 72.5q47 61 79 110.5t62 114.5q-33 72 -67.5 135.5t-85.5 147.5zM541 795q27 20 70.5 34.5t90.5 14.5l69 -66l58 -55 q29 -27 62 -54l76 -65q20 -39 27 -78t7 -86l-167 -168l-154 -163q-41 20 -75 50.5t-54 71.5q53 68 94 127.5t78 120.5l-84 157q-41 73 -98 159z" />
<glyph unicode="&#xbc;" horiz-adv-x="1837" d="M207 1122q0 41 -4 66.5t-19.5 40t-44 21.5t-75.5 12q0 31 3 67.5t13 65.5q104 12 194.5 38.5t163.5 59.5q35 -10 47.5 -32.5t12.5 -76.5v-499q0 -49 4 -79t16.5 -46.5t35 -22.5t58.5 -10q10 -23 11.5 -67t1.5 -91q-31 2 -69 3l-79 2q-41 1 -80 1h-71q-70 0 -134.5 -2 t-115.5 -4q0 41 3 80t11 78q39 4 62.5 10t36 20.5t15.5 42t3 74.5v248zM477 -18q-25 0 -51.5 4t-51 11t-45 17.5t-28.5 22.5l1052 1431q47 0 95.5 -17t76.5 -42zM1610 471h78q37 0 55.5 -10t32.5 -37q-14 -27 -23.5 -82t-13.5 -94h-127q2 -16 4 -27q6 -29 18.5 -44t33 -20 t49.5 -5q10 -41 11 -78t1 -78q-29 2 -69 3t-81 1h-266q-37 0 -72.5 -1t-62.5 -3q0 43 2 82t12 74q35 2 60.5 7t42 20.5t22.5 43.5l4 21h-53q-197 -4 -287 -11q-8 8 -17 25.5t-16.5 38t-12.5 41t-5 35.5l137 157l122 145l113 139l112 142q25 0 54.5 -1t57 -3t51 -5t33.5 -9 v-467zM1326 471v182l-140 -182h140z" />
<glyph unicode="&#xbd;" horiz-adv-x="1994" d="M207 1122q0 41 -4 66.5t-19.5 40t-44 21.5t-75.5 12q0 31 3 67.5t13 65.5q104 12 194.5 38.5t163.5 59.5q35 -10 47.5 -32.5t12.5 -76.5v-499q0 -49 4 -79t16.5 -46.5t35 -22.5t58.5 -10q10 -23 11.5 -67t1.5 -91q-31 2 -69 3l-79 2q-41 1 -80 1h-71q-70 0 -134.5 -2 t-115.5 -4q0 41 3 80t11 78q39 4 62.5 10t36 20.5t15.5 42t3 74.5v248zM498 -18q-25 0 -51.5 4t-51 11t-45 17.5t-28.5 22.5l1052 1431q47 0 95.5 -17t76.5 -42zM1570 920q145 0 232.5 -49.5t87.5 -165.5q0 -88 -58.5 -162t-156.5 -142q-47 -33 -81 -60l-69 -58h134 q63 0 83.5 14t24.5 63q43 0 83 -2t69 -12v-82q0 -43 1 -85t4 -77.5t9 -56.5q-14 -25 -41 -36t-61 -11h-41q-31 0 -70 1t-78 1h-63q-90 0 -163 -1t-161 -1q-47 66 -47 170q27 33 60 68l53 53l77 78q92 92 128 160.5t36 134.5q0 131 -63 131q-16 0 -32.5 -9.5t-31 -33 t-25 -64.5t-14.5 -104q-61 0 -97 5t-81 23q12 57 17.5 120t3.5 124q59 35 139.5 50.5t191.5 15.5z" />
<glyph unicode="&#xbe;" horiz-adv-x="1777" d="M387 1483q98 0 155.5 2t88.5 2q10 -12 17.5 -41t7.5 -57q-111 -133 -211 -279q53 -6 99 -18.5t81 -37t55.5 -66.5t20.5 -107q0 -74 -29 -134.5t-82 -101.5t-127 -63.5t-162 -22.5q-98 0 -155.5 24.5t-79.5 45.5q-4 66 22 104q20 -10 63.5 -25.5t104.5 -15.5q74 0 111 35 t37 94q0 47 -31 76t-72 29q-39 0 -55 -8q-25 25 -36 55.5t-15 58.5q45 45 84 92t80 107h-66q-35 0 -61.5 -16.5t-44.5 -63.5q-35 0 -65 4t-52 19q6 27 11 68.5t9 87.5t5 88t1 69q39 -2 117 -3t174 -1zM424 -18q-25 0 -51.5 4t-51 11t-45 17.5t-28.5 22.5l1052 1431 q47 0 95.5 -17t76.5 -42zM1550 471h78q37 0 55.5 -10t32.5 -37q-14 -27 -23.5 -82t-13.5 -94h-127q2 -16 4 -27q6 -29 18.5 -44t33 -20t49.5 -5q10 -41 11 -78t1 -78q-29 2 -69 3t-81 1h-266q-37 0 -72.5 -1t-62.5 -3q0 43 2 82t12 74q35 2 60.5 7t42 20.5t22.5 43.5l4 21 h-53q-197 -4 -287 -11q-8 8 -17 25.5t-16.5 38t-12.5 41t-5 35.5l137 157l122 145l113 139l112 142q25 0 54.5 -1t57 -3t51 -5t33.5 -9v-467zM1266 471v182l-140 -182h140z" />
<glyph unicode="&#xbf;" horiz-adv-x="1099" d="M201 -256q0 72 24.5 123t61.5 91t81 72.5t80.5 68.5t61.5 80t25 106q0 47 -7.5 84t-23.5 84q35 18 87 27t97 9q25 -14 47.5 -40.5t40 -61.5t26.5 -75t9 -79q0 -61 -16.5 -105t-41 -78t-53 -61.5t-53 -56t-41 -63.5t-16.5 -84q0 -72 27.5 -101.5t64.5 -29.5q20 0 37.5 11 t32 41t25.5 82t22 134q68 0 116 -11t93 -34q-6 -72 -7.5 -147.5t7.5 -141.5q-72 -33 -177.5 -61.5t-246.5 -28.5q-199 0 -291 65.5t-92 180.5zM350 727q0 92 56.5 159.5t166.5 67.5q104 0 163 -58t59 -159q0 -100 -66.5 -156.5t-167.5 -56.5q-49 0 -88 17.5t-66.5 46 t-42 64.5t-14.5 75z" />
<glyph unicode="&#xc0;" horiz-adv-x="1468" d="M20 -6q0 47 4.5 84t16.5 76q25 4 44 15t37.5 33.5t38 60.5t44.5 97l434 1024q41 10 75 11.5t81 1.5l454 -998q37 -80 61.5 -127t44 -72.5t37 -34.5t40.5 -11q8 -27 12 -69t4 -91q-31 2 -76 3l-91 2q-46 1 -89 1h-139q-47 0 -102 -1l-105 -2q-51 -1 -80 -3q0 57 4 93 t12 67q68 16 81 51q4 11 4 24q0 32 -21 80l-15 31q-119 -2 -241 -6q-111 -4 -225 -15l-3 -8q-10 -23 -11 -48t8.5 -47.5t29 -39t51.5 -22.5q8 -33 12.5 -72t4.5 -88q-18 2 -48 3t-64 2t-69 1h-59q-51 0 -108.5 -1t-88.5 -5zM424 473h348l-76 174q-55 123 -88 232l-16 51 l-17 -53q-33 -106 -81 -230zM357 1860q74 31 159.5 48t176.5 17q23 -76 61.5 -169t79.5 -171q-39 -18 -88 -27t-121 -9q-57 80 -116.5 153.5t-151.5 157.5z" />
<glyph unicode="&#xc1;" horiz-adv-x="1468" d="M20 -6q0 47 4.5 84t16.5 76q25 4 44 15t37.5 33.5t38 60.5t44.5 97l434 1024q41 10 75 11.5t81 1.5l454 -998q37 -80 61.5 -127t44 -72.5t37 -34.5t40.5 -11q8 -27 12 -69t4 -91q-31 2 -76 3l-91 2q-46 1 -89 1h-139q-47 0 -102 -1l-105 -2q-51 -1 -80 -3q0 57 4 93 t12 67q68 16 81 51q4 11 4 24q0 32 -21 80l-15 31q-119 -2 -241 -6q-111 -4 -225 -15l-3 -8q-10 -23 -11 -48t8.5 -47.5t29 -39t51.5 -22.5q8 -33 12.5 -72t4.5 -88q-18 2 -48 3t-64 2t-69 1h-59q-51 0 -108.5 -1t-88.5 -5zM424 473h348l-76 174q-55 123 -88 232l-16 51 l-17 -53q-33 -106 -81 -230zM588 1583q47 92 75.5 164t49.5 156q41 14 96 20.5t113 6.5q35 0 68.5 -2.5t62.5 -6.5q-80 -96 -147.5 -190t-119.5 -189q-55 0 -111 12.5t-87 28.5z" />
<glyph unicode="&#xc2;" horiz-adv-x="1468" d="M20 -6q0 47 4.5 84t16.5 76q25 4 44 15t37.5 33.5t38 60.5t44.5 97l434 1024q41 10 75 11.5t81 1.5l454 -998q37 -80 61.5 -127t44 -72.5t37 -34.5t40.5 -11q8 -27 12 -69t4 -91q-31 2 -76 3l-91 2q-46 1 -89 1h-139q-47 0 -102 -1l-105 -2q-51 -1 -80 -3q0 57 4 93 t12 67q68 16 81 51q4 11 4 24q0 32 -21 80l-15 31q-119 -2 -241 -6q-111 -4 -225 -15l-3 -8q-10 -23 -11 -48t8.5 -47.5t29 -39t51.5 -22.5q8 -33 12.5 -72t4.5 -88q-18 2 -48 3t-64 2t-69 1h-59q-51 0 -108.5 -1t-88.5 -5zM424 473h348l-76 174q-55 123 -88 232l-16 51 l-17 -53q-33 -106 -81 -230zM297 1628q88 59 181 133t163 146q37 14 84 22.5t94 8.5q63 -76 144 -156t184 -166q-33 -37 -76 -64.5t-108 -39.5q-59 43 -132 89t-143 81q-29 -14 -63 -36l-71 -44l-71 -46q-35 -24 -59 -44q-49 10 -83 45.5t-44 70.5z" />
<glyph unicode="&#xc3;" horiz-adv-x="1468" d="M20 -6q0 47 4.5 84t16.5 76q25 4 44 15t37.5 33.5t38 60.5t44.5 97l434 1024q41 10 75 11.5t81 1.5l454 -998q37 -80 61.5 -127t44 -72.5t37 -34.5t40.5 -11q8 -27 12 -69t4 -91q-31 2 -76 3l-91 2q-46 1 -89 1h-139q-47 0 -102 -1l-105 -2q-51 -1 -80 -3q0 57 4 93 t12 67q68 16 81 51q4 11 4 24q0 32 -21 80l-15 31q-119 -2 -241 -6q-111 -4 -225 -15l-3 -8q-10 -23 -11 -48t8.5 -47.5t29 -39t51.5 -22.5q8 -33 12.5 -72t4.5 -88q-18 2 -48 3t-64 2t-69 1h-59q-51 0 -108.5 -1t-88.5 -5zM424 473h348l-76 174q-55 123 -88 232l-16 51 l-17 -53q-33 -106 -81 -230zM264 1610q47 76 92 126t87 77.5t80 39t73 11.5q49 0 90 -13.5t76 -28.5l69.5 -28.5t71.5 -13.5q57 0 99 18.5t73 49.5q33 -20 56.5 -47t33.5 -60q-66 -133 -135.5 -199.5t-165.5 -66.5q-53 0 -94 14.5t-76 30.5t-70.5 30.5t-78.5 14.5 q-59 0 -109.5 -21.5t-97.5 -62.5q-33 29 -50.5 58.5t-23.5 70.5z" />
<glyph unicode="&#xc4;" horiz-adv-x="1468" d="M20 -6q0 47 4.5 84t16.5 76q25 4 44 15t37.5 33.5t38 60.5t44.5 97l434 1024q41 10 75 11.5t81 1.5l454 -998q37 -80 61.5 -127t44 -72.5t37 -34.5t40.5 -11q8 -27 12 -69t4 -91q-31 2 -76 3l-91 2q-46 1 -89 1h-139q-47 0 -102 -1l-105 -2q-51 -1 -80 -3q0 57 4 93 t12 67q68 16 81 51q4 11 4 24q0 32 -21 80l-15 31q-119 -2 -241 -6q-111 -4 -225 -15l-3 -8q-10 -23 -11 -48t8.5 -47.5t29 -39t51.5 -22.5q8 -33 12.5 -72t4.5 -88q-18 2 -48 3t-64 2t-69 1h-59q-51 0 -108.5 -1t-88.5 -5zM424 473h348l-76 174q-55 123 -88 232l-16 51 l-17 -53q-33 -106 -81 -230zM256 1657q0 37 11 70t34.5 58.5t59.5 40.5t87 15q104 0 151.5 -51t47.5 -129q0 -72 -54.5 -120t-138.5 -48q-90 0 -144 48t-54 116zM774 1678q0 78 54 120.5t143 42.5q86 0 142 -47t56 -116q0 -37 -10 -70t-32.5 -58.5t-58.5 -41t-87 -15.5 q-104 0 -155.5 51.5t-51.5 133.5z" />
<glyph unicode="&#xc5;" horiz-adv-x="1468" d="M20 -6q0 47 4.5 84t16.5 76q25 4 44 15t37.5 33.5t38 60.5t44.5 97l434 1024q41 10 75 11.5t81 1.5l454 -998q37 -80 61.5 -127t44 -72.5t37 -34.5t40.5 -11q8 -27 12 -69t4 -91q-31 2 -76 3l-91 2q-46 1 -89 1h-139q-47 0 -102 -1l-105 -2q-51 -1 -80 -3q0 57 4 93 t12 67q68 16 81 51q4 11 4 24q0 32 -21 80l-15 31q-119 -2 -241 -6q-111 -4 -225 -15l-3 -8q-10 -23 -11 -48t8.5 -47.5t29 -39t51.5 -22.5q8 -33 12.5 -72t4.5 -88q-18 2 -48 3t-64 2t-69 1h-59q-51 0 -108.5 -1t-88.5 -5zM424 473h348l-76 174q-55 123 -88 232l-16 51 l-17 -53q-33 -106 -81 -230zM432 1725q0 104 82 164.5t209 60.5q57 0 106.5 -12.5t86 -38t57 -64.5t20.5 -94q0 -102 -79.5 -164.5t-213.5 -62.5q-115 0 -191.5 55.5t-76.5 155.5zM645 1737q0 -43 19.5 -71.5t54.5 -28.5q27 0 45 23.5t18 64.5q0 37 -17 74.5t-58 37.5 q-29 0 -45.5 -26.5t-16.5 -73.5z" />
<glyph unicode="&#xc6;" horiz-adv-x="2183" d="M100 -6q0 41 5.5 87t15.5 73q37 4 62.5 13t48 26.5t44 46t46.5 71.5l436 752q47 84 32.5 122t-92.5 46q-4 8 -8 27.5t-8 43t-7 47t-3 40.5q39 0 90 -1.5t107.5 -2.5t113.5 -1h598q90 0 162 1t128 2.5t105 3.5q0 -100 13.5 -199.5t29.5 -165.5q-12 -10 -37.5 -16 t-56.5 -11.5t-61.5 -7.5t-51.5 -2q-10 55 -26.5 100.5t-48 76t-81.5 48t-126 17.5h-100v-510h22q43 0 71.5 5t45 20.5t23.5 46t7 84.5q35 12 86.5 19t92.5 7q-2 -25 -3 -48.5t-2 -51t-1 -62.5v-82q0 -70 1 -135t5 -110q-41 0 -93.5 2t-82.5 16q-4 49 -10.5 80t-23 47 t-44 21.5t-72.5 5.5h-22v-193q0 -74 8 -120t26.5 -72.5t49 -36.5t75.5 -10h35q51 0 88 12t67.5 44t57.5 85t57 137q55 -10 117 -27.5t88 -42.5q-23 -72 -40 -170t-23 -196q-45 0 -134.5 1t-190.5 2t-200 1h-120q-104 0 -209 -1t-192 -2t-122 -3q0 47 3 86t14 74 q41 2 67.5 12t42 34.5t20.5 67.5t5 115v195q-43 -2 -82 -5q-109 -4 -193 -12q-59 -6 -100 -12l-39 -68l-74 -133q-47 -90 -29.5 -136t89.5 -58q12 -29 16 -71t4 -89q-25 2 -55 3l-63 2q-33 1 -66 1h-123q-39 0 -80 -1t-76 -2t-49 -3zM743 721h277v385q0 31 2 72l2 36 q-4 -10 -10 -20q-16 -33 -41 -76l-125 -215z" />
<glyph unicode="&#xc7;" horiz-adv-x="1298" d="M72 700q0 174 59 305.5t155.5 219.5t221.5 133t258 45q125 0 238.5 -27.5t222.5 -79.5q-12 -72 -17.5 -151.5t-5.5 -165.5q-14 -8 -38.5 -13t-53.5 -8.5t-57.5 -5.5t-53.5 -2q-2 88 -18 144.5t-47 90.5t-72 47t-92 13q-76 0 -129 -41t-87 -110.5t-49 -158.5t-15 -183 q0 -123 23.5 -228.5t69.5 -183.5t114.5 -122t158.5 -44q88 0 181.5 24.5t160.5 61.5q23 -20 37 -50t20 -63q-37 -33 -87 -62.5t-110.5 -53t-129.5 -37.5q-61 -10 -125 -12l-53 -70q90 -14 136 -69.5t46 -125.5q0 -104 -93 -158.5t-268 -54.5q-10 23 -14 52.5t-4 52.5 q66 0 113 22.5t47 67.5q0 35 -34 55.5t-85 20.5q-37 43 -37 96l98 119q-90 12 -170 43q-131 53 -223 148t-142 227t-50 292z" />
<glyph unicode="&#xc8;" horiz-adv-x="1323" d="M297 1860q74 31 159.5 48t176.5 17q23 -76 61.5 -169t79.5 -171q-39 -18 -88 -27t-121 -9q-57 80 -116.5 153.5t-151.5 157.5zM61 -6q0 45 4.5 88t12.5 72q41 2 67.5 12t42 34.5t20.5 67.5t5 115v623q0 70 -5 110.5t-20.5 64t-42 34t-69.5 16.5q-8 31 -11.5 78t-3.5 82 q45 -2 114 -3.5t144.5 -2.5t149.5 -1h334q88 0 154.5 1t117.5 2.5t94 3.5q0 -39 3.5 -87.5t9.5 -98.5t13 -96t17 -83q-41 -16 -88 -26.5t-118 -10.5q-10 55 -26.5 100.5t-48.5 76t-82 48t-126 17.5h-100v-465q51 0 82.5 8t50 24.5t27 44t8.5 68.5q35 14 84 19.5t96 5.5 q-4 -49 -6 -105.5t-2 -134.5q0 -86 2 -142t6 -101q-57 0 -99.5 4t-76.5 16q-8 84 -44 111.5t-128 27.5v-219q0 -72 7 -118t25.5 -72.5t49 -37.5t77.5 -11h35q104 0 164.5 65.5t101.5 212.5q68 -6 125.5 -25.5t83.5 -44.5q-23 -72 -39 -169t-24 -197q-45 0 -110.5 1t-138.5 2 t-149 1h-137q-53 0 -145 -1l-190 -2q-97 -1 -180 -2t-118 -1z" />
<glyph unicode="&#xc9;" horiz-adv-x="1323" d="M547 1583q47 92 75.5 164t49.5 156q41 14 96 20.5t113 6.5q35 0 68.5 -2.5t62.5 -6.5q-80 -96 -147.5 -190t-119.5 -189q-55 0 -111 12.5t-87 28.5zM61 -6q0 45 4.5 88t12.5 72q41 2 67.5 12t42 34.5t20.5 67.5t5 115v623q0 70 -5 110.5t-20.5 64t-42 34t-69.5 16.5 q-8 31 -11.5 78t-3.5 82q45 -2 114 -3.5t144.5 -2.5t149.5 -1h334q88 0 154.5 1t117.5 2.5t94 3.5q0 -39 3.5 -87.5t9.5 -98.5t13 -96t17 -83q-41 -16 -88 -26.5t-118 -10.5q-10 55 -26.5 100.5t-48.5 76t-82 48t-126 17.5h-100v-465q51 0 82.5 8t50 24.5t27 44t8.5 68.5 q35 14 84 19.5t96 5.5q-4 -49 -6 -105.5t-2 -134.5q0 -86 2 -142t6 -101q-57 0 -99.5 4t-76.5 16q-8 84 -44 111.5t-128 27.5v-219q0 -72 7 -118t25.5 -72.5t49 -37.5t77.5 -11h35q104 0 164.5 65.5t101.5 212.5q68 -6 125.5 -25.5t83.5 -44.5q-23 -72 -39 -169t-24 -197 q-45 0 -110.5 1t-138.5 2t-149 1h-137q-53 0 -145 -1l-190 -2q-97 -1 -180 -2t-118 -1z" />
<glyph unicode="&#xca;" horiz-adv-x="1323" d="M211 1628q88 59 181 133t163 146q37 14 84 22.5t94 8.5q63 -76 144 -156t184 -166q-33 -37 -76 -64.5t-108 -39.5q-59 43 -132 89t-143 81q-29 -14 -63 -36l-71 -44l-71 -46q-35 -24 -59 -44q-49 10 -83 45.5t-44 70.5zM61 -6q0 45 4.5 88t12.5 72q41 2 67.5 12t42 34.5 t20.5 67.5t5 115v623q0 70 -5 110.5t-20.5 64t-42 34t-69.5 16.5q-8 31 -11.5 78t-3.5 82q45 -2 114 -3.5t144.5 -2.5t149.5 -1h334q88 0 154.5 1t117.5 2.5t94 3.5q0 -39 3.5 -87.5t9.5 -98.5t13 -96t17 -83q-41 -16 -88 -26.5t-118 -10.5q-10 55 -26.5 100.5t-48.5 76 t-82 48t-126 17.5h-100v-465q51 0 82.5 8t50 24.5t27 44t8.5 68.5q35 14 84 19.5t96 5.5q-4 -49 -6 -105.5t-2 -134.5q0 -86 2 -142t6 -101q-57 0 -99.5 4t-76.5 16q-8 84 -44 111.5t-128 27.5v-219q0 -72 7 -118t25.5 -72.5t49 -37.5t77.5 -11h35q104 0 164.5 65.5 t101.5 212.5q68 -6 125.5 -25.5t83.5 -44.5q-23 -72 -39 -169t-24 -197q-45 0 -110.5 1t-138.5 2t-149 1h-137q-53 0 -145 -1l-190 -2q-97 -1 -180 -2t-118 -1z" />
<glyph unicode="&#xcb;" horiz-adv-x="1323" d="M193 1657q0 37 11 70t34.5 58.5t59.5 40.5t87 15q104 0 151.5 -51t47.5 -129q0 -72 -54.5 -120t-138.5 -48q-90 0 -144 48t-54 116zM711 1678q0 78 54 120.5t143 42.5q86 0 142 -47t56 -116q0 -37 -10 -70t-32.5 -58.5t-58.5 -41t-87 -15.5q-104 0 -155.5 51.5 t-51.5 133.5zM61 -6q0 45 4.5 88t12.5 72q41 2 67.5 12t42 34.5t20.5 67.5t5 115v623q0 70 -5 110.5t-20.5 64t-42 34t-69.5 16.5q-8 31 -11.5 78t-3.5 82q45 -2 114 -3.5t144.5 -2.5t149.5 -1h334q88 0 154.5 1t117.5 2.5t94 3.5q0 -39 3.5 -87.5t9.5 -98.5t13 -96t17 -83 q-41 -16 -88 -26.5t-118 -10.5q-10 55 -26.5 100.5t-48.5 76t-82 48t-126 17.5h-100v-465q51 0 82.5 8t50 24.5t27 44t8.5 68.5q35 14 84 19.5t96 5.5q-4 -49 -6 -105.5t-2 -134.5q0 -86 2 -142t6 -101q-57 0 -99.5 4t-76.5 16q-8 84 -44 111.5t-128 27.5v-219q0 -72 7 -118 t25.5 -72.5t49 -37.5t77.5 -11h35q104 0 164.5 65.5t101.5 212.5q68 -6 125.5 -25.5t83.5 -44.5q-23 -72 -39 -169t-24 -197q-45 0 -110.5 1t-138.5 2t-149 1h-137q-53 0 -145 -1l-190 -2q-97 -1 -180 -2t-118 -1z" />
<glyph unicode="&#xcc;" horiz-adv-x="835" d="M61 -6q0 37 6.5 84t14.5 76q41 2 66.5 12t40 34.5t19.5 67.5t5 115v623q0 70 -5 110.5t-18.5 64t-40 34t-69.5 16.5q-8 31 -13.5 75t-5.5 85q25 -2 72 -3.5t100.5 -2.5t104.5 -1h174q47 0 95 1l92 3q44 1 75 3q0 -41 -2 -80t-16 -80q-43 -4 -68.5 -14.5t-40 -34 t-19.5 -65.5t-5 -111v-623q0 -72 5 -115t20.5 -67.5t42 -34.5t67.5 -12q8 -29 12 -74t4 -86q-47 4 -133 5t-192 1t-211 -1t-177 -5zM35 1860q74 31 159.5 48t176.5 17q23 -76 61.5 -169t79.5 -171q-39 -18 -88 -27t-121 -9q-57 80 -116.5 153.5t-151.5 157.5z" />
<glyph unicode="&#xcd;" horiz-adv-x="835" d="M61 -6q0 37 6.5 84t14.5 76q41 2 66.5 12t40 34.5t19.5 67.5t5 115v623q0 70 -5 110.5t-18.5 64t-40 34t-69.5 16.5q-8 31 -13.5 75t-5.5 85q25 -2 72 -3.5t100.5 -2.5t104.5 -1h174q47 0 95 1l92 3q44 1 75 3q0 -41 -2 -80t-16 -80q-43 -4 -68.5 -14.5t-40 -34 t-19.5 -65.5t-5 -111v-623q0 -72 5 -115t20.5 -67.5t42 -34.5t67.5 -12q8 -29 12 -74t4 -86q-47 4 -133 5t-192 1t-211 -1t-177 -5zM320 1583q47 92 75.5 164t49.5 156q41 14 96 20.5t113 6.5q35 0 68.5 -2.5t62.5 -6.5q-80 -96 -147.5 -190t-119.5 -189q-55 0 -111 12.5 t-87 28.5z" />
<glyph unicode="&#xce;" horiz-adv-x="835" d="M61 -6q0 37 6.5 84t14.5 76q41 2 66.5 12t40 34.5t19.5 67.5t5 115v623q0 70 -5 110.5t-18.5 64t-40 34t-69.5 16.5q-8 31 -13.5 75t-5.5 85q25 -2 72 -3.5t100.5 -2.5t104.5 -1h174q47 0 95 1l92 3q44 1 75 3q0 -41 -2 -80t-16 -80q-43 -4 -68.5 -14.5t-40 -34 t-19.5 -65.5t-5 -111v-623q0 -72 5 -115t20.5 -67.5t42 -34.5t67.5 -12q8 -29 12 -74t4 -86q-47 4 -133 5t-192 1t-211 -1t-177 -5zM12 1628q88 59 181 133t163 146q37 14 84 22.5t94 8.5q63 -76 144 -156t184 -166q-33 -37 -76 -64.5t-108 -39.5q-59 43 -132 89t-143 81 q-29 -14 -63 -36l-71 -44l-71 -46q-35 -24 -59 -44q-49 10 -83 45.5t-44 70.5z" />
<glyph unicode="&#xcf;" horiz-adv-x="835" d="M61 -6q0 37 6.5 84t14.5 76q41 2 66.5 12t40 34.5t19.5 67.5t5 115v623q0 70 -5 110.5t-18.5 64t-40 34t-69.5 16.5q-8 31 -13.5 75t-5.5 85q25 -2 72 -3.5t100.5 -2.5t104.5 -1h174q47 0 95 1l92 3q44 1 75 3q0 -41 -2 -80t-16 -80q-43 -4 -68.5 -14.5t-40 -34 t-19.5 -65.5t-5 -111v-623q0 -72 5 -115t20.5 -67.5t42 -34.5t67.5 -12q8 -29 12 -74t4 -86q-47 4 -133 5t-192 1t-211 -1t-177 -5zM-8 1657q0 37 11 70t34.5 58.5t59.5 40.5t87 15q104 0 151.5 -51t47.5 -129q0 -72 -54.5 -120t-138.5 -48q-90 0 -144 48t-54 116zM510 1678 q0 78 54 120.5t143 42.5q86 0 142 -47t56 -116q0 -37 -10 -70t-32.5 -58.5t-58.5 -41t-87 -15.5q-104 0 -155.5 51.5t-51.5 133.5z" />
<glyph unicode="&#xd0;" horiz-adv-x="1538" d="M39 504q0 59 7 105t20 81h163v316q0 70 -5 110.5t-20.5 64t-42 34t-69.5 16.5q-8 31 -11 78t-3 82q33 -2 78 -3.5t96 -2.5t106 -1h109q49 0 110.5 2.5t143.5 2.5q150 0 284 -25t234 -97.5t159.5 -201.5t59.5 -338q0 -166 -41 -284.5t-107.5 -198.5t-149.5 -129t-166 -74 t-157.5 -33t-125.5 -8q-53 0 -146 -1l-189 -2q-97 -1 -180 -2t-118 -1q0 45 4 88t12 72q41 2 67.5 12t42 34.5t20.5 67.5t5 115v125q-37 0 -77 -2q-50 -2 -113 -2zM639 393q0 -72 7 -118t25.5 -72.5t49.5 -37.5t78 -11q23 0 64.5 14t81.5 68.5t69.5 161t29.5 292.5 q0 164 -26.5 269.5t-71.5 167t-103.5 85t-121.5 23.5q-45 0 -82 -16v-529h276q0 -109 -26 -182q-53 0 -92 1t-76 1h-82v-117z" />
<glyph unicode="&#xd1;" horiz-adv-x="1488" d="M61 0q0 49 3.5 84t13.5 70q47 6 78.5 19t51 45t28 86t8.5 142v689l-29 39q-16 29 -44 40t-93 17q-10 35 -13.5 73.5t-3.5 86.5q20 -2 55.5 -3.5t75 -2.5t78.5 -1h119q33 0 65 1l61 3q30 1 50 3l563 -777v324q0 88 -6 142.5t-25.5 86t-53 45t-89.5 19.5q-10 35 -12 80 t-2 80q20 -2 55 -3.5t74 -2.5t76 -1h63q53 0 117 1t100 6q0 -39 -1 -80t-13 -80q-41 -6 -65.5 -18.5t-39 -43t-19.5 -86t-5 -145.5v-938q-41 -12 -85 -15t-101 -3l-699 944v-480q0 -88 6.5 -142t24.5 -86t50 -45t81 -19q10 -35 12 -77t2 -83q-23 2 -53.5 3t-65 2t-69.5 1 h-59q-27 0 -65 1t-77 1h-71q-34 0 -52 -2zM295 1610q47 76 92 126t87 77.5t80 39t73 11.5q49 0 90 -13.5t76 -28.5l69.5 -28.5t71.5 -13.5q57 0 99 18.5t73 49.5q33 -20 56.5 -47t33.5 -60q-66 -133 -135.5 -199.5t-165.5 -66.5q-53 0 -94 14.5t-76 30.5t-70.5 30.5 t-78.5 14.5q-59 0 -109.5 -21.5t-97.5 -62.5q-33 29 -50.5 58.5t-23.5 70.5z" />
<glyph unicode="&#xd2;" horiz-adv-x="1558" d="M72 698q0 164 52 294t145 221.5t223.5 140.5t285.5 49q160 0 291 -48t224 -136.5t143.5 -214t50.5 -279.5q0 -166 -50.5 -302t-142.5 -234.5t-223 -152.5t-293 -54q-166 0 -297 52t-222 146t-139 226t-48 292zM492 748q0 -123 18 -234t56 -193.5t96.5 -131t140.5 -48.5 q63 0 112.5 38t83 108.5t51 171t17.5 223.5q0 117 -21.5 220.5t-62.5 180t-99.5 121.5t-131.5 45q-125 0 -192.5 -129.5t-67.5 -371.5zM439 1860q74 31 159.5 48t176.5 17q23 -76 61.5 -169t79.5 -171q-39 -18 -88 -27t-121 -9q-57 80 -116.5 153.5t-151.5 157.5z" />
<glyph unicode="&#xd3;" horiz-adv-x="1558" d="M72 698q0 164 52 294t145 221.5t223.5 140.5t285.5 49q160 0 291 -48t224 -136.5t143.5 -214t50.5 -279.5q0 -166 -50.5 -302t-142.5 -234.5t-223 -152.5t-293 -54q-166 0 -297 52t-222 146t-139 226t-48 292zM492 748q0 -123 18 -234t56 -193.5t96.5 -131t140.5 -48.5 q63 0 112.5 38t83 108.5t51 171t17.5 223.5q0 117 -21.5 220.5t-62.5 180t-99.5 121.5t-131.5 45q-125 0 -192.5 -129.5t-67.5 -371.5zM729 1583q47 92 75.5 164t49.5 156q41 14 96 20.5t113 6.5q35 0 68.5 -2.5t62.5 -6.5q-80 -96 -147.5 -190t-119.5 -189q-55 0 -111 12.5 t-87 28.5z" />
<glyph unicode="&#xd4;" horiz-adv-x="1558" d="M72 698q0 164 52 294t145 221.5t223.5 140.5t285.5 49q160 0 291 -48t224 -136.5t143.5 -214t50.5 -279.5q0 -166 -50.5 -302t-142.5 -234.5t-223 -152.5t-293 -54q-166 0 -297 52t-222 146t-139 226t-48 292zM492 748q0 -123 18 -234t56 -193.5t96.5 -131t140.5 -48.5 q63 0 112.5 38t83 108.5t51 171t17.5 223.5q0 117 -21.5 220.5t-62.5 180t-99.5 121.5t-131.5 45q-125 0 -192.5 -129.5t-67.5 -371.5zM352 1628q88 59 181 133t163 146q37 14 84 22.5t94 8.5q63 -76 144 -156t184 -166q-33 -37 -76 -64.5t-108 -39.5q-59 43 -132 89 t-143 81q-29 -14 -63 -36l-71 -44l-71 -46q-35 -24 -59 -44q-49 10 -83 45.5t-44 70.5z" />
<glyph unicode="&#xd5;" horiz-adv-x="1558" d="M72 698q0 164 52 294t145 221.5t223.5 140.5t285.5 49q160 0 291 -48t224 -136.5t143.5 -214t50.5 -279.5q0 -166 -50.5 -302t-142.5 -234.5t-223 -152.5t-293 -54q-166 0 -297 52t-222 146t-139 226t-48 292zM492 748q0 -123 18 -234t56 -193.5t96.5 -131t140.5 -48.5 q63 0 112.5 38t83 108.5t51 171t17.5 223.5q0 117 -21.5 220.5t-62.5 180t-99.5 121.5t-131.5 45q-125 0 -192.5 -129.5t-67.5 -371.5zM381 1610q47 76 92 126t87 77.5t80 39t73 11.5q49 0 90 -13.5t76 -28.5l69.5 -28.5t71.5 -13.5q57 0 99 18.5t73 49.5q33 -20 56.5 -47 t33.5 -60q-66 -133 -135.5 -199.5t-165.5 -66.5q-53 0 -94 14.5t-76 30.5t-70.5 30.5t-78.5 14.5q-59 0 -109.5 -21.5t-97.5 -62.5q-33 29 -50.5 58.5t-23.5 70.5z" />
<glyph unicode="&#xd6;" horiz-adv-x="1558" d="M72 698q0 164 52 294t145 221.5t223.5 140.5t285.5 49q160 0 291 -48t224 -136.5t143.5 -214t50.5 -279.5q0 -166 -50.5 -302t-142.5 -234.5t-223 -152.5t-293 -54q-166 0 -297 52t-222 146t-139 226t-48 292zM492 748q0 -123 18 -234t56 -193.5t96.5 -131t140.5 -48.5 q63 0 112.5 38t83 108.5t51 171t17.5 223.5q0 117 -21.5 220.5t-62.5 180t-99.5 121.5t-131.5 45q-125 0 -192.5 -129.5t-67.5 -371.5zM309 1657q0 37 11 70t34.5 58.5t59.5 40.5t87 15q104 0 151.5 -51t47.5 -129q0 -72 -54.5 -120t-138.5 -48q-90 0 -144 48t-54 116z M827 1678q0 78 54 120.5t143 42.5q86 0 142 -47t56 -116q0 -37 -10 -70t-32.5 -58.5t-58.5 -41t-87 -15.5q-104 0 -155.5 51.5t-51.5 133.5z" />
<glyph unicode="&#xd7;" horiz-adv-x="1345" d="M88 907q35 33 81 54.5t89 21.5l399 -377l359 381q53 0 110.5 -16.5t77.5 -38.5l-136 -138l-155 -163l-133 -139l461 -433q-27 -33 -76 -55t-96 -22l-130 127l-167 159l-104 101l-80 -84l-151 -162l-128 -141q-51 -2 -106.5 15t-77.5 46l418 442l-144 136l-171 159z" />
<glyph unicode="&#xd8;" horiz-adv-x="1558" d="M72 698q0 164 52 294t145 221.5t223.5 140.5t285.5 49q160 0 291 -49q57 -20 109 -49l104 129q59 0 118.5 -13.5t94.5 -36.5l-166 -204q68 -76 107 -176q51 -125 51 -279q0 -166 -50.5 -302t-142.5 -234.5t-223 -152.5t-293 -54q-166 0 -297 51q-31 12 -59 26l-94 -112 q-68 0 -124.5 11t-88.5 34l151 180l-8 8q-90 94 -138 226t-48 292zM492 748q0 -123 18 -234q2 -20 6 -39l469 602l-2 4q-41 78 -99.5 123t-131.5 45q-125 0 -192.5 -129.5t-67.5 -371.5zM598 260q29 -41 64 -72q59 -47 141 -47q63 0 112.5 38t83 108.5t51 171t17.5 223.5 q0 86 -12 166z" />
<glyph unicode="&#xd9;" horiz-adv-x="1406" d="M41 1391q41 -4 118 -5.5t160 -1.5h103q63 0 126.5 1t118 2.5t78.5 3.5q0 -49 -2 -87t-10 -73q-41 -6 -66.5 -17.5t-40 -36t-19.5 -68.5t-5 -114v-471q0 -193 56.5 -285t172.5 -92q47 0 95.5 20.5t81.5 68.5q27 39 42 116.5t15 235.5v368q0 76 -7 126.5t-22.5 81t-42 45 t-63.5 22.5q-12 82 -12 160q20 -2 49.5 -3.5t62.5 -2.5t64 -1h53q59 0 119.5 1t99.5 6q0 -45 -3 -85t-13 -75q-41 -6 -65.5 -19.5t-39 -43t-19.5 -77t-5 -116.5v-408q0 -178 -26 -291.5t-97 -185.5q-63 -59 -153.5 -83.5t-209.5 -24.5q-154 0 -258 28.5t-167.5 90t-90 157.5 t-26.5 231v506q0 72 -6.5 115t-21.5 67.5t-41 36t-67 17.5q-16 70 -16 160zM441 1860q74 31 159.5 48t176.5 17q23 -76 61.5 -169t79.5 -171q-39 -18 -88 -27t-121 -9q-57 80 -116.5 153.5t-151.5 157.5z" />
<glyph unicode="&#xda;" horiz-adv-x="1406" d="M41 1391q41 -4 118 -5.5t160 -1.5h103q63 0 126.5 1t118 2.5t78.5 3.5q0 -49 -2 -87t-10 -73q-41 -6 -66.5 -17.5t-40 -36t-19.5 -68.5t-5 -114v-471q0 -193 56.5 -285t172.5 -92q47 0 95.5 20.5t81.5 68.5q27 39 42 116.5t15 235.5v368q0 76 -7 126.5t-22.5 81t-42 45 t-63.5 22.5q-12 82 -12 160q20 -2 49.5 -3.5t62.5 -2.5t64 -1h53q59 0 119.5 1t99.5 6q0 -45 -3 -85t-13 -75q-41 -6 -65.5 -19.5t-39 -43t-19.5 -77t-5 -116.5v-408q0 -178 -26 -291.5t-97 -185.5q-63 -59 -153.5 -83.5t-209.5 -24.5q-154 0 -258 28.5t-167.5 90t-90 157.5 t-26.5 231v506q0 72 -6.5 115t-21.5 67.5t-41 36t-67 17.5q-16 70 -16 160zM703 1583q47 92 75.5 164t49.5 156q41 14 96 20.5t113 6.5q35 0 68.5 -2.5t62.5 -6.5q-80 -96 -147.5 -190t-119.5 -189q-55 0 -111 12.5t-87 28.5z" />
<glyph unicode="&#xdb;" horiz-adv-x="1406" d="M41 1391q41 -4 118 -5.5t160 -1.5h103q63 0 126.5 1t118 2.5t78.5 3.5q0 -49 -2 -87t-10 -73q-41 -6 -66.5 -17.5t-40 -36t-19.5 -68.5t-5 -114v-471q0 -193 56.5 -285t172.5 -92q47 0 95.5 20.5t81.5 68.5q27 39 42 116.5t15 235.5v368q0 76 -7 126.5t-22.5 81t-42 45 t-63.5 22.5q-12 82 -12 160q20 -2 49.5 -3.5t62.5 -2.5t64 -1h53q59 0 119.5 1t99.5 6q0 -45 -3 -85t-13 -75q-41 -6 -65.5 -19.5t-39 -43t-19.5 -77t-5 -116.5v-408q0 -178 -26 -291.5t-97 -185.5q-63 -59 -153.5 -83.5t-209.5 -24.5q-154 0 -258 28.5t-167.5 90t-90 157.5 t-26.5 231v506q0 72 -6.5 115t-21.5 67.5t-41 36t-67 17.5q-16 70 -16 160zM365 1628q88 59 181 133t163 146q37 14 84 22.5t94 8.5q63 -76 144 -156t184 -166q-33 -37 -76 -64.5t-108 -39.5q-59 43 -132 89t-143 81q-29 -14 -63 -36l-71 -44l-71 -46q-35 -24 -59 -44 q-49 10 -83 45.5t-44 70.5z" />
<glyph unicode="&#xdc;" horiz-adv-x="1406" d="M41 1391q41 -4 118 -5.5t160 -1.5h103q63 0 126.5 1t118 2.5t78.5 3.5q0 -49 -2 -87t-10 -73q-41 -6 -66.5 -17.5t-40 -36t-19.5 -68.5t-5 -114v-471q0 -193 56.5 -285t172.5 -92q47 0 95.5 20.5t81.5 68.5q27 39 42 116.5t15 235.5v368q0 76 -7 126.5t-22.5 81t-42 45 t-63.5 22.5q-12 82 -12 160q20 -2 49.5 -3.5t62.5 -2.5t64 -1h53q59 0 119.5 1t99.5 6q0 -45 -3 -85t-13 -75q-41 -6 -65.5 -19.5t-39 -43t-19.5 -77t-5 -116.5v-408q0 -178 -26 -291.5t-97 -185.5q-63 -59 -153.5 -83.5t-209.5 -24.5q-154 0 -258 28.5t-167.5 90t-90 157.5 t-26.5 231v506q0 72 -6.5 115t-21.5 67.5t-41 36t-67 17.5q-16 70 -16 160zM295 1657q0 37 11 70t34.5 58.5t59.5 40.5t87 15q104 0 151.5 -51t47.5 -129q0 -72 -54.5 -120t-138.5 -48q-90 0 -144 48t-54 116zM813 1678q0 78 54 120.5t143 42.5q86 0 142 -47t56 -116 q0 -37 -10 -70t-32.5 -58.5t-58.5 -41t-87 -15.5q-104 0 -155.5 51.5t-51.5 133.5z" />
<glyph unicode="&#xdd;" horiz-adv-x="1269" d="M20 1389q37 -2 84.5 -3.5t94.5 -1.5h336q49 0 96 1t78 4q0 -53 -4.5 -88t-10.5 -70q-33 -4 -47 -17.5t-16 -33t6 -44t20 -51.5q33 -68 74 -170l57 -141q27 72 54 135q39 90 80 174q20 41 19 73q0 15 -4 29q-13 42 -71 46q-10 35 -14 69.5t-4 88.5q55 -4 102 -5h203 q47 0 96 5q0 -53 -5 -91t-13 -67q-18 -4 -33.5 -11.5t-31 -24.5t-35 -50t-46.5 -86l-233 -471v-182q0 -76 7 -123t28.5 -75t61.5 -39t106 -15q14 -43 17 -77t3 -83q-90 4 -205.5 5t-232.5 1t-228.5 -2t-207.5 -4q2 45 6 85t18 75q74 6 117 15t65.5 35.5t28.5 74t6 129.5v190 l-270 512q-37 72 -68.5 94.5t-66.5 26.5q-10 35 -13.5 71t-3.5 87zM635 1583q47 92 75.5 164t49.5 156q41 14 96 20.5t113 6.5q35 0 68.5 -2.5t62.5 -6.5q-80 -96 -147.5 -190t-119.5 -189q-55 0 -111 12.5t-87 28.5z" />
<glyph unicode="&#xde;" horiz-adv-x="1415" d="M63 -6q0 37 6.5 84t14.5 76q41 2 66.5 12t40 34.5t19.5 67.5t5 115v623q0 70 -5 110.5t-18.5 64t-40 34t-69.5 16.5q-8 31 -13.5 75t-5.5 85q25 -2 72 -3.5t100.5 -2.5t104.5 -1h174q47 0 95 1l92 3q44 1 75 3q0 -41 -2 -80t-16 -80q-43 -4 -68.5 -14.5t-40 -34 t-20.5 -66.5v-2h76q68 2 172 2q127 0 214 -30.5t141 -83t77.5 -122t23.5 -145.5q0 -96 -33.5 -175t-97 -136t-154 -88t-200.5 -31q-47 0 -80 3t-61 14q-8 47 -3 82.5t21 64.5q12 -2 23.5 -1t21.5 1q33 0 63.5 13.5t55 42t40 73.5t15.5 111q0 104 -54 174.5t-163 70.5 q-20 0 -49 -2q-27 -2 -53 -14v-555q0 -72 5 -115t20.5 -67.5t42 -34.5t67.5 -12q8 -29 12 -74t4 -86q-47 4 -133 5t-192 1t-211 -1t-177 -5z" />
<glyph unicode="&#xdf;" horiz-adv-x="1564" d="M55 754q0 47 4 85t21 79h133v59q0 250 147.5 370.5t421.5 120.5q135 0 231.5 -22.5t158 -59t90 -86t28.5 -100.5q0 -76 -39 -122t-86 -77l-86 -54q-39 -24 -39 -56q0 -35 34 -61.5t86 -52.5l112 -55q59 -30 111.5 -75t86 -108.5t33.5 -153.5q0 -104 -45 -180t-118.5 -125 t-167 -73.5t-187.5 -24.5q-98 0 -183 12t-134 41q4 23 6 63l4 85q2 44 2 86t-2 69q18 6 44 11t53.5 8t54 5.5t44.5 2.5q12 -115 41 -167.5t97 -52.5q35 0 61.5 22.5t26.5 63.5q0 51 -32 88t-79 69t-103.5 62.5t-103.5 69.5t-78.5 90.5t-31.5 124.5q0 59 20.5 97t51 64 t65.5 45.5t65.5 45t51 61t20.5 95.5q0 72 -53 124t-152 52q-37 0 -62.5 -8t-43 -35t-25.5 -78t-8 -135v-1065q-31 0 -63.5 1t-63.5 1h-98q-203 0 -316 -6q0 45 4.5 85t14.5 75q41 2 66.5 11t41 32.5t20.5 63.5t5 104v364q-25 10 -73 17.5t-85 7.5z" />
<glyph unicode="&#xe0;" horiz-adv-x="1198" d="M51 231q0 104 67.5 170t165 105t204 57.5t184.5 28.5q0 70 -10.5 110.5t-36.5 69.5q-18 23 -47 33t-58 10q-70 0 -103.5 -60.5t-43.5 -162.5q-72 0 -123 4t-100 22q3 48 3 98v25q-1 63 -18 142q86 33 197.5 53t242.5 20q164 0 253.5 -24.5t138.5 -77.5q18 -20 35.5 -47 t31 -64.5t20.5 -91t7 -127.5v-135q0 -53 6 -87t18.5 -52.5t30 -24.5t41.5 -6q0 -47 -4 -89t-20 -83q-111 -6 -203 -22.5t-156 -42.5q-41 14 -62.5 37.5t-21.5 64.5q0 25 6 51l9 41q-12 -33 -37 -61q-29 -37 -47 -54q-47 -35 -106.5 -55t-135.5 -20q-328 -1 -328 245z M430 295q0 -49 22.5 -67.5t55.5 -18.5q29 0 57.5 14.5t52 42t39 67.5t15.5 93v35q-135 -27 -188.5 -67t-53.5 -99zM191 1419q74 31 159.5 48t176.5 17q23 -76 61.5 -169t79.5 -171q-39 -18 -88 -27t-121 -9q-57 80 -116.5 153.5t-151.5 157.5z" />
<glyph unicode="&#xe1;" horiz-adv-x="1198" d="M51 231q0 104 67.5 170t165 105t204 57.5t184.5 28.5q0 70 -10.5 110.5t-36.5 69.5q-18 23 -47 33t-58 10q-70 0 -103.5 -60.5t-43.5 -162.5q-72 0 -123 4t-100 22q3 48 3 98v25q-1 63 -18 142q86 33 197.5 53t242.5 20q164 0 253.5 -24.5t138.5 -77.5q18 -20 35.5 -47 t31 -64.5t20.5 -91t7 -127.5v-135q0 -53 6 -87t18.5 -52.5t30 -24.5t41.5 -6q0 -47 -4 -89t-20 -83q-111 -6 -203 -22.5t-156 -42.5q-41 14 -62.5 37.5t-21.5 64.5q0 25 6 51l9 41q-12 -33 -37 -61q-29 -37 -47 -54q-47 -35 -106.5 -55t-135.5 -20q-328 -1 -328 245z M430 295q0 -49 22.5 -67.5t55.5 -18.5q29 0 57.5 14.5t52 42t39 67.5t15.5 93v35q-135 -27 -188.5 -67t-53.5 -99zM484 1142q47 92 75.5 164t49.5 156q41 14 96 20.5t113 6.5q35 0 68.5 -2.5t62.5 -6.5q-80 -96 -147.5 -190t-119.5 -189q-55 0 -111 12.5t-87 28.5z" />
<glyph unicode="&#xe2;" horiz-adv-x="1198" d="M51 231q0 104 67.5 170t165 105t204 57.5t184.5 28.5q0 70 -10.5 110.5t-36.5 69.5q-18 23 -47 33t-58 10q-70 0 -103.5 -60.5t-43.5 -162.5q-72 0 -123 4t-100 22q3 48 3 98v25q-1 63 -18 142q86 33 197.5 53t242.5 20q164 0 253.5 -24.5t138.5 -77.5q18 -20 35.5 -47 t31 -64.5t20.5 -91t7 -127.5v-135q0 -53 6 -87t18.5 -52.5t30 -24.5t41.5 -6q0 -47 -4 -89t-20 -83q-111 -6 -203 -22.5t-156 -42.5q-41 14 -62.5 37.5t-21.5 64.5q0 25 6 51l9 41q-12 -33 -37 -61q-29 -37 -47 -54q-47 -35 -106.5 -55t-135.5 -20q-328 -1 -328 245z M430 295q0 -49 22.5 -67.5t55.5 -18.5q29 0 57.5 14.5t52 42t39 67.5t15.5 93v35q-135 -27 -188.5 -67t-53.5 -99zM168 1187q88 59 181 133t163 146q37 14 84 22.5t94 8.5q63 -76 144 -156t184 -166q-33 -37 -76 -64.5t-108 -39.5q-59 43 -132 89t-143 81q-29 -14 -63 -36 l-71 -44l-71 -46q-35 -24 -59 -44q-49 10 -83 45.5t-44 70.5z" />
<glyph unicode="&#xe3;" horiz-adv-x="1198" d="M51 231q0 104 67.5 170t165 105t204 57.5t184.5 28.5q0 70 -10.5 110.5t-36.5 69.5q-18 23 -47 33t-58 10q-70 0 -103.5 -60.5t-43.5 -162.5q-72 0 -123 4t-100 22q3 48 3 98v25q-1 63 -18 142q86 33 197.5 53t242.5 20q164 0 253.5 -24.5t138.5 -77.5q18 -20 35.5 -47 t31 -64.5t20.5 -91t7 -127.5v-135q0 -53 6 -87t18.5 -52.5t30 -24.5t41.5 -6q0 -47 -4 -89t-20 -83q-111 -6 -203 -22.5t-156 -42.5q-41 14 -62.5 37.5t-21.5 64.5q0 25 6 51l9 41q-12 -33 -37 -61q-29 -37 -47 -54q-47 -35 -106.5 -55t-135.5 -20q-328 -1 -328 245z M430 295q0 -49 22.5 -67.5t55.5 -18.5q29 0 57.5 14.5t52 42t39 67.5t15.5 93v35q-135 -27 -188.5 -67t-53.5 -99zM156 1169q47 76 92 126t87 77.5t80 39t73 11.5q49 0 90 -13.5t76 -28.5l69.5 -28.5t71.5 -13.5q57 0 99 18.5t73 49.5q33 -20 56.5 -47t33.5 -60 q-66 -133 -135.5 -199.5t-165.5 -66.5q-53 0 -94 14.5t-76 30.5t-70.5 30.5t-78.5 14.5q-59 0 -109.5 -21.5t-97.5 -62.5q-33 29 -50.5 58.5t-23.5 70.5z" />
<glyph unicode="&#xe4;" horiz-adv-x="1198" d="M51 231q0 104 67.5 170t165 105t204 57.5t184.5 28.5q0 70 -10.5 110.5t-36.5 69.5q-18 23 -47 33t-58 10q-70 0 -103.5 -60.5t-43.5 -162.5q-72 0 -123 4t-100 22q3 48 3 98v25q-1 63 -18 142q86 33 197.5 53t242.5 20q164 0 253.5 -24.5t138.5 -77.5q18 -20 35.5 -47 t31 -64.5t20.5 -91t7 -127.5v-135q0 -53 6 -87t18.5 -52.5t30 -24.5t41.5 -6q0 -47 -4 -89t-20 -83q-111 -6 -203 -22.5t-156 -42.5q-41 14 -62.5 37.5t-21.5 64.5q0 25 6 51l9 41q-12 -33 -37 -61q-29 -37 -47 -54q-47 -35 -106.5 -55t-135.5 -20q-328 -1 -328 245z M430 295q0 -49 22.5 -67.5t55.5 -18.5q29 0 57.5 14.5t52 42t39 67.5t15.5 93v35q-135 -27 -188.5 -67t-53.5 -99zM144 1216q0 37 11 70t34.5 58.5t59.5 40.5t87 15q104 0 151.5 -51t47.5 -129q0 -72 -54.5 -120t-138.5 -48q-90 0 -144 48t-54 116zM662 1237q0 78 54 120.5 t143 42.5q86 0 142 -47t56 -116q0 -37 -10 -70t-32.5 -58.5t-58.5 -41t-87 -15.5q-104 0 -155.5 51.5t-51.5 133.5z" />
<glyph unicode="&#xe5;" horiz-adv-x="1198" d="M51 231q0 104 67.5 170t165 105t204 57.5t184.5 28.5q0 70 -10.5 110.5t-36.5 69.5q-18 23 -47 33t-58 10q-70 0 -103.5 -60.5t-43.5 -162.5q-72 0 -123 4t-100 22q3 48 3 98v25q-1 63 -18 142q86 33 197.5 53t242.5 20q164 0 253.5 -24.5t138.5 -77.5q18 -20 35.5 -47 t31 -64.5t20.5 -91t7 -127.5v-135q0 -53 6 -87t18.5 -52.5t30 -24.5t41.5 -6q0 -47 -4 -89t-20 -83q-111 -6 -203 -22.5t-156 -42.5q-41 14 -62.5 37.5t-21.5 64.5q0 25 6 51l9 41q-12 -33 -37 -61q-29 -37 -47 -54q-47 -35 -106.5 -55t-135.5 -20q-328 -1 -328 245z M430 295q0 -49 22.5 -67.5t55.5 -18.5q29 0 57.5 14.5t52 42t39 67.5t15.5 93v35q-135 -27 -188.5 -67t-53.5 -99zM303 1284q0 104 82 164.5t209 60.5q57 0 106.5 -12.5t86 -38t57 -64.5t20.5 -94q0 -102 -79.5 -164.5t-213.5 -62.5q-115 0 -191.5 55.5t-76.5 155.5z M516 1296q0 -43 19.5 -71.5t54.5 -28.5q27 0 45 23.5t18 64.5q0 37 -17 74.5t-58 37.5q-29 0 -45.5 -26.5t-16.5 -73.5z" />
<glyph unicode="&#xe6;" horiz-adv-x="1562" d="M72 225q0 92 44 153.5t118.5 100.5t175.5 58q90 18 190 26v51q0 98 -26.5 142.5t-77.5 44.5q-53 0 -78 -49.5t-37 -161.5q-51 0 -117.5 7t-111.5 30q4 51 2 125.5t-13 140.5q98 35 186.5 49t196.5 14q129 0 207 -41q41 -20 74 -57l4 2q41 35 89 56.5t100.5 30.5t97.5 9 q125 0 202.5 -46t121.5 -112.5t60.5 -141t16.5 -132.5q-10 -29 -30.5 -61.5t-47.5 -56.5q-59 0 -127 -2l-137 -2q-70 -1 -141 -5h-37q2 -31 10 -59q12 -47 39 -83t69 -56.5t99 -20.5q72 0 127 17.5t98 46.5q23 -20 40.5 -62.5t15.5 -85.5q-59 -47 -161 -76.5t-237 -29.5 q-131 0 -222 42t-148 105q-8 8 -15 19q-16 -29 -39 -52q-31 -33 -63.5 -54t-69.5 -34.5t-81 -19.5t-101 -6q-129 0 -197.5 61t-68.5 176zM393 283q0 -49 21.5 -73t56.5 -24q20 0 43 11.5t43.5 39t32.5 72.5q8 33 10 76v37q-111 -12 -158 -41q-49 -32 -49 -98zM975 541l65 2 q78 2 144 2q0 119 -23.5 187.5t-83.5 68.5q-53 0 -77.5 -62.5t-24.5 -173.5v-24z" />
<glyph unicode="&#xe7;" horiz-adv-x="991" d="M61 465q0 92 32 180t96.5 157.5t162 111.5t228.5 42q125 0 212 -20.5t158 -58.5q-14 -57 -20 -120t-6 -151q-47 -23 -104.5 -29t-110.5 -6q0 119 -33 178.5t-86 59.5q-37 0 -63.5 -24.5t-45 -67.5t-28 -100.5t-9.5 -122.5q0 -59 14.5 -117t46.5 -104t82 -74.5t122 -28.5 q66 0 117 12.5t87 34.5q23 -23 35.5 -56.5t12.5 -74.5q-53 -49 -148 -78q-84 -23 -184 -26l-54 -70q90 -14 136.5 -69.5t46.5 -125.5q0 -104 -93.5 -158.5t-267.5 -54.5q-10 23 -14 52.5t-4 52.5q66 0 113 22.5t47 67.5q0 35 -34 55.5t-85 20.5q-37 43 -37 96l96 119 q-53 6 -102 20q-100 29 -170 88.5t-108 150.5t-38 216z" />
<glyph unicode="&#xe8;" horiz-adv-x="1116" d="M61 453q0 125 39 220t110 157.5t171 94t223 31.5q119 0 205 -39.5t141.5 -104t79.5 -146.5q23 -76 23 -152v-12q-16 -72 -68 -121q-68 0 -145 -1l-160 -2q-82 -1 -164 -5l-57 -4q18 -61 51 -109q68 -90 219 -90q66 0 139.5 21.5t118.5 56.5q23 -14 39 -55t16 -87 q-78 -55 -184 -89.5t-240 -34.5q-154 0 -259 35.5t-171.5 99t-96.5 150t-30 186.5zM444 524h275q0 123 -33 202t-98 79q-66 0 -105 -70q-37 -64 -39 -211zM183 1419q74 31 159.5 48t176.5 17q23 -76 61.5 -169t79.5 -171q-39 -18 -88 -27t-121 -9q-57 80 -116.5 153.5 t-151.5 157.5z" />
<glyph unicode="&#xe9;" horiz-adv-x="1116" d="M61 453q0 125 39 220t110 157.5t171 94t223 31.5q119 0 205 -39.5t141.5 -104t79.5 -146.5q23 -76 23 -152v-12q-16 -72 -68 -121q-68 0 -145 -1l-160 -2q-82 -1 -164 -5l-57 -4q18 -61 51 -109q68 -90 219 -90q66 0 139.5 21.5t118.5 56.5q23 -14 39 -55t16 -87 q-78 -55 -184 -89.5t-240 -34.5q-154 0 -259 35.5t-171.5 99t-96.5 150t-30 186.5zM444 524h275q0 123 -33 202t-98 79q-66 0 -105 -70q-37 -64 -39 -211zM475 1142q47 92 75.5 164t49.5 156q41 14 96 20.5t113 6.5q35 0 68.5 -2.5t62.5 -6.5q-80 -96 -147.5 -190 t-119.5 -189q-55 0 -111 12.5t-87 28.5z" />
<glyph unicode="&#xea;" horiz-adv-x="1116" d="M61 453q0 125 39 220t110 157.5t171 94t223 31.5q119 0 205 -39.5t141.5 -104t79.5 -146.5q23 -76 23 -152v-12q-16 -72 -68 -121q-68 0 -145 -1l-160 -2q-82 -1 -164 -5l-57 -4q18 -61 51 -109q68 -90 219 -90q66 0 139.5 21.5t118.5 56.5q23 -14 39 -55t16 -87 q-78 -55 -184 -89.5t-240 -34.5q-154 0 -259 35.5t-171.5 99t-96.5 150t-30 186.5zM444 524h275q0 123 -33 202t-98 79q-66 0 -105 -70q-37 -64 -39 -211zM174 1187q88 59 181 133t163 146q37 14 84 22.5t94 8.5q63 -76 144 -156t184 -166q-33 -37 -76 -64.5t-108 -39.5 q-59 43 -132 89t-143 81q-29 -14 -63 -36l-71 -44l-71 -46q-35 -24 -59 -44q-49 10 -83 45.5t-44 70.5z" />
<glyph unicode="&#xeb;" horiz-adv-x="1116" d="M61 453q0 125 39 220t110 157.5t171 94t223 31.5q119 0 205 -39.5t141.5 -104t79.5 -146.5q23 -76 23 -152v-12q-16 -72 -68 -121q-68 0 -145 -1l-160 -2q-82 -1 -164 -5l-57 -4q18 -61 51 -109q68 -90 219 -90q66 0 139.5 21.5t118.5 56.5q23 -14 39 -55t16 -87 q-78 -55 -184 -89.5t-240 -34.5q-154 0 -259 35.5t-171.5 99t-96.5 150t-30 186.5zM444 524h275q0 123 -33 202t-98 79q-66 0 -105 -70q-37 -64 -39 -211zM142 1216q0 37 11 70t34.5 58.5t59.5 40.5t87 15q104 0 151.5 -51t47.5 -129q0 -72 -54.5 -120t-138.5 -48 q-90 0 -144 48t-54 116zM660 1237q0 78 54 120.5t143 42.5q86 0 142 -47t56 -116q0 -37 -10 -70t-32.5 -58.5t-58.5 -41t-87 -15.5q-104 0 -155.5 51.5t-51.5 133.5z" />
<glyph unicode="&#xec;" horiz-adv-x="798" d="M9 1419q74 31 159.5 48t176.5 17q23 -76 61.5 -169t79.5 -171q-39 -18 -88 -27t-121 -9q-57 80 -116.5 153.5t-151.5 157.5zM596 332q0 -51 6 -85t21.5 -53.5t41 -28.5t66.5 -11q10 -29 13.5 -69t3.5 -91q-18 2 -55.5 3t-84.5 2t-100 1h-213q-53 0 -100.5 -1t-84 -2 t-55.5 -3q0 51 4 91t15 69q41 2 66.5 11t41 28.5t20.5 53.5t5 85v260q0 72 -30 102.5t-122 40.5q0 39 5.5 80t21.5 74q76 0 145.5 6t127 15.5t101.5 21.5t68 24q35 -16 53.5 -46.5t18.5 -84.5v-493z" />
<glyph unicode="&#xed;" horiz-adv-x="798" d="M258 1126q47 92 75.5 164t49.5 156q41 14 96 20.5t113 6.5q35 0 68.5 -2.5t62.5 -6.5q-80 -96 -147.5 -190t-119.5 -189q-55 0 -111 12.5t-87 28.5zM596 332q0 -51 6 -85t21.5 -53.5t41 -28.5t66.5 -11q10 -29 13.5 -69t3.5 -91q-18 2 -55.5 3t-84.5 2t-100 1h-213 q-53 0 -100.5 -1t-84 -2t-55.5 -3q0 51 4 91t15 69q41 2 66.5 11t41 28.5t20.5 53.5t5 85v260q0 72 -30 102.5t-122 40.5q0 39 5.5 80t21.5 74q76 0 145.5 6t127 15.5t101.5 21.5t68 24q35 -16 53.5 -46.5t18.5 -84.5v-493z" />
<glyph unicode="&#xee;" horiz-adv-x="798" d="M-55 1187q88 59 181 133t163 146q37 14 84 22.5t94 8.5q63 -76 144 -156t184 -166q-33 -37 -76 -64.5t-108 -39.5q-59 43 -132 89t-143 81q-29 -14 -63 -36l-71 -44l-71 -46q-35 -24 -59 -44q-49 10 -83 45.5t-44 70.5zM596 332q0 -51 6 -85t21.5 -53.5t41 -28.5 t66.5 -11q10 -29 13.5 -69t3.5 -91q-18 2 -55.5 3t-84.5 2t-100 1h-213q-53 0 -100.5 -1t-84 -2t-55.5 -3q0 51 4 91t15 69q41 2 66.5 11t41 28.5t20.5 53.5t5 85v260q0 72 -30 102.5t-122 40.5q0 39 5.5 80t21.5 74q76 0 145.5 6t127 15.5t101.5 21.5t68 24 q35 -16 53.5 -46.5t18.5 -84.5v-493z" />
<glyph unicode="&#xef;" horiz-adv-x="798" d="M-82 1216q0 37 11 70t34.5 58.5t59.5 40.5t87 15q104 0 151.5 -51t47.5 -129q0 -72 -54.5 -120t-138.5 -48q-90 0 -144 48t-54 116zM436 1237q0 78 54 120.5t143 42.5q86 0 142 -47t56 -116q0 -37 -10 -70t-32.5 -58.5t-58.5 -41t-87 -15.5q-104 0 -155.5 51.5 t-51.5 133.5zM596 332q0 -51 6 -85t21.5 -53.5t41 -28.5t66.5 -11q10 -29 13.5 -69t3.5 -91q-18 2 -55.5 3t-84.5 2t-100 1h-213q-53 0 -100.5 -1t-84 -2t-55.5 -3q0 51 4 91t15 69q41 2 66.5 11t41 28.5t20.5 53.5t5 85v260q0 72 -30 102.5t-122 40.5q0 39 5.5 80t21.5 74 q76 0 145.5 6t127 15.5t101.5 21.5t68 24q35 -16 53.5 -46.5t18.5 -84.5v-493z" />
<glyph unicode="&#xf0;" horiz-adv-x="1222" d="M82 457q0 127 46 224t122 162.5t169 99.5t189 34q20 0 47 -4q-12 20 -28 41q-31 37 -70 69q-154 -70 -291 -143q-18 33 -30.5 82t-8.5 86l158 70q-96 35 -223 53q0 43 9 83t34 68q229 -12 405 -75l41 -15l264 115q18 -35 27.5 -82t9.5 -86l-118 -43q39 -27 73 -55 q121 -104 183.5 -247.5t62.5 -315.5q0 -158 -46 -269.5t-124 -184.5t-182.5 -106.5t-222.5 -33.5q-262 0 -379 126t-117 347zM473 422q0 -135 44 -197.5t108 -62.5q29 0 53 10t42.5 44t30 97.5t11.5 171.5q0 141 -21 250q-10 10 -18 15q-39 25 -84 24q-35 0 -64.5 -17.5 t-52 -57.5t-36 -108.5t-13.5 -168.5z" />
<glyph unicode="&#xf1;" horiz-adv-x="1445" d="M258 1169q47 76 92 126t87 77.5t80 39t73 11.5q49 0 90 -13.5t76 -28.5l69.5 -28.5t71.5 -13.5q57 0 99 18.5t73 49.5q33 -20 56.5 -47t33.5 -60q-66 -133 -135.5 -199.5t-165.5 -66.5q-53 0 -94 14.5t-76 30.5t-70.5 30.5t-78.5 14.5q-59 0 -109.5 -21.5t-97.5 -62.5 q-33 29 -50.5 58.5t-23.5 70.5zM55 -6q0 47 5.5 89t15.5 71q80 0 105.5 37.5t25.5 140.5v221q0 49 -4 83t-18.5 54.5t-44 30.5t-79.5 14q0 39 5.5 80t21.5 74q154 0 271.5 21.5t166.5 45.5q35 -16 52.5 -46.5t17.5 -84.5q0 -25 -8 -57q-6 -31 -17 -63q16 39 33 69 q18 35 47 64q49 49 120 78.5t157 29.5q70 0 134 -18.5t113.5 -59.5t79 -104.5t29.5 -151.5v-280q0 -102 18.5 -140t69.5 -38q14 -35 18.5 -72t4.5 -88q-23 0 -56.5 1t-72.5 2l-79 2q-40 1 -77 1h-86q-47 0 -94 -1t-89 -2t-65 -3q0 43 3 83t18 77q43 0 70.5 43t27.5 157v142 q0 117 -30.5 164t-96.5 47q-37 0 -68.5 -24t-55 -66t-36 -100t-12.5 -128v-57q0 -53 7 -88t19.5 -55.5t30 -27.5t39.5 -7q16 -39 19.5 -76t3.5 -84q-23 2 -61 3t-82 2t-89 1h-170q-49 0 -99 -1t-93 -2t-66 -3z" />
<glyph unicode="&#xf2;" horiz-adv-x="1245" d="M61 451q0 129 44.5 224t121 157.5t180 93t222.5 30.5q141 0 245.5 -34.5t173 -98t102.5 -149.5t34 -189q0 -242 -152.5 -372.5t-421.5 -130.5q-276 0 -412.5 126t-136.5 343zM451 528q0 -80 12 -150.5t36.5 -123.5t62.5 -84t87 -31q70 0 108 81t38 198q0 100 -16.5 174 t-44 122t-63.5 71.5t-73 23.5t-64.5 -22.5t-46 -60.5t-27.5 -89.5t-9 -108.5zM222 1419q74 31 159.5 48t176.5 17q23 -76 61.5 -169t79.5 -171q-39 -18 -88 -27t-121 -9q-57 80 -116.5 153.5t-151.5 157.5z" />
<glyph unicode="&#xf3;" horiz-adv-x="1245" d="M61 451q0 129 44.5 224t121 157.5t180 93t222.5 30.5q141 0 245.5 -34.5t173 -98t102.5 -149.5t34 -189q0 -242 -152.5 -372.5t-421.5 -130.5q-276 0 -412.5 126t-136.5 343zM451 528q0 -80 12 -150.5t36.5 -123.5t62.5 -84t87 -31q70 0 108 81t38 198q0 100 -16.5 174 t-44 122t-63.5 71.5t-73 23.5t-64.5 -22.5t-46 -60.5t-27.5 -89.5t-9 -108.5zM455 1142q47 92 75.5 164t49.5 156q41 14 96 20.5t113 6.5q35 0 68.5 -2.5t62.5 -6.5q-80 -96 -147.5 -190t-119.5 -189q-55 0 -111 12.5t-87 28.5z" />
<glyph unicode="&#xf4;" horiz-adv-x="1245" d="M61 451q0 129 44.5 224t121 157.5t180 93t222.5 30.5q141 0 245.5 -34.5t173 -98t102.5 -149.5t34 -189q0 -242 -152.5 -372.5t-421.5 -130.5q-276 0 -412.5 126t-136.5 343zM451 528q0 -80 12 -150.5t36.5 -123.5t62.5 -84t87 -31q70 0 108 81t38 198q0 100 -16.5 174 t-44 122t-63.5 71.5t-73 23.5t-64.5 -22.5t-46 -60.5t-27.5 -89.5t-9 -108.5zM176 1187q88 59 181 133t163 146q37 14 84 22.5t94 8.5q63 -76 144 -156t184 -166q-33 -37 -76 -64.5t-108 -39.5q-59 43 -132 89t-143 81q-29 -14 -63 -36l-71 -44l-71 -46q-35 -24 -59 -44 q-49 10 -83 45.5t-44 70.5z" />
<glyph unicode="&#xf5;" horiz-adv-x="1245" d="M61 451q0 129 44.5 224t121 157.5t180 93t222.5 30.5q141 0 245.5 -34.5t173 -98t102.5 -149.5t34 -189q0 -242 -152.5 -372.5t-421.5 -130.5q-276 0 -412.5 126t-136.5 343zM451 528q0 -80 12 -150.5t36.5 -123.5t62.5 -84t87 -31q70 0 108 81t38 198q0 100 -16.5 174 t-44 122t-63.5 71.5t-73 23.5t-64.5 -22.5t-46 -60.5t-27.5 -89.5t-9 -108.5zM164 1169q47 76 92 126t87 77.5t80 39t73 11.5q49 0 90 -13.5t76 -28.5l69.5 -28.5t71.5 -13.5q57 0 99 18.5t73 49.5q33 -20 56.5 -47t33.5 -60q-66 -133 -135.5 -199.5t-165.5 -66.5 q-53 0 -94 14.5t-76 30.5t-70.5 30.5t-78.5 14.5q-59 0 -109.5 -21.5t-97.5 -62.5q-33 29 -50.5 58.5t-23.5 70.5z" />
<glyph unicode="&#xf6;" horiz-adv-x="1245" d="M61 451q0 129 44.5 224t121 157.5t180 93t222.5 30.5q141 0 245.5 -34.5t173 -98t102.5 -149.5t34 -189q0 -242 -152.5 -372.5t-421.5 -130.5q-276 0 -412.5 126t-136.5 343zM451 528q0 -80 12 -150.5t36.5 -123.5t62.5 -84t87 -31q70 0 108 81t38 198q0 100 -16.5 174 t-44 122t-63.5 71.5t-73 23.5t-64.5 -22.5t-46 -60.5t-27.5 -89.5t-9 -108.5zM158 1216q0 37 11 70t34.5 58.5t59.5 40.5t87 15q104 0 151.5 -51t47.5 -129q0 -72 -54.5 -120t-138.5 -48q-90 0 -144 48t-54 116zM676 1237q0 78 54 120.5t143 42.5q86 0 142 -47t56 -116 q0 -37 -10 -70t-32.5 -58.5t-58.5 -41t-87 -15.5q-104 0 -155.5 51.5t-51.5 133.5z" />
<glyph unicode="&#xf7;" d="M78 449q0 39 5 88t21 88h932q0 -53 -4 -89t-22 -83q-82 0 -136.5 1t-99.5 1h-199q-131 0 -247.5 -2t-249.5 -4zM369 903q0 43 15 75t41 53.5t58.5 31.5t67.5 12q72 0 123 -40t51 -109q0 -82 -44 -137.5t-122 -55.5q-98 0 -144 45t-46 125zM387 164q0 72 39 121t133 49 q96 0 138 -46t42 -124t-51 -123t-125 -45q-76 0 -126 48t-50 120z" />
<glyph unicode="&#xf8;" horiz-adv-x="1245" d="M61 451q0 129 44.5 224t121 157.5t180 93t222.5 30.5q141 0 245 -34q4 -2 11 -4l53 69q59 0 118.5 -13t94.5 -36l-96 -123q63 -61 94 -141q35 -86 35 -189q0 -242 -152.5 -372.5t-421.5 -130.5q-133 0 -233 28l-70 -90q-68 0 -124 11.5t-89 33.5l109 137q-2 2 -6 4 q-136 128 -136 345zM451 528q0 -68 8 -129l260 336q-23 33 -49 49q-35 25 -72 25t-64.5 -22.5t-46 -60.5t-27.5 -89.5t-9 -108.5zM541 188q10 -10 20 -18q39 -31 88 -31q70 0 108 81t38 198q0 47 -4 88z" />
<glyph unicode="&#xf9;" horiz-adv-x="1411" d="M287 1419q74 31 159.5 48t176.5 17q23 -76 61.5 -169t79.5 -171q-39 -18 -88 -27t-121 -9q-57 80 -116.5 153.5t-151.5 157.5zM64 735q0 39 5 80t21 74q154 0 262.5 21.5t157.5 45.5q35 -16 52.5 -46.5t17.5 -84.5v-401q0 -72 6 -117t17.5 -69.5t29.5 -32.5t43 -8 q27 0 55.5 18t52 56t38 95.5t14.5 137.5v59q0 49 -5 83t-21.5 54.5t-45.5 30.5t-74 14q0 39 5.5 80t21.5 74q154 0 271.5 16.5t166.5 40.5q35 -16 52.5 -46.5t17.5 -84.5v-424q0 -61 4 -97t18.5 -56.5t41 -28.5t71.5 -12q0 -41 -5 -80t-22 -74q-123 -4 -206.5 -21.5 t-165.5 -49.5q-41 29 -58.5 67.5t-17.5 85.5q0 16 2 35l4 16q-31 -70 -86 -112q-51 -41 -119.5 -64.5t-160.5 -23.5q-82 0 -144.5 19.5t-104.5 63.5t-63.5 117.5t-21.5 184.5v182q0 49 -4 83t-17.5 54.5t-38 30.5t-67.5 14z" />
<glyph unicode="&#xfa;" horiz-adv-x="1411" d="M516 1142q47 92 75.5 164t49.5 156q41 14 96 20.5t113 6.5q35 0 68.5 -2.5t62.5 -6.5q-80 -96 -147.5 -190t-119.5 -189q-55 0 -111 12.5t-87 28.5zM64 735q0 39 5 80t21 74q154 0 262.5 21.5t157.5 45.5q35 -16 52.5 -46.5t17.5 -84.5v-401q0 -72 6 -117t17.5 -69.5 t29.5 -32.5t43 -8q27 0 55.5 18t52 56t38 95.5t14.5 137.5v59q0 49 -5 83t-21.5 54.5t-45.5 30.5t-74 14q0 39 5.5 80t21.5 74q154 0 271.5 16.5t166.5 40.5q35 -16 52.5 -46.5t17.5 -84.5v-424q0 -61 4 -97t18.5 -56.5t41 -28.5t71.5 -12q0 -41 -5 -80t-22 -74 q-123 -4 -206.5 -21.5t-165.5 -49.5q-41 29 -58.5 67.5t-17.5 85.5q0 16 2 35l4 16q-31 -70 -86 -112q-51 -41 -119.5 -64.5t-160.5 -23.5q-82 0 -144.5 19.5t-104.5 63.5t-63.5 117.5t-21.5 184.5v182q0 49 -4 83t-17.5 54.5t-38 30.5t-67.5 14z" />
<glyph unicode="&#xfb;" horiz-adv-x="1411" d="M262 1187q88 59 181 133t163 146q37 14 84 22.5t94 8.5q63 -76 144 -156t184 -166q-33 -37 -76 -64.5t-108 -39.5q-59 43 -132 89t-143 81q-29 -14 -63 -36l-71 -44l-71 -46q-35 -24 -59 -44q-49 10 -83 45.5t-44 70.5zM64 735q0 39 5 80t21 74q154 0 262.5 21.5 t157.5 45.5q35 -16 52.5 -46.5t17.5 -84.5v-401q0 -72 6 -117t17.5 -69.5t29.5 -32.5t43 -8q27 0 55.5 18t52 56t38 95.5t14.5 137.5v59q0 49 -5 83t-21.5 54.5t-45.5 30.5t-74 14q0 39 5.5 80t21.5 74q154 0 271.5 16.5t166.5 40.5q35 -16 52.5 -46.5t17.5 -84.5v-424 q0 -61 4 -97t18.5 -56.5t41 -28.5t71.5 -12q0 -41 -5 -80t-22 -74q-123 -4 -206.5 -21.5t-165.5 -49.5q-41 29 -58.5 67.5t-17.5 85.5q0 16 2 35l4 16q-31 -70 -86 -112q-51 -41 -119.5 -64.5t-160.5 -23.5q-82 0 -144.5 19.5t-104.5 63.5t-63.5 117.5t-21.5 184.5v182 q0 49 -4 83t-17.5 54.5t-38 30.5t-67.5 14z" />
<glyph unicode="&#xfc;" horiz-adv-x="1357" d="M191 1216q0 37 11 70t34.5 58.5t59.5 40.5t87 15q104 0 151.5 -51t47.5 -129q0 -72 -54.5 -120t-138.5 -48q-90 0 -144 48t-54 116zM709 1237q0 78 54 120.5t143 42.5q86 0 142 -47t56 -116q0 -37 -10 -70t-32.5 -58.5t-58.5 -41t-87 -15.5q-104 0 -155.5 51.5 t-51.5 133.5zM31 735q0 39 5 80t21 74q154 0 262.5 21.5t157.5 45.5q35 -16 52.5 -46.5t17.5 -84.5v-401q0 -72 6 -117t17.5 -69.5t29.5 -32.5t43 -8q27 0 55.5 18t52 56t38 95.5t14.5 137.5v59q0 49 -5 83t-21.5 54.5t-45.5 30.5t-74 14q0 39 5.5 80t21.5 74 q154 0 271.5 16.5t166.5 40.5q35 -16 52.5 -46.5t17.5 -84.5v-424q0 -61 4 -97t18.5 -56.5t41 -28.5t71.5 -12q0 -41 -5 -80t-22 -74q-123 -4 -206.5 -21.5t-165.5 -49.5q-41 29 -58.5 67.5t-17.5 85.5q0 16 2 35l4 16q-31 -70 -86 -112q-51 -41 -119.5 -64.5t-160.5 -23.5 q-82 0 -144.5 19.5t-104.5 63.5t-63.5 117.5t-21.5 184.5v182q0 49 -4 83t-17.5 54.5t-38 30.5t-67.5 14z" />
<glyph unicode="&#xfd;" horiz-adv-x="1275" d="M77 944q59 -4 143.5 -5t170.5 -1q92 0 189.5 1t160.5 5q0 -41 -7 -88t-18 -72q-37 -6 -57 -15t-25.5 -25.5t4 -44t31.5 -70.5q45 -86 84 -187q16 -39 31 -82l100 250q20 49 26.5 80t1.5 50.5t-22.5 29.5t-46.5 14q-10 29 -16 73t-6 87q47 -4 103.5 -5t103.5 -1q51 0 99 2 t95 6q0 -37 -6 -82t-20 -80q-47 -12 -75 -40.5t-60 -102.5l-302 -717q-59 -139 -108 -225t-96 -132t-94.5 -61.5t-100.5 -15.5q-68 0 -134.5 32t-98.5 79q-3 20 -3 46t3 58q6 63 26 117q35 -14 97.5 -26.5t140.5 -12.5q37 0 63.5 4t47 14.5t38 26.5t33.5 43q4 6 10 18 q-37 90 -80 185l-89 202l-92 197l-87 180q-18 39 -35.5 62.5t-33 38t-33 20.5t-35.5 10q-10 31 -15.5 77t-5.5 83zM594 1142q47 92 75.5 164t49.5 156q41 14 96 20.5t113 6.5q35 0 68.5 -2.5t62.5 -6.5q-80 -96 -147.5 -190t-119.5 -189q-55 0 -111 12.5t-87 28.5z" />
<glyph unicode="&#xfe;" horiz-adv-x="1353" d="M55 -506q0 90 15 162q41 2 67.5 12t43 39t22.5 81t6 138v1110q0 57 -4 95t-19.5 60.5t-45 33t-81.5 12.5q0 47 4.5 85t16.5 77q147 4 268 22.5t201 46.5q25 -16 37 -43.5t12 -74.5v-349q0 -61 -2 -102q0 -18 -2 -35l16 13q39 29 107.5 54t154.5 25q88 0 165 -23.5 t133.5 -73.5t89 -129t32.5 -187q0 -127 -43 -230.5t-122.5 -177.5t-191.5 -113.5t-247 -39.5q-37 0 -72 4q-10 2 -18 4v-45q0 -84 10 -136.5t33 -83t61.5 -46t98.5 -23.5q10 -47 13 -82t3 -80q-29 2 -66.5 4t-80.5 3l-87 2q-44 1 -85 1q-66 0 -136.5 -1t-132 -2t-109 -3 t-65.5 -4zM598 156l6 -6q35 -23 82 -23q35 0 73 13.5t69.5 52t52 108.5t20.5 182q0 49 -7 98.5t-24.5 87.5t-48 62.5t-80.5 24.5q-35 0 -67.5 -16.5t-59.5 -53.5q-8 -12 -16 -29v-501z" />
<glyph unicode="&#xff;" horiz-adv-x="1175" d="M71 944q59 -4 143.5 -5t170.5 -1q92 0 189.5 1t160.5 5q0 -41 -7 -88t-18 -72q-37 -6 -57 -15t-25.5 -25.5t4 -44t31.5 -70.5q45 -86 84 -187q16 -39 31 -82l100 250q20 49 26.5 80t1.5 50.5t-22.5 29.5t-46.5 14q-10 29 -16 73t-6 87q47 -4 103.5 -5t103.5 -1q51 0 99 2 t95 6q0 -37 -6 -82t-20 -80q-47 -12 -75 -40.5t-60 -102.5l-302 -717q-59 -139 -108 -225t-96 -132t-94.5 -61.5t-100.5 -15.5q-68 0 -134.5 32t-98.5 79q-3 20 -3 46t3 58q6 63 26 117q35 -14 97.5 -26.5t140.5 -12.5q37 0 63.5 4t47 14.5t38 26.5t33.5 43q4 6 10 18 q-37 90 -80 185l-89 202l-92 197l-87 180q-18 39 -35.5 62.5t-33 38t-33 20.5t-35.5 10q-10 31 -15.5 77t-5.5 83zM273 1216q0 37 11 70t34.5 58.5t59.5 40.5t87 15q104 0 151.5 -51t47.5 -129q0 -72 -54.5 -120t-138.5 -48q-90 0 -144 48t-54 116zM791 1237q0 78 54 120.5 t143 42.5q86 0 142 -47t56 -116q0 -37 -10 -70t-32.5 -58.5t-58.5 -41t-87 -15.5q-104 0 -155.5 51.5t-51.5 133.5z" />
<glyph unicode="&#x131;" horiz-adv-x="817" d="M596 332q0 -51 6 -85t21.5 -53.5t41 -28.5t66.5 -11q10 -29 13.5 -69t3.5 -91q-18 2 -55.5 3t-84.5 2t-100 1h-213q-53 0 -100.5 -1t-84 -2t-55.5 -3q0 51 4 91t15 69q41 2 66.5 11t41 28.5t20.5 53.5t5 85v260q0 72 -30 102.5t-122 40.5q0 39 5.5 80t21.5 74 q76 0 145.5 6t127 15.5t101.5 21.5t68 24q35 -16 53.5 -46.5t18.5 -84.5v-493z" />
<glyph unicode="&#x152;" horiz-adv-x="2881" d="M1620 -6q0 45 4.5 88t12.5 72q41 2 67.5 12t42 34.5t20.5 67.5t5 115v623q0 70 -5 110.5t-20.5 64t-42 34t-69.5 16.5q-8 31 -11.5 78t-3.5 82q45 -2 114 -3.5t144.5 -2.5t149.5 -1h334q88 0 154.5 1t117.5 2.5t94 3.5q0 -39 3.5 -87.5t9.5 -98.5t13 -96t17 -83 q-41 -16 -88 -26.5t-118 -10.5q-10 55 -26.5 100.5t-48.5 76t-82 48t-126 17.5h-100v-465q51 0 82.5 8t50 24.5t27 44t8.5 68.5q35 14 84 19.5t96 5.5q-4 -49 -6 -105.5t-2 -134.5q0 -86 2 -142t6 -101q-57 0 -99.5 4t-76.5 16q-8 84 -44 111.5t-128 27.5v-219q0 -72 7 -118 t25.5 -72.5t49 -37.5t77.5 -11h35q104 0 164.5 65.5t101.5 212.5q68 -6 125.5 -25.5t83.5 -44.5q-23 -72 -39 -169t-24 -197q-45 0 -110.5 1t-138.5 2t-149 1h-137q-53 0 -145 -1l-190 -2q-97 -1 -180 -2t-118 -1zM72 698q0 164 52 294t145 221.5t223.5 140.5t285.5 49 q160 0 291 -48t224 -136.5t143.5 -214t50.5 -279.5q0 -166 -50.5 -302t-142.5 -234.5t-223 -152.5t-293 -54q-166 0 -297 52t-222 146t-139 226t-48 292zM492 748q0 -123 18 -234t56 -193.5t96.5 -131t140.5 -48.5q63 0 112.5 38t83 108.5t51 171t17.5 223.5 q0 117 -21.5 220.5t-62.5 180t-99.5 121.5t-131.5 45q-125 0 -192.5 -129.5t-67.5 -371.5z" />
<glyph unicode="&#x153;" horiz-adv-x="2361" d="M1306 453q0 125 39 220t110 157.5t171 94t223 31.5q119 0 205 -39.5t141.5 -104t79.5 -146.5q23 -76 23 -152v-12q-16 -72 -68 -121q-68 0 -145 -1l-160 -2q-82 -1 -164 -5l-57 -4q18 -61 51 -109q68 -90 219 -90q66 0 139.5 21.5t118.5 56.5q23 -14 39 -55t16 -87 q-78 -55 -184 -89.5t-240 -34.5q-154 0 -259 35.5t-171.5 99t-96.5 150t-30 186.5zM1689 524h275q0 123 -33 202t-98 79q-66 0 -105 -70q-37 -64 -39 -211zM61 451q0 129 44.5 224t121 157.5t180 93t222.5 30.5q141 0 245.5 -34.5t173 -98t102.5 -149.5t34 -189 q0 -242 -152.5 -372.5t-421.5 -130.5q-276 0 -412.5 126t-136.5 343zM451 528q0 -80 12 -150.5t36.5 -123.5t62.5 -84t87 -31q70 0 108 81t38 198q0 100 -16.5 174t-44 122t-63.5 71.5t-73 23.5t-64.5 -22.5t-46 -60.5t-27.5 -89.5t-9 -108.5z" />
<glyph unicode="&#x178;" horiz-adv-x="1269" d="M178 1689q0 37 11 70t34.5 58.5t59.5 40.5t87 15q104 0 151.5 -51t47.5 -129q0 -72 -54.5 -120t-138.5 -48q-90 0 -144 48t-54 116zM696 1710q0 78 54 120.5t143 42.5q86 0 142 -47t56 -116q0 -37 -10 -70t-32.5 -58.5t-58.5 -41t-87 -15.5q-104 0 -155.5 51.5 t-51.5 133.5zM20 1389q37 -2 84.5 -3.5t94.5 -1.5h336q49 0 96 1t78 4q0 -53 -4.5 -88t-10.5 -70q-33 -4 -47 -17.5t-16 -33t6 -44t20 -51.5q33 -68 74 -170l57 -141q27 72 54 135q39 90 80 174q20 41 19 73q0 15 -4 29q-13 42 -71 46q-10 35 -14 69.5t-4 88.5q55 -4 102 -5 h203q47 0 96 5q0 -53 -5 -91t-13 -67q-18 -4 -33.5 -11.5t-31 -24.5t-35 -50t-46.5 -86l-233 -471v-182q0 -76 7 -123t28.5 -75t61.5 -39t106 -15q14 -43 17 -77t3 -83q-90 4 -205.5 5t-232.5 1t-228.5 -2t-207.5 -4q2 45 6 85t18 75q74 6 117 15t65.5 35.5t28.5 74t6 129.5 v190l-270 512q-37 72 -68.5 94.5t-66.5 26.5q-10 35 -13.5 71t-3.5 87z" />
<glyph unicode="&#x2c6;" d="M127 1171q88 59 181 133t163 146q37 14 84 22.5t94 8.5q63 -76 144 -156t184 -166q-33 -37 -76 -64.5t-108 -39.5q-59 43 -132 89t-143 81q-29 -14 -63 -36l-71 -44l-71 -46q-35 -24 -59 -44q-49 10 -83 45.5t-44 70.5z" />
<glyph unicode="&#x2da;" d="M348 1268q0 104 82 164.5t209 60.5q57 0 106.5 -12.5t86 -38t57 -64.5t20.5 -94q0 -102 -79.5 -164.5t-213.5 -62.5q-115 0 -191.5 55.5t-76.5 155.5zM561 1280q0 -43 19.5 -71.5t54.5 -28.5q27 0 45 23.5t18 64.5q0 37 -17 74.5t-58 37.5q-29 0 -45.5 -26.5t-16.5 -73.5 z" />
<glyph unicode="&#x2dc;" d="M90 1153q47 76 92 126t87 77.5t80 39t73 11.5q49 0 90 -13.5t76 -28.5l69.5 -28.5t71.5 -13.5q57 0 99 18.5t73 49.5q33 -20 56.5 -47t33.5 -60q-66 -133 -135.5 -199.5t-165.5 -66.5q-53 0 -94 14.5t-76 30.5t-70.5 30.5t-78.5 14.5q-59 0 -109.5 -21.5t-97.5 -62.5 q-33 29 -50.5 58.5t-23.5 70.5z" />
<glyph unicode="&#x2000;" horiz-adv-x="974" />
<glyph unicode="&#x2001;" horiz-adv-x="1949" />
<glyph unicode="&#x2002;" horiz-adv-x="974" />
<glyph unicode="&#x2003;" horiz-adv-x="1949" />
<glyph unicode="&#x2004;" horiz-adv-x="649" />
<glyph unicode="&#x2005;" horiz-adv-x="487" />
<glyph unicode="&#x2006;" horiz-adv-x="323" />
<glyph unicode="&#x2007;" horiz-adv-x="323" />
<glyph unicode="&#x2008;" horiz-adv-x="243" />
<glyph unicode="&#x2009;" horiz-adv-x="389" />
<glyph unicode="&#x200a;" horiz-adv-x="106" />
<glyph unicode="&#x2010;" horiz-adv-x="858" d="M123 453q0 43 8 103t27 112h577q0 -39 -5 -92.5t-21 -106.5q-129 0 -278.5 -2t-307.5 -14z" />
<glyph unicode="&#x2011;" horiz-adv-x="858" d="M123 453q0 43 8 103t27 112h577q0 -39 -5 -92.5t-21 -106.5q-129 0 -278.5 -2t-307.5 -14z" />
<glyph unicode="&#x2012;" horiz-adv-x="858" d="M123 453q0 43 8 103t27 112h577q0 -39 -5 -92.5t-21 -106.5q-129 0 -278.5 -2t-307.5 -14z" />
<glyph unicode="&#x2013;" horiz-adv-x="1220" d="M123 467q0 49 9 102.5t24 85.5h942q0 -51 -8.5 -98t-24.5 -78h-215q-100 0 -207.5 -1t-232.5 -4z" />
<glyph unicode="&#x2014;" horiz-adv-x="2162" d="M123 471q0 53 9 104.5t22 79.5h1886q0 -49 -8.5 -94t-22.5 -80h-450q-223 0 -456 -1t-476.5 -3t-503.5 -6z" />
<glyph unicode="&#x2018;" horiz-adv-x="647" d="M123 1047q0 117 55 236.5t158 211.5q49 0 85 -9t71 -32q-66 -66 -89.5 -116t-23.5 -103q0 -43 36 -64.5t109 -29.5q0 -35 -1 -62.5t-4 -55.5t-10 -55.5t-17 -62.5q-82 -4 -146.5 -19.5t-112.5 -45.5q-59 16 -84.5 59.5t-25.5 147.5z" />
<glyph unicode="&#x2019;" horiz-adv-x="647" d="M524.008 1290.06q0 -116.992 -54.9971 -236.485q-54.9961 -119.492 -157.99 -211.487q-48.9971 0 -84.9951 9q-35.9971 8.99902 -70.9951 31.998q65.9961 65.9961 89.4941 115.993q23.499 49.9961 23.499 102.993q0 42.9971 -35.998 64.4961t-108.993 29.498 q0 34.998 1 62.4961q1 27.499 3.99902 55.4971q3 27.998 10 55.4961q6.99902 27.499 16.999 62.4971q81.9951 3.99902 146.491 19.498t112.493 45.4971q58.9961 -15.998 84.4941 -59.4961q25.499 -43.4971 25.499 -147.491z" />
<glyph unicode="&#x201a;" horiz-adv-x="647" d="M524.008 118.063q0 -116.992 -54.9971 -236.485q-54.9961 -119.492 -157.99 -211.487q-48.9971 0 -84.9951 9q-35.9971 8.99902 -70.9951 31.998q65.9961 65.9961 89.4941 115.993q23.499 49.9961 23.499 102.993q0 42.9971 -35.998 64.4961t-108.993 29.498 q0 34.998 1 62.4961q1 27.499 3.99902 55.4971q3 27.998 10 55.4961q6.99902 27.499 16.999 62.4971q81.9951 3.99902 146.491 19.498t112.493 45.4971q58.9961 -15.998 84.4941 -59.4961q25.499 -43.4971 25.499 -147.491z" />
<glyph unicode="&#x201c;" horiz-adv-x="1064" d="M123 1047q0 117 55 236.5t158 211.5q49 0 85 -9t71 -32q-66 -66 -89.5 -117t-23.5 -102q0 -45 29.5 -65.5t95.5 -28.5q0 -72 -6 -124t-27 -108q-143 -6 -238 -69q-31 8 -51 21t-33.5 37t-19.5 60t-6 89zM555 1047q0 117 50 231.5t145 200.5q49 0 84.5 -9.5t70.5 -31.5 q-61 -61 -84.5 -106.5t-23.5 -96.5q0 -45 35.5 -65.5t109.5 -28.5q0 -35 -1 -63.5t-4 -55.5t-10 -54.5t-18 -60.5q-162 -8 -250 -67q-59 16 -81.5 59.5t-22.5 147.5z" />
<glyph unicode="&#x201d;" horiz-adv-x="1064" d="M942.008 1290.06q0 -116.992 -54.9971 -236.485q-54.9961 -119.492 -157.99 -211.487q-48.9971 0 -84.9951 9q-35.9971 8.99902 -70.9951 31.998q65.9961 65.9961 89.4941 116.993q23.499 50.9961 23.499 101.993q0 44.9971 -29.498 65.4961 q-29.499 20.499 -95.4941 28.498q0 71.9961 5.99902 123.993q6 51.9961 26.998 107.993q142.991 5.99902 237.986 68.9951q30.998 -7.99902 50.9961 -20.998q19.999 -12.999 33.498 -36.998q13.499 -23.998 19.499 -59.9961t6 -88.9951zM510.034 1290.06 q0 -116.992 -49.9971 -231.485t-144.991 -200.488q-48.9971 0 -84.4951 9.5q-35.498 9.49902 -70.4951 31.498q60.9961 60.9961 84.4941 106.493q23.499 45.4971 23.499 96.4941q0 44.9971 -35.498 65.4961t-109.493 28.498q0 34.998 1 63.4961q1 28.499 4 55.4971 q2.99902 26.998 9.99902 54.4961q7 27.499 17.999 60.4971q161.99 7.99902 249.984 66.9951q58.9971 -15.998 81.4951 -59.4961q22.499 -43.4971 22.499 -147.491z" />
<glyph unicode="&#x201e;" horiz-adv-x="1064" d="M942.008 112.063q0 -116.992 -54.9971 -236.485q-54.9961 -119.492 -157.99 -211.487q-48.9971 0 -84.9951 9q-35.9971 8.99902 -70.9951 31.998q65.9961 65.9961 89.4941 116.993q23.499 50.9961 23.499 101.993q0 44.9971 -29.498 65.4961 q-29.499 20.499 -95.4941 28.498q0 71.9961 5.99902 123.993q6 51.9961 26.998 107.993q142.991 5.99902 237.986 68.9951q30.998 -7.99902 50.9961 -20.998q19.999 -12.999 33.498 -36.998q13.499 -23.998 19.499 -59.9961t6 -88.9951zM510.034 112.063 q0 -116.992 -49.9971 -231.485t-144.991 -200.488q-48.9971 0 -84.4951 9.5q-35.498 9.49902 -70.4951 31.498q60.9961 60.9961 84.4941 106.493q23.499 45.4971 23.499 96.4941q0 44.9971 -35.498 65.4961t-109.493 28.498q0 34.998 1 63.4961q1 28.499 4 55.4971 q2.99902 26.998 9.99902 54.4961q7 27.499 17.999 60.4971q161.99 7.99902 249.984 66.9951q58.9971 -15.998 81.4951 -59.4961q22.499 -43.4971 22.499 -147.491z" />
<glyph unicode="&#x2022;" horiz-adv-x="901" d="M123 561q0 66 24.5 121t68.5 96t105.5 63.5t135.5 22.5q80 0 139 -25.5t100 -68.5t61.5 -98.5t20.5 -114.5q0 -70 -22.5 -129t-63.5 -102t-100.5 -68t-134.5 -25q-86 0 -148.5 28t-104.5 74t-61.5 104.5t-19.5 121.5z" />
<glyph unicode="&#x2026;" horiz-adv-x="2045" d="M123 190q0 96 63.5 149.5t159.5 53.5q45 0 83 -16.5t63.5 -43t40 -61t14.5 -71.5q0 -88 -54.5 -152.5t-158.5 -64.5q-98 0 -154.5 55t-56.5 151zM819 190q0 96 63.5 149.5t159.5 53.5q45 0 83 -16.5t63.5 -43t40 -61t14.5 -71.5q0 -88 -54.5 -152.5t-158.5 -64.5 q-98 0 -154.5 55t-56.5 151zM1499 190q0 96 63.5 149.5t159.5 53.5q45 0 83 -16.5t63.5 -43t40 -61t14.5 -71.5q0 -88 -54.5 -152.5t-158.5 -64.5q-98 0 -154.5 55t-56.5 151z" />
<glyph unicode="&#x202f;" horiz-adv-x="389" />
<glyph unicode="&#x2039;" horiz-adv-x="614" d="M119 420q0 45 7 100t19 84q66 53 118 106.5t114 123.5q47 0 98 -21.5t72 -38.5l-45 -66l-39 -63l-37 -62l-39 -71q18 -39 37 -70l37 -59q18 -29 40 -56l46 -59q-23 -39 -72 -80t-88 -61q-70 92 -131 159.5t-137 133.5z" />
<glyph unicode="&#x203a;" horiz-adv-x="618" d="M90 795q27 20 69 34.5t93 14.5l69 -66l58 -55q29 -27 61 -54l76 -65q35 -82 35 -164l-168 -168l-154 -163q-43 23 -74.5 52t-54.5 70q53 68 94.5 127.5t77.5 120.5q-35 78 -80 155t-102 161z" />
<glyph unicode="&#x2044;" horiz-adv-x="1353" d="M244 -18q-25 0 -51.5 4t-51 11t-45 17.5t-28.5 22.5l1052 1431q47 0 95.5 -17t76.5 -42z" />
<glyph unicode="&#x205f;" horiz-adv-x="487" />
<glyph unicode="&#x20ac;" horiz-adv-x="1443" d="M94 383q0 49 9.5 102.5t23.5 85.5h82q-8 59 -8 123q-51 -2 -107 -2q0 49 9.5 102.5t23.5 86.5h90q16 66 43 125q59 131 155.5 219t221.5 133t258 45q125 0 238.5 -27.5t222.5 -79.5q-12 -72 -17.5 -151.5t-5.5 -165.5q-14 -8 -38.5 -13t-53.5 -8.5t-57.5 -5.5t-53.5 -2 q-2 88 -18 144.5t-47 90.5t-72 47t-92 13q-76 0 -129 -41t-87 -110.5t-50 -159.5l-8 -53h442q0 -51 -8 -98.5t-25 -77.5h-215q-98 0 -200 -3q4 -68 12 -131h436q0 -51 -8 -98t-25 -78h-215q-68 0 -137 -2q14 -29 29 -53q47 -78 115.5 -122t158.5 -44q88 0 181.5 24.5 t160.5 61.5q23 -20 37 -50t20 -63q-37 -33 -87 -62.5t-110.5 -53t-130 -36.5t-143.5 -13q-166 0 -298 52t-224 146q-84 88 -135 205q-76 0 -164 -2z" />
<glyph unicode="&#x2122;" horiz-adv-x="3516" d="M1493 -6q0 45 3.5 85t13.5 75q39 2 67.5 18t50 55t35 104.5t23.5 164.5l45 499q5 55 5 95q0 13 -1 25q-2 46 -16.5 71.5t-43 35t-71.5 9.5q-10 37 -13 73.5t-3 86.5q23 -2 61 -3l81 -3q42 -1 81 -1h129q41 0 83 1t77 1q37 2 53 5l371 -885l319 885q27 -2 68 -3l83 -3 q42 -1 81 -1h124q39 0 79 1l77 3q37 1 60 3q0 -43 -3.5 -86t-13.5 -74q-47 0 -75.5 -11.5t-43 -39t-16.5 -73.5q-1 -12 -1 -24q0 -39 5 -90l57 -561q8 -92 18.5 -144t28 -80t44 -38t67.5 -14q14 -66 14 -162q-20 2 -70 3t-110.5 2t-122.5 1h-96q-37 0 -84 -1l-92 -2 q-45 -1 -83 -2t-56 -1q0 51 5 87t13 73q47 6 73.5 16t39 36.5t12.5 75t-8 128.5l-62 563l-381 -975q-27 -10 -71.5 -13t-81.5 -3l-432 985l-49 -463q-9 -99 -10 -163v-12q1 -67 16.5 -105t43 -53t70.5 -17q10 -35 13.5 -75t3.5 -85q-31 4 -95.5 5t-129.5 1q-33 0 -71 -1 l-75 -2q-37 -1 -68 -2t-45 -1zM51 999q10 41 19.5 91.5t16.5 102.5t11 103.5t4 94.5q63 -2 126 -3.5t135.5 -2.5t162.5 -1h416q88 0 162 1t139.5 2.5t128.5 3.5q0 -86 13.5 -191.5t35.5 -198.5q-41 -16 -95 -24t-118 -8q-29 137 -78 199.5t-153 62.5h-41v-848q0 -72 8 -115 t29.5 -67.5t60.5 -34.5t103 -12q10 -29 15 -74t5 -86q-57 4 -162.5 5t-236.5 1h-135q-70 0 -133.5 -1t-118 -2t-86.5 -3q0 37 7 84t17 76q63 2 105.5 12t67 34.5t34.5 67.5t10 115v848h-4q-113 0 -170 -64.5t-90 -197.5q-57 0 -112.5 5t-98.5 25z" />
<glyph unicode="&#xe000;" horiz-adv-x="940" d="M0 940h940v-940h-940v940z" />
<glyph unicode="&#xfb01;" horiz-adv-x="1640" d="M55 756q0 53 7.5 92t23.5 70h123v65q0 106 43 196.5t129 154t215 99t301 35.5q100 0 175 -7t130 -18t94 -24.5t66 -25.5q-16 -66 -20.5 -136.5t-4.5 -142.5q-66 -29 -153.5 -42t-186.5 -13q-6 72 -17 121t-30.5 78.5t-52.5 42t-84 12.5q-123 0 -169 -71t-46 -195v-129 h342q98 2 212 12t202 26q25 -10 47 -37.5t22 -76.5v-510q0 -55 7.5 -89t23.5 -53.5t42 -26.5t60 -9q12 -31 15.5 -73t3.5 -87q-25 2 -68 3t-92 2t-98 1h-174q-47 0 -95.5 -1t-91.5 -2t-73 -3q0 49 5 90t11 70q41 2 66.5 10t41 26.5t21.5 51t6 84.5v237q0 41 -6 72 t-25.5 50.5t-54.5 30.5t-90 13q-39 0 -79 -2t-75.5 -5t-63.5 -8t-42 -9v-302q0 -74 6 -118.5t21.5 -72.5t44 -40t71.5 -18q10 -31 12.5 -73t2.5 -87q-127 6 -330 6h-104q-53 0 -102.5 -1t-92.5 -2t-70 -3q0 47 2 86t13 74q41 2 67.5 11t42 33.5t21.5 66.5t6 110v344 q-35 14 -76 25.5t-78 11.5z" />
<glyph unicode="&#xfb02;" horiz-adv-x="1681" d="M55 756q0 43 6.5 88t22.5 74h125v59q0 123 49 215t137 153.5t210 92t265 30.5q86 0 174 -20q74 -16 123 -37q31 4 64 10q47 10 89 22.5t66 24.5q35 -16 53.5 -46.5t18.5 -84.5v-1005q0 -51 6 -85t21.5 -53.5t41 -28.5t66.5 -11q10 -29 13.5 -69t3.5 -91q-18 2 -55 3 t-84.5 2t-100.5 1h-213q-53 0 -100 -1t-84 -2t-55 -3q0 51 4 91t14 69q41 2 66.5 11t41 28.5t20.5 53.5t5 85v801q-4 43 -18 73q-18 39 -49 61.5t-69 34t-77 11.5q-57 0 -105.5 -13.5t-82 -44t-52 -82t-18.5 -126.5v-129h240q0 -49 -4.5 -96.5t-16.5 -73.5 q-59 0 -109.5 -6.5t-109.5 -26.5v-312q0 -66 6 -111.5t23.5 -74.5t49.5 -44t83 -19q12 -35 15 -78t3 -82q-59 4 -154.5 5t-193.5 1q-111 0 -206 -1t-167 -5q0 55 3 93t12 67q41 2 67.5 12t42 34.5t21.5 67.5t6 115v348q-47 14 -86 19.5t-68 5.5z" />
<glyph unicode="&#xfb03;" horiz-adv-x="2394" d="M55 756q0 43 6.5 88t22.5 74h125v59q0 115 44 200t124 140t189.5 82.5t240.5 27.5q102 0 209 -20q98 -18 174 -53q78 49 186 78q129 37 301 36q100 0 175 -7t130.5 -18t94.5 -24.5t65 -25.5q-16 -66 -20 -136.5t-4 -142.5q-66 -29 -154 -42t-186 -13q-6 72 -17.5 121 t-31 78.5t-52 42t-84.5 12.5q-123 0 -169 -71t-46 -195v-129h322q49 0 106.5 3t115.5 8t113.5 12t98.5 15q25 -10 47.5 -37.5t22.5 -76.5v-510q0 -55 7 -89t23.5 -53.5t42 -26.5t60.5 -9q12 -31 15 -73t3 -87q-25 2 -67.5 3t-92 2t-98.5 1h-174q-47 0 -95 -1t-91 -2t-74 -3 q0 49 5 90t11 70q41 2 67 10t41 26.5t21.5 51t6.5 84.5v237q0 41 -7.5 72t-28 50.5t-59.5 30.5t-102 13q-78 0 -144.5 -7t-95.5 -17v-302q0 -74 6.5 -118.5t21.5 -72.5t44 -40t72 -18q10 -31 12 -73t2 -87q-127 6 -330 6h-104q-53 0 -102.5 -1t-92.5 -2t-69 -3q0 47 2 86 t12 74q41 2 67.5 11t42 33.5t21.5 66.5t6 110v354q-51 14 -97 19.5t-75 5.5q-59 0 -109.5 -9.5t-109.5 -29.5v-312q0 -78 6 -125t22.5 -73.5t43 -36.5t69.5 -14q12 -35 15.5 -78t3.5 -82q-59 4 -144.5 5t-183.5 1q-111 0 -206 -1t-167 -5q0 55 3 93t12 67q41 2 67.5 12 t42 34.5t21.5 67.5t6 115v348q-47 14 -86 19.5t-68 5.5zM598 918h391v65q0 90 31 168q-29 53 -74 82q-68 41 -160 41q-51 0 -86.5 -9.5t-58.5 -35t-33 -70.5t-10 -119v-122z" />
<glyph unicode="&#xfb04;" horiz-adv-x="2441" d="M55 756q0 43 6.5 88t22.5 74h125v59q0 115 44 200t124 140t189.5 82.5t240.5 27.5q102 0 209 -20q94 -18 172 -53q84 55 196 84q123 31 267 30q86 0 174 -20q78 -16 129 -41l61 12q90 18 152 49q35 -16 53 -46.5t18 -84.5v-1005q0 -51 6.5 -85t21.5 -53.5t41 -28.5 t67 -11q10 -29 13 -69t3 -91q-18 2 -55 3t-84 2t-101 1h-213q-53 0 -100 -1t-84 -2t-55 -3q0 51 4 91t14 69q41 2 66.5 11t41 28.5t20.5 53.5t5 85v786q0 51 -18.5 89t-49 60.5t-68.5 34t-77 11.5q-57 0 -105 -13.5t-82 -44t-52.5 -82t-18.5 -126.5v-129h240q0 -49 -4 -96.5 t-17 -73.5q-59 0 -109 -6.5t-110 -26.5v-312q0 -66 6.5 -111.5t23.5 -74.5t49 -44t83 -19q12 -35 15.5 -78t3.5 -82q-59 4 -154.5 5t-194.5 1q-111 0 -206 -1t-166 -5q0 55 3 93t11 67q41 2 67.5 12t42 34.5t21.5 67.5t6 115v346q-51 14 -97 19.5t-75 5.5q-59 0 -109.5 -9.5 t-109.5 -29.5v-312q0 -78 6 -125t22.5 -73.5t43 -36.5t69.5 -14q12 -35 15.5 -78t3.5 -82q-59 4 -144.5 5t-183.5 1q-111 0 -206 -1t-167 -5q0 55 3 93t12 67q41 2 67.5 12t42 34.5t21.5 67.5t6 115v348q-47 14 -86 19.5t-68 5.5zM598 918h391v59q0 96 31 174q-29 55 -74 84 q-66 43 -147 43q-102 0 -151.5 -52t-49.5 -186v-122z" />
<glyph horiz-adv-x="628" d="M211 1122q0 41 -4 66.5t-19.5 40t-44 21.5t-75.5 12q0 31 3 67.5t13 65.5q104 12 194.5 38.5t163.5 59.5q35 -10 47.5 -32.5t12.5 -76.5v-499q0 -49 4 -79t16.5 -46.5t35 -22.5t58.5 -10q10 -23 11.5 -67t1.5 -91q-31 2 -69 3l-79 2q-41 1 -80 1h-71q-70 0 -134.5 -2 t-115.5 -4q0 41 3 80t11 78q39 4 62.5 10t36 20.5t15.5 42t3 74.5v248z" />
<glyph horiz-adv-x="788" d="M397 1483q98 0 155.5 2t88.5 2q10 -12 17.5 -41t7.5 -57q-111 -133 -211 -279q53 -6 99 -18.5t81 -37t55.5 -66.5t20.5 -107q0 -74 -29 -134.5t-82 -101.5t-127 -63.5t-162 -22.5q-98 0 -155.5 24.5t-79.5 45.5q-4 66 22 104q20 -10 63.5 -25.5t104.5 -15.5q74 0 111 35 t37 94q0 47 -31 76t-72 29q-39 0 -55 -8q-25 25 -36 55.5t-15 58.5q45 45 84 92t80 107h-66q-35 0 -61.5 -16.5t-44.5 -63.5q-35 0 -65 4t-52 19q6 27 11 68.5t9 87.5t5 88t1 69q39 -2 117 -3t174 -1z" />
<glyph horiz-adv-x="946" d="M733 471h78q37 0 55.5 -10t32.5 -37q-14 -27 -23.5 -82t-13.5 -94h-127q2 -16 4 -27q6 -29 18.5 -44t33 -20t49.5 -5q10 -41 11 -78t1 -78q-29 2 -69 3t-81 1h-266q-37 0 -72.5 -1t-62.5 -3q0 43 2 82t12 74q35 2 60.5 7t42 20.5t22.5 43.5l4 21h-53q-197 -4 -287 -11 q-8 8 -17 25.5t-16.5 38t-12.5 41t-5 35.5l137 157l122 145l113 139l112 142q25 0 54.5 -1t57 -3t51 -5t33.5 -9v-467zM449 471v182l-140 -182h140z" />
<glyph horiz-adv-x="864" d="M446 920q145 0 232.5 -49.5t87.5 -165.5q0 -88 -58.5 -162t-156.5 -142q-47 -33 -81 -60l-69 -58h134q63 0 83.5 14t24.5 63q43 0 83 -2t69 -12v-82q0 -43 1 -85t4 -77.5t9 -56.5q-14 -25 -41 -36t-61 -11h-41q-31 0 -70 1t-78 1h-63q-90 0 -163 -1t-161 -1 q-47 66 -47 170q27 33 60 68l53 53l77 78q92 92 128 160.5t36 134.5q0 131 -63 131q-16 0 -32.5 -9.5t-31 -33t-25 -64.5t-14.5 -104q-61 0 -97 5t-81 23q12 57 17.5 120t3.5 124q59 35 139.5 50.5t191.5 15.5z" />
</font>
</defs>
</svg>
